#TITLE:PEACE BREAKER;
#SUBTITLE:;
#ARTIST:Omnipointex;
#TITLETRANSLIT:;
#SUBTITLETRANSLIT:;
#ARTISTTRANSLIT:;
#CREDIT:;
#BANNER:;
#BACKGROUND:;
#LYRICSPATH:;
#CDTITLE:;
#MUSIC:PEACE BREAKER.mp3;
#OFFSET:-0.040;
#SAMPLESTART:24.050;
#SAMPLELENGTH:12.000;
#SELECTABLE:YES;
#BPMS:0.000=160.000;
#STOPS:;
#BGCHANGES:;

//---------------dance-single - ----------------
#NOTES:
     dance-single:
     :
     Beginner:
     1:
     0.147,0.237,0.012,0.025,0.000:
0000
0000
0000
0000
,
0000
0000
0000
0000
,
0000
0000
0000
0000
,
0000
0000
0000
0000
,
0000
0000
0000
0000
,
0000
0000
0000
0000
,
0000
0000
0000
0000
,
0000
0000
0000
0000
,
1000
0000
1000
0000
,
1000
0000
0100
0000
,
0010
0000
0010
0000
,
0010
0000
0001
0000
,
0100
0000
0100
0000
,
0100
0000
1000
0000
,
0020
0000
0000
0000
,
0030
0000
0000
0000
,
0010
0000
0100
0000
,
0010
0000
0000
0000
,
1000
0000
0001
0000
,
1000
0000
0000
0000
,
0001
0000
0100
0000
,
0001
0000
0000
0000
,
1000
0000
0010
0000
,
2000
0000
3000
0000
,
1000
0000
0100
0000
,
0010
0000
0000
0000
,
0001
0000
0010
0000
,
0100
0000
0000
0000
,
1000
0000
0001
0000
,
0010
0000
0000
0000
,
0100
0000
1000
0000
,
0001
0000
0000
0000
,
1000
1000
1000
1000
,
1000
1000
1000
0000
,
0001
0001
0001
0001
,
0001
0001
0001
0000
,
0100
0100
0100
0100
,
0100
0100
0100
0000
,
0010
0010
0010
0010
,
0010
0010
0010
0000
,
1000
0000
0001
0000
,
1000
0000
0001
0000
,
0100
0000
0010
0000
,
0100
0000
0010
0000
,
1000
0000
0100
0000
,
0010
0000
0001
0000
,
0010
0000
0100
0000
,
1000
0000
0000
0000
,
0000
1001
0000
0000
;

//---------------dance-single - ----------------
#NOTES:
     dance-single:
     :
     Easy:
     4:
     0.249,0.266,0.012,0.049,0.000:
0000
0000
0000
0000
,
0000
0000
0000
0000
,
0000
0000
0000
0000
,
0000
0000
0000
0000
,
0000
0000
0000
0000
,
0000
0000
0000
0000
,
0000
0000
0000
0000
,
0000
0000
0000
0000
,
1000
0100
0000
0100
,
1000
0010
0000
0010
,
0100
0001
0000
0001
,
0010
0100
0000
1000
,
0001
0100
0000
0100
,
0010
1000
0000
0001
,
0020
0000
0000
0030
,
0002
0000
0000
0000
,
1003
0100
1000
0010
,
0100
0001
0100
0010
,
1000
0001
0010
0001
,
0100
0000
0010
0000
,
1000
0100
0010
0001
,
0010
0100
1000
0001
,
0100
0010
1000
0001
,
0020
0000
0030
0000
,
0001
0100
0001
0010
,
0100
1000
0010
1000
,
0100
0010
0100
1000
,
0001
0000
0010
0000
,
0001
0100
0010
1000
,
0100
1000
0010
0100
,
0001
1000
0100
0010
,
0200
0000
0300
0000
,
0001
1000
0001
1000
,
0001
0100
0001
0100
,
0010
1000
0010
1000
,
0100
1000
0100
1000
,
0001
0010
0001
0100
,
0010
1000
0100
0010
,
0100
1000
0001
0100
,
0010
1000
0001
0010
,
0100
1000
0100
0010
,
0001
1000
0010
0100
,
0001
0100
0010
1000
,
0001
0000
0010
0000
,
0001
0100
0010
1000
,
0100
0010
0100
1000
,
0001
0100
0010
1000
,
0001
0010
0100
1000
,
0000
1001
0000
0000
;

//---------------dance-single - ----------------
#NOTES:
     dance-single:
     :
     Medium:
     5:
     0.326,0.414,0.012,0.025,0.000:
0000
0000
0000
0000
,
0000
0000
0000
0000
,
0000
0000
0000
0000
,
0000
0000
0000
0000
,
0000
0000
0000
0000
,
0000
0000
0000
0000
,
0000
0000
0000
0000
,
0000
0000
0000
0000
,
1000
0000
0001
0000
0000
0100
0000
0000
,
0010
0000
0000
1000
0000
0100
0000
1000
,
0000
0000
0010
0000
0000
0100
0000
0000
,
0001
0000
0000
0010
0000
0001
0000
1000
,
0000
0000
0010
0000
0000
0100
0000
0000
,
0001
0000
0000
0010
0000
0100
0000
1000
,
0002
0000
0000
0000
,
0000
0000
0000
0003
,
1000
0000
0100
0000
0010
0001
0000
0001
,
0010
0000
0100
1000
0000
0001
0000
0100
,
0000
0000
0010
0000
1000
0100
0000
0100
,
1000
0000
0010
0100
0000
0001
0000
0010
,
0000
0000
0100
0000
1000
0001
0000
0001
,
0100
0000
0010
1000
0000
0010
0000
0100
,
0000
0000
0001
0000
0010
0100
0000
0100
,
2000
0000
0000
0000
,
3001
0000
0100
0000
0010
1000
0000
1000
,
0010
0000
0100
0001
0000
0010
0000
0100
,
0000
0000
1000
0000
0100
0010
0000
0001
,
0100
0000
0010
1000
0000
0100
0000
0010
,
0000
0000
0100
0000
1000
0001
0000
0100
,
0010
0000
0010
0100
0000
0001
0000
0010
,
0000
0000
0100
0000
1000
0001
0000
0001
,
0100
0000
0010
1000
0000
0010
0100
0001
,
1000
0000
0010
0100
0001
0100
0010
0000
,
1000
0000
0100
0010
0100
1000
0001
0000
,
0100
0000
0010
1000
0010
0100
0001
0000
,
0010
0000
0001
0100
1000
0100
0001
0000
,
0010
0000
0100
1000
0010
0100
0001
0000
,
0010
0000
0001
0010
1000
0010
0100
0000
,
0001
0000
0010
0100
1000
0100
0010
0000
,
0001
1000
0010
0100
0001
0000
0010
0100
,
1000
0000
0001
0100
0000
0100
0001
0000
,
0010
0100
0000
0100
0010
0000
0100
0000
,
1000
0000
0010
1000
0000
1000
0010
0000
,
0100
0001
0000
0001
0100
0000
0010
0000
,
1000
0000
0001
0010
0000
0010
0001
0000
,
0100
0010
0000
0010
1000
0000
0100
0000
,
0010
0000
0100
1000
0000
1000
0001
0000
,
0001
0100
0000
0100
0010
1000
0001
0010
,
0000
1001
0000
0000
;

//---------------dance-single - ----------------
#NOTES:
     dance-single:
     :
     Hard:
     8:
     0.538,0.705,0.012,0.061,0.454: // measure 1
0000
0000
0000
0000
,  // measure 2
0000
0000
0000
0000
,  // measure 3
0000
0000
0000
0000
,  // measure 4
0000
0000
0000
0000
,  // measure 5
0000
0000
0000
0000
,  // measure 6
0000
0000
0000
0000
,  // measure 7
0000
0000
0000
0000
,  // measure 8
0000
0000
0000
0000
,  // measure 9
1000
0010
0100
0000
0001
0010
0100
1000
,  // measure 10
0100
0000
0010
0001
0000
1000
0000
0010
,  // measure 11
0100
0001
0100
0000
0010
1000
0001
0010
,  // measure 12
0100
0000
1000
0100
0000
0010
0000
0001
,  // measure 13
0100
0010
1000
0000
0010
0100
0001
0010
,  // measure 14
0100
0000
1000
0100
0000
0010
0000
0001
,  // measure 15
2000
0000
0000
0000
,  // measure 16
0000
0000
0000
3000
,  // measure 17
0001
0000
0000
0001
0010
0000
0000
0010
0100
0000
0000
0100
1000
0000
0000
1000
,  // measure 18
0010
0000
0000
0010
0100
0000
0000
0100
0001
0000
0000
0001
0010
0000
0000
0010
,  // measure 19
0100
0000
0000
0100
1000
0000
0000
1000
0010
0000
0000
0010
0100
0000
0000
0100
,  // measure 20
0001
0000
0000
0001
0010
0000
0000
0010
0100
0000
0000
0100
1000
0000
0001
0000
,  // measure 21
0100
0000
0000
0010
0000
0000
1000
0000
0100
0000
0000
0010
0000
0000
0001
0000
,  // measure 22
0100
0000
0000
0001
0000
0000
0010
0000
0100
0000
0000
1000
0000
0000
0001
0000
,  // measure 23
0100
0000
0000
0001
0000
0000
0010
0000
0100
0000
0000
1000
0000
0000
0010
0000
,  // measure 24
0200
0000
0000
0300
,  // measure 25
0100
0000
0000
0010
1000
0000
0000
0001
0010
0000
0000
0100
1000
0000
0000
0100
,  // measure 26
0010
0000
0000
0001
1000
0000
0000
0010
0100
0000
0000
0001
0100
0000
0000
0010
,  // measure 27
1000
0000
0000
0001
0010
0000
0100
0000
1000
0000
0000
0100
0010
0000
0001
0000
,  // measure 28
1000
0000
0000
0010
0000
0000
0100
0000
0001
0000
0000
0010
0000
0000
0100
0000
,  // measure 29
0010
0000
0000
0001
0000
0000
0100
0000
0010
0000
0000
1000
0000
0000
0100
0000
,  // measure 30
1000
0000
0000
0010
0000
0000
0100
0000
0001
0000
0000
0010
0000
0000
0001
0000
,  // measure 31
0100
0000
0000
0010
0000
0000
1000
0000
0010
0000
0000
0100
0000
0000
0001
0000
,  // measure 32
2000
0000
0000
0000
,  // measure 33
3010
0000
0100
0001
0100
0000
0010
0000
1000
0000
0100
0010
0100
0000
1000
0000
,  // measure 34
0001
0000
0100
0010
1000
0000
0100
0000
0010
0000
0100
1000
0001
0000
0100
0000
,  // measure 35
0010
0000
1000
0001
0010
0000
0100
0000
1000
0000
0100
0010
0100
0000
1000
0000
,  // measure 36
0001
0000
0100
0010
1000
0000
0001
0000
0010
0000
0100
1000
0100
1000
0100
0000
,  // measure 37
1000
0000
0010
0100
0001
0000
0100
0000
0010
0000
1000
0001
0010
0000
0100
0000
,  // measure 38
1000
0000
0100
0010
0100
0000
1000
0000
0001
0000
0100
0010
1000
0000
0001
0000
,  // measure 39
0010
0000
0100
1000
0100
0000
0010
0000
0001
0000
1000
0010
0100
0000
0001
0000
,  // measure 40
0100
0000
0010
1000
0001
0000
0010
0000
0100
0000
1000
0100
0010
0100
1000
0000
,  // measure 41
0001
0000
0010
0001
0010
0000
0100
0000
1000
0100
1000
0000
0010
0000
0100
0001
,  // measure 42
0100
0000
0001
0000
0010
0001
0010
0000
0001
0000
0100
0000
0010
0000
1000
0000
,  // measure 43
0001
0000
0010
0100
0010
0000
0001
0000
0100
0001
0100
0000
0010
0000
1000
0100
,  // measure 44
1000
0001
0010
0001
0100
0010
1000
0001
,  // measure 45
0010
0000
0001
0100
0001
0000
0100
0000
0010
1000
0010
0000
1000
0000
0100
1000
,  // measure 46
0100
1000
0010
0100
0001
0010
0100
1000
,  // measure 47
0100
0000
0010
0001
0010
0000
0001
0000
0100
0010
0100
0000
0010
0000
1000
0100
,  // measure 48
1000
0000
0001
0010
0001
0000
0010
0000
0100
0000
1000
0001
1000
0001
1000
0001
,  // measure 49
0000
2002
0000
0000
,  // measure 50
0000
0000
0000
0000
,  // measure 51
3003
0000
0000
0000
;
