#TITLE:Neurotoxin;
#SUBTITLE:;
#ARTIST:sakuzyo;
#TITLETRANSLIT:;
#SUBTITLETRANSLIT:;
#ARTISTTRANSLIT:;
#CREDIT:;
#BANNER:;
#BACKGROUND:;
#LYRICSPATH:;
#CDTITLE:;
#MUSIC:Neurotoxin.mp3;
#OFFSET:-6.900;
#SAMPLESTART:22.610;
#SAMPLELENGTH:12.000;
#SELECTABLE:YES;
#BPMS:0.000=180.000;
#STOPS:;
#BGCHANGES:;

//---------------dance-single - ----------------
#NOTES:
     dance-single:
     :
     Beginner:
     1:
     0.139,0.164,0.000,0.022,0.000: // measure 1
1000
0000
1000
0000
,  // measure 2
0001
0000
0001
0000
,  // measure 3
0100
0000
0100
0000
,  // measure 4
0020
0000
0030
0000
,  // measure 5
0010
0000
0010
0000
,  // measure 6
1000
0000
1000
0000
,  // measure 7
0100
0000
0100
0000
,  // measure 8
0001
0000
0001
0000
,  // measure 9
0010
0000
0001
0000
,  // measure 10
0010
0000
0000
0000
,  // measure 11
0100
0000
1000
0000
,  // measure 12
0100
0000
0000
0000
,  // measure 13
1000
0000
1000
0000
,  // measure 14
1000
0000
0000
0000
,  // measure 15
0001
0000
0001
0000
,  // measure 16
0001
0000
0000
0000
,  // measure 17
0100
0000
0100
0000
,  // measure 18
0100
0000
0000
0000
,  // measure 19
0010
0000
0010
0000
,  // measure 20
0010
0000
0000
0000
,  // measure 21
1000
0000
0100
0000
,  // measure 22
1000
0000
0000
0000
,  // measure 23
0001
0000
0010
0000
,  // measure 24
0001
0000
0000
0000
,  // measure 25
0100
0000
0010
0000
,  // measure 26
0100
0000
0000
0000
,  // measure 27
0001
0000
1000
0000
,  // measure 28
0001
0000
0000
0000
,  // measure 29
0100
0000
0000
0000
,  // measure 30
0000
0000
0000
0000
,  // measure 31
0010
0000
0000
0000
,  // measure 32
0000
0000
0000
0000
,  // measure 33
1000
0000
0000
0000
,  // measure 34
0000
0000
0000
0000
,  // measure 35
0001
0000
0000
0000
,  // measure 36
0010
0000
0000
0000
,  // measure 37
0100
0000
0100
0000
,  // measure 38
0100
0000
0000
0000
,  // measure 39
1000
0000
1000
0000
,  // measure 40
1000
0000
0000
0000
,  // measure 41
0010
0000
0000
0000
,  // measure 42
0000
0000
0000
0000
,  // measure 43
0001
0000
0000
0000
,  // measure 44
0000
0000
0000
0000
,  // measure 45
0100
0000
0010
0000
,  // measure 46
0100
0000
0010
0000
,  // measure 47
1000
0000
0001
0000
,  // measure 48
1000
0000
0001
0000
,  // measure 49
1000
0000
0100
0000
,  // measure 50
0010
0000
0001
0000
,  // measure 51
0001
0000
0010
0000
,  // measure 52
0100
0000
1000
0000
,  // measure 53
0010
0000
1000
0000
,  // measure 54
0100
0000
0000
0000
,  // measure 55
0010
0000
0001
0000
,  // measure 56
0100
0000
0000
0000
,  // measure 57
0001
0000
0010
0000
,  // measure 58
0001
0000
0000
0000
,  // measure 59
1000
0000
0100
0000
,  // measure 60
1000
0000
2000
0000
,  // measure 61
3000
0000
0000
0000
;

//---------------dance-single - ----------------
#NOTES:
     dance-single:
     :
     Easy:
     4:
     0.301,0.333,0.022,0.131,0.000:
1000
0100
1000
0000
,
0001
0010
0001
0000
,
0100
0010
0100
0000
,
2002
0000
3003
0000
,
0001
0100
0001
0000
,
1000
0010
1000
0000
,
0100
0010
0100
0000
,
0001
1000
0001
0000
,
1000
0010
0001
0000
,
0001
0100
1000
0000
,
0010
0000
0100
0000
,
0001
0000
1000
0000
,
0001
0100
0001
0100
,
0010
1000
0100
1000
,
0010
0100
0001
0100
,
0010
1000
0100
0001
,
0010
0001
0010
0001
,
1000
0100
1000
0100
,
0010
0001
0100
1000
,
0010
1000
0200
0000
,
0310
0001
0010
0001
,
1000
0100
1000
0100
,
0010
0001
0100
1000
,
0100
0001
0010
1000
,
0100
1000
0010
0100
,
0001
0010
0100
1000
,
0200
0000
0320
0000
,
0032
0000
1003
0001
,
2000
0000
0000
0000
,
0000
0000
0000
0000
,
3020
0000
0000
0000
,
0000
0000
0000
0000
,
0230
0000
0000
0000
,
0000
0000
0000
0000
,
0302
0000
0000
0000
,
0000
0000
0003
0000
,
1000
0100
0000
0100
,
1000
0010
0000
0010
,
0100
0001
0000
0001
,
0010
0100
1000
0001
,
0100
0000
0000
0000
,
0010
0000
0000
0000
,
1000
0000
0000
0000
,
0001
0000
0000
0000
,
0100
0010
0100
0010
,
1000
0001
1000
0001
,
0100
0010
1000
0001
,
0010
0000
0100
0000
1000
0100
1000
0000
,
0010
0100
0010
0100
,
0001
1000
0001
1000
,
0010
0100
0001
0010
,
0100
0000
0010
0000
0001
0100
0001
0000
,
0010
0001
0010
0100
,
1000
0100
0001
0010
,
0001
1000
0010
1000
,
0100
0000
0010
0000
0100
1000
0100
0000
,
1000
0000
0000
0010
0000
0000
0100
0000
,
0001
0000
0000
0010
0000
0000
0001
0000
,
0100
0000
0010
1000
0000
0001
0000
0100
,
0000
0010
0000
1000
0000
0100
0000
2002
,
0000
0000
0000
0000
,
3003
0000
0000
0000
;

//---------------dance-single - ----------------
#NOTES:
     dance-single:
     :
     Medium:
     6:
     0.415,0.467,0.022,0.142,0.000:
1000
0000
0001
0100
0000
0001
0000
0010
,
0000
0100
0000
1000
0000
0100
0010
0000
,
0100
0000
1000
0001
0000
0100
0000
0010
,
2000
3000
0002
0003
2000
3000
0002
0000
,
0103
0000
0010
1000
0000
0001
0000
0100
,
0000
0010
0000
0100
0000
0001
0010
0000
,
0001
0000
0100
0010
0000
1000
0000
0100
,
0000
1000
0000
0010
0000
0100
0001
0000
,
0100
0000
0010
1000
0000
0001
0000
0010
,
0000
0100
0000
1000
0000
0100
0010
0000
,
0001
1000
0001
1000
,
0010
0100
0020
1000
,
1030
0000
0100
0000
0010
0001
0010
0001
,
0000
0000
1000
0100
1000
0000
0010
0000
,
0100
0000
0001
0000
0010
0001
0100
0010
,
0000
0000
1000
0100
1000
0000
0010
0100
,
0001
0000
0010
0001
0000
0001
0010
0000
,
0100
0000
1000
0100
0000
0100
1000
0000
,
0010
0000
0100
0010
0000
0010
0100
0000
,
0020
0000
0000
0030
,
1000
0000
0100
0000
0010
0001
0010
0001
,
0000
0000
0000
0100
0010
0000
0100
0000
,
0010
0000
1000
0100
0000
0100
1000
0000
,
0010
0000
0100
0001
0100
0000
0001
0000
,
0010
0000
0001
0010
0000
0010
0001
0000
,
0100
0000
0010
1000
0000
1000
0010
0000
,
0100
0000
0001
0010
0000
0100
1000
0000
,
0002
0000
0000
0000
,
1003
0000
0100
0000
,
1000
0000
0100
0000
,
0010
0000
0001
0000
,
0010
0000
0001
0000
,
0100
0000
0001
0000
,
0100
0000
0001
0000
,
1000
0000
0010
0000
,
1000
0000
0010
0000
,
1000
0000
0100
1000
0000
1000
0100
0000
,
0010
0001
0000
0001
0010
0000
0001
0000
,
0100
0000
0010
0100
0000
0100
0010
0000
,
1000
0001
0000
0001
1000
0000
0010
0000
,
0200
0000
0000
0000
,
0302
0000
0000
0000
,
0023
0000
0000
0000
,
2030
0000
0000
0000
0001
3001
0000
0000
,
1000
0000
0100
0000
0010
0001
0100
0010
,
1000
0000
0100
0000
1000
0010
1000
0000
,
0001
0000
0100
0000
0010
0100
0001
0010
,
0100
0000
1000
0000
0100
0010
0001
0000
,
1000
0000
0010
0000
0100
0001
0100
0010
,
1000
0000
0001
0000
0010
0100
1000
0000
,
0100
0000
0010
0001
0000
0001
1000
0000
,
0010
0100
0000
0100
0010
0000
1001
0000
,
0001
0000
0100
0010
0000
0010
1000
0100
,
0010
0000
0100
1000
0000
0010
0100
0000
,
0001
0000
0010
0001
0000
0001
0100
0000
,
0010
1000
0001
0010
0000
0100
0010
0000
,
0001
0000
0100
0001
0000
0001
0100
0000
,
0010
0000
1000
0100
0000
0100
1000
0000
,
0010
0000
0100
0001
0000
0000
0001
0100
,
0000
0010
0000
1000
0000
0001
0000
0022
,
0000
0000
0000
0000
,
0033
0000
0000
0000
;

//---------------dance-single - ----------------
#NOTES:
     dance-single:
     :
     Hard:
     8:
     0.604,0.567,0.076,0.098,0.005:
1000
0100
0010
0001
0000
0001
0100
1000
,
0000
1000
0100
0001
0000
0001
0100
0000
,
0010
1000
0001
0010
0000
1000
0010
0001
,
0010
0100
0010
0100
0001
1000
0001
1000
,
0001
0100
0010
1000
0000
0010
0001
0100
,
0000
0010
1000
0100
0000
0100
1000
0000
,
0010
0100
0001
0010
0000
1000
0100
0001
,
0000
0001
0100
1000
0000
1000
0010
0000
,
0001
0100
0010
1000
0000
0010
0100
0001
,
0000
0010
0100
1000
0000
0100
0010
0000
,
0001
1000
0001
1000
0010
0100
0010
0100
,
0001
0100
0001
0100
0010
0000
1010
0000
,
1000
0000
0100
0000
1000
0010
0100
0001
,
0000
0000
0010
0000
0001
0000
0100
0001
0100
0000
0010
0000
1000
0000
0001
0000
,
0010
0100
1000
0100
0000
0100
0010
0001
,
1000
0010
0100
0001
0100
0010
1000
0001
,
0010
0000
0100
1000
0000
1000
0010
0100
,
0001
0010
0100
1000
0000
1000
0100
0010
,
0001
1000
0010
0100
0000
0100
0010
1000
,
0000
0001
0010
0001
0100
0010
1000
0001
,
0010
0001
0100
1000
0000
1000
0100
0001
,
0000
0001
0010
0100
1000
0100
0010
0001
,
0010
0001
0100
1000
0000
1000
0010
0100
,
0001
0010
0100
1000
0100
0010
0001
1000
,
0010
0100
0001
0010
0000
0010
0100
1000
,
0010
0100
0001
0100
0000
0100
0010
1000
,
0001
0000
0010
0100
1000
0000
0100
0010
,
0001
1000
0010
0100
0001
0010
0100
1000
,
0010
0000
0100
0001
0000
0010
0000
0100
,
0000
1000
0100
0000
,
0010
0000
0001
0100
0000
1000
0000
0100
,
0000
0001
0010
0100
,
1000
0000
0010
0100
0000
0001
0000
0100
,
0000
0000
0010
1000
,
0001
0000
0010
0100
0000
1000
0000
0010
,
0000
0000
0000
0100
0000
0001
0100
0010
,
1000
0000
0001
0100
0000
0100
0001
0010
,
0100
0000
1000
0100
0000
0100
1000
0010
,
0100
0000
0001
0010
0000
0010
0001
0100
,
0010
1000
0100
1000
0000
0100
1000
0010
,
0200
0000
0302
0000
,
0023
0000
0230
0000
,
2300
0000
3002
0000
,
0203
0000
0000
0000
0010
0310
0000
0000
,
1100
0000
1000
0010
0100
0001
0100
0010
,
1000
0001
0010
0100
1000
0100
0010
0001
,
0100
0000
0100
0010
1000
0100
0010
0100
,
1000
0001
0100
0010
1000
0001
0010
0100
,
1000
0000
0100
0010
0001
0010
0100
1000
,
0100
0001
0010
0100
1000
0100
0010
0001
,
0000
0001
0100
0010
1000
0001
0010
0100
,
1000
0100
0010
0001
1000
0000
1001
0000
,
1000
0010
1000
0010
0100
0010
0100
0010
,
0100
0001
0100
0001
1000
0001
1000
0001
,
0010
0001
0010
0001
1000
0010
1000
0010
,
0100
0001
0100
0001
1000
0100
1000
0100
,
0010
0001
1000
0010
0000
0010
0100
0001
,
0010
0100
1000
0100
0000
0010
0001
1000
,
0010
0100
0001
0100
0000
0010
1000
0100
,
0010
0011
0000
0101
0000
1001
0000
0220
,
0000
0000
0000
0000
,
0330
0000
0000
0000
;
