#TITLE:Lexus cyanixs;
#SUBTITLE:;
#ARTIST:sakuzyo;
#TITLETRANSLIT:;
#SUBTITLETRANSLIT:;
#ARTISTTRANSLIT:;
#CREDIT:;
#BANNER:;
#BACKGROUND:bgblack.PNG;
#LYRICSPATH:;
#CDTITLE:;
#MUSIC:Lexus cyanixs.mp3;
#OFFSET:-5.360;
#SAMPLESTART:48.050;
#SAMPLELENGTH:12.000;
#SELECTABLE:YES;
#BPMS:0.000=180.000;
#STOPS:;
#BGCHANGES:;

//---------------dance-single - ----------------
#NOTES:
     dance-single:
     :
     Beginner:
     1:
     0.133,0.185,0.052,0.013,0.000: // measure 1
0000
0000
1000
0000
,  // measure 2
0000
0000
0100
0000
,  // measure 3
0000
0000
0010
0000
,  // measure 4
0000
0000
0001
0000
,  // measure 5
0002
0000
0000
0000
,  // measure 6
0000
0000
0000
0000
,  // measure 7
0000
0000
0000
0000
,  // measure 8
0000
0000
0003
0000
,  // measure 9
0000
0001
0000
0001
,  // measure 10
0000
0100
0000
0100
,  // measure 11
0000
0010
0000
0010
,  // measure 12
0000
0000
0000
0000
,  // measure 13
0000
1000
0000
1000
,  // measure 14
0000
0100
0000
0100
,  // measure 15
0000
0010
0000
0010
,  // measure 16
0000
0000
0000
0000
,  // measure 17
0001
0000
0100
0000
,  // measure 18
0001
0000
0000
0000
,  // measure 19
1000
0000
0000
0000
,  // measure 20
0010
0000
0000
0000
,  // measure 21
0100
0000
0000
0000
,  // measure 22
0001
0000
0000
0000
,  // measure 23
0010
0000
0000
0000
,  // measure 24
0100
0000
0000
0000
,  // measure 25
0000
0000
1000
0000
,  // measure 26
1000
0000
1000
0000
,  // measure 27
0000
0000
0001
0000
,  // measure 28
0001
0000
0001
0000
,  // measure 29
0100
0000
0000
0000
,  // measure 30
0010
0000
0000
0000
,  // measure 31
1000
0000
0100
0000
,  // measure 32
0010
0000
0001
0000
,  // measure 33
0000
1001
0000
0100
,  // measure 34
0000
0010
0000
0100
,  // measure 35
0000
0001
0000
1000
,  // measure 36
0000
0001
0000
0000
,  // measure 37
0000
1000
0000
0100
,  // measure 38
0000
0010
0000
0001
,  // measure 39
0000
0010
0000
0100
,  // measure 40
0000
1000
0000
0000
,  // measure 41
0010
0000
1000
0000
,  // measure 42
0100
0000
0001
0000
,  // measure 43
0010
0000
0000
0000
,  // measure 44
0110
0000
0000
0000
,  // measure 45
0001
0001
0000
0001
,  // measure 46
0000
0100
0000
0010
,  // measure 47
0000
1000
0000
0001
,  // measure 48
0000
1001
0000
0110
;

//---------------dance-single - ----------------
#NOTES:
     dance-single:
     :
     Easy:
     5:
     0.331,0.340,0.155,0.000,0.026: // measure 1
1000
0000
0100
0000
,  // measure 2
0010
0000
0001
0000
,  // measure 3
0100
0000
0010
0000
,  // measure 4
1000
0000
0001
0000
,  // measure 5
0000
1000
0000
1000
,  // measure 6
0000
0001
0000
0001
,  // measure 7
0000
0010
0000
0100
,  // measure 8
0000
0010
0000
0100
,  // measure 9
0100
0001
0010
0100
,  // measure 10
1000
0000
0100
0000
0000
0010
0001
0000
,  // measure 11
0100
0010
1000
0100
,  // measure 12
1000
0000
0001
0000
0000
0001
1000
0000
,  // measure 13
0001
0100
1000
0100
,  // measure 14
0010
0000
0001
0000
0000
1000
0100
0000
,  // measure 15
0001
1000
0010
0001
,  // measure 16
0010
0000
0100
0000
0000
0100
0010
0000
,  // measure 17
1000
0100
0010
0100
,  // measure 18
1000
0001
0100
0010
,  // measure 19
1000
0001
0010
0001
,  // measure 20
0100
0000
0010
0000
1000
0000
0000
1100
,  // measure 21
0000
0010
0001
0100
,  // measure 22
1000
0100
0010
0001
,  // measure 23
0100
0010
1000
0100
,  // measure 24
0000
1000
0000
1000
0000
0000
0010
0000
0000
0000
0000
0000
0100
0000
0000
0000
,  // measure 25
0001
0000
0011
0000
,  // measure 26
0110
0000
1100
0000
,  // measure 27
1000
0000
0000
0010
0000
0000
0100
0000
,  // measure 28
0001
0000
0010
0000
0100
0000
0000
1100
,  // measure 29
0000
0000
1000
0000
0010
0000
0000
0110
,  // measure 30
0000
0000
0001
0100
0000
0001
0100
0000
,  // measure 31
0010
1000
0100
0001
,  // measure 32
0010
0000
0100
0000
0001
1000
0001
1000
,  // measure 33
0000
0001
0000
0100
,  // measure 34
0010
1000
0100
1000
,  // measure 35
0001
0100
0010
1000
,  // measure 36
0010
0100
0001
0010
,  // measure 37
0000
1100
0000
0001
,  // measure 38
0100
0010
1000
0010
,  // measure 39
0100
0000
0000
0010
0000
0000
0100
0000
0000
0000
0000
0000
0010
0000
0000
0000
,  // measure 40
0000
1000
1000
0000
0100
0000
0010
0000
,  // measure 41
0001
0100
1000
0100
,  // measure 42
0010
0001
0100
0010
,  // measure 43
0110
0000
0000
1001
0000
0000
0110
0000
,  // measure 44
1000
0010
0100
0001
,  // measure 45
0010
0000
0010
0001
0000
0000
0100
0000
0000
0010
0000
0000
,  // measure 46
1000
0100
0010
0001
,  // measure 47
1000
0000
0010
0000
0100
0001
0100
0001
,  // measure 48
0000
1001
0000
0110
;

//---------------dance-single - ----------------
#NOTES:
     dance-single:
     :
     Medium:
     6:
     0.434,0.473,0.142,0.026,0.110: // measure 1
1000
0000
0100
0000
1000
0000
0000
0001
,  // measure 2
0000
0000
0010
0001
0010
0000
0100
1000
,  // measure 3
0000
0001
0100
0010
0000
0000
0010
1000
,  // measure 4
0000
0001
0000
0010
0000
0100
1000
0000
,  // measure 5
0010
0100
0000
0100
,  // measure 6
0000
0001
0000
0001
,  // measure 7
0000
1000
0000
1000
,  // measure 8
0000
0010
0000
0010
,  // measure 9
0001
0000
0100
0000
0000
0010
1000
0000
,  // measure 10
0010
0000
0100
0000
0000
0001
1000
0001
,  // measure 11
0010
0000
0100
0000
0000
1000
0100
0000
,  // measure 12
0010
0001
0000
0001
0000
0010
0000
0100
,  // measure 13
1000
0000
0100
0000
0000
0001
0100
0000
,  // measure 14
0010
0000
1000
0000
0000
0010
0001
0100
,  // measure 15
0010
0000
1000
0000
0000
0010
0010
0000
,  // measure 16
1000
0001
0000
1000
0000
0000
0001
0000
0000
0000
0100
0000
0010
0000
1000
0000
,  // measure 17
0001
0000
0100
0001
0010
0000
0100
1000
,  // measure 18
0000
1000
0100
0010
0000
0010
0001
0100
,  // measure 19
0000
0010
0000
1000
0000
0000
0000
0001
,  // measure 20
0010
0000
0001
0100
0000
0010
0000
1100
,  // measure 21
0000
0000
0101
0000
0000
0001
0000
0001
,  // measure 22
0000
0100
0000
0010
0000
1000
0000
0000
,  // measure 23
0010
0000
1000
0010
0000
0010
0100
0001
,  // measure 24
0010
0001
0000
0100
0000
0000
0010
0000
0000
0000
1000
0000
0000
0000
0010
0000
,  // measure 25
0100
0000
0101
0000
,  // measure 26
0011
0000
1100
0000
,  // measure 27
1010
0000
0000
1001
0000
0000
0101
0000
,  // measure 28
0000
0000
0001
0000
0010
0001
0000
0010
,  // measure 29
0000
0000
0100
0000
1000
0001
0000
0100
,  // measure 30
0000
0000
0010
1000
0000
1000
0010
0100
,  // measure 31
0001
0010
0100
1000
,  // measure 32
0100
0010
0100
0010
0001
1000
0010
0100
,  // measure 33
0001
0000
0100
0000
0000
0010
1000
0001
,  // measure 34
0000
0000
0100
0010
0000
0010
0100
0010
,  // measure 35
1000
0001
0000
0010
0000
0000
0100
0000
,  // measure 36
1000
0100
0000
0010
0001
1000
0010
0100
,  // measure 37
0000
0000
0101
0000
0000
0001
0000
0010
,  // measure 38
0000
0100
0000
1000
0100
0000
0010
0000
,  // measure 39
0001
0000
0000
1000
0000
0000
0010
0000
0000
0000
0000
0000
0110
0000
0000
0000
,  // measure 40
0000
0000
0001
0000
0000
0010
0000
0000
0100
0000
0000
1000
0000
0000
0001
0000
,  // measure 41
0100
0000
0001
0000
0100
0000
0010
0000
1000
0000
0010
0000
,  // measure 42
0100
0000
0000
0000
0001
0000
0000
0000
0010
0000
0000
0000
0100
0000
0000
1000
0000
0000
0010
0000
0100
0000
0001
0000
,  // measure 43
1000
0000
0001
0100
0000
0100
0001
0000
,  // measure 44
0010
0000
0100
1000
0000
1000
0100
0010
,  // measure 45
0001
0000
0100
0000
0010
0000
1000
0000
0000
0010
0000
0000
0000
0000
0000
0010
0000
0000
0100
0000
0000
0001
0000
0000
,  // measure 46
0010
0100
1000
0100
0000
0010
0001
1000
,  // measure 47
0000
0010
0100
0000
0001
0010
0100
1000
,  // measure 48
0100
0010
0001
0000
0000
0000
2002
0000
,  // measure 49
0000
0000
0000
3003
;

//---------------dance-single - ----------------
#NOTES:
     dance-single:
     :
     Hard:
     9:
     0.591,0.599,0.233,0.026,0.259: // measure 1
0010
0000
1000
0000
1100
0000
0100
0010
,  // measure 2
0001
0000
0100
0010
1000
0001
0010
0100
,  // measure 3
0000
1000
0100
0010
0000
0001
1000
0010
,  // measure 4
0000
0010
0100
0001
0010
0100
1000
0100
,  // measure 5
0010
0000
0001
0100
0000
0010
1000
0001
,  // measure 6
0000
0010
0100
1000
0100
0010
0001
1000
,  // measure 7
0010
0000
0000
0000
1000
0000
0000
0100
0000
0000
0100
0000
1000
0000
0010
0000
,  // measure 8
0100
0000
0101
0000
0001
0010
0100
1000
,  // measure 9
0001
0000
0010
0001
0000
0001
0010
0000
,  // measure 10
0100
1000
0100
0010
0000
0010
0100
1000
,  // measure 11
0001
0000
0100
0010
0000
0010
0100
0000
,  // measure 12
0101
0000
0000
0000
1010
0000
0000
0010
0000
1000
0001
0000
0010
0000
0000
0000
,  // measure 13
0100
0000
1000
0010
0000
0010
1000
0000
,  // measure 14
0001
0100
0010
1000
0000
1000
0010
0100
,  // measure 15
0001
0000
1000
0100
0000
0100
1000
0000
,  // measure 16
0010
0100
0000
0001
0000
0000
1000
0000
0000
0000
0010
0000
0100
0000
0001
0000
,  // measure 17
0010
1000
0100
1000
0010
0100
0001
0010
,  // measure 18
0100
1000
0100
0010
0001
1000
0010
0100
,  // measure 19
0001
0010
0100
1000
0100
0010
0001
1000
,  // measure 20
0010
0000
1000
0100
0000
0001
0000
0011
,  // measure 21
0000
0000
0001
0100
0000
0100
0010
1000
,  // measure 22
0000
0010
0000
0100
0000
0001
0000
0100
,  // measure 23
0010
1000
0010
0100
0000
0100
0001
0010
,  // measure 24
0001
0010
0000
0001
0000
0000
0100
0000
0000
0000
0010
0000
1000
0000
0000
0000
,  // measure 25
0100
0001
0011
0010
,  // measure 26
0110
0100
1100
1000
,  // measure 27
1010
0000
0000
0101
0000
0000
0011
0000
,  // measure 28
0001
0000
0000
0000
0100
0000
0000
0000
0010
1000
0000
0010
0000
0000
1010
0000
,  // measure 29
0000
0000
0100
0000
0001
0010
0000
0011
,  // measure 30
0000
0000
0000
0000
0001
0010
0001
0000
0000
0000
0100
0000
0010
0000
1000
0000
,  // measure 31
0001
0001
0100
0100
,  // measure 32
0010
0000
1000
0000
0010
0000
1000
0000
0001
1000
0001
1000
0001
1000
0001
1000
,  // measure 33
0001
0000
1001
0000
0000
0010
1000
0001
,  // measure 34
0000
0010
0001
0100
0000
0100
0010
1000
,  // measure 35
0001
0010
0000
0010
0000
0001
0100
0010
,  // measure 36
1000
0001
0000
0001
0010
0100
1000
0100
,  // measure 37
0000
0000
0110
0000
0001
0100
0000
0010
,  // measure 38
0000
0000
1000
0000
0000
0000
0001
0000
0010
0000
0000
0001
0000
0000
0100
0000
,  // measure 39
0010
0000
0000
1000
0000
0000
0001
0000
0000
0000
0000
0000
0110
0000
0000
0000
,  // measure 40
0001
0000
0000
0000
0000
0000
0100
0000
0000
0000
0000
0000
0000
0000
0000
0010
0000
0000
0000
0000
0000
0000
0000
0000
1000
0000
0000
0000
0000
0000
0000
0000
0001
0000
0000
0000
0000
0000
0000
0000
0010
0000
0000
0000
0000
0000
0000
0000
,  // measure 41
0100
0000
1000
0000
0010
0000
0100
0000
0001
0000
0010
0000
,  // measure 42
0100
0000
1000
0000
0001
0000
0100
0010
1000
0001
0010
0100
,  // measure 43
1000
0000
0001
0100
0001
0000
0010
0000
0100
1000
0100
0000
0010
0000
0001
0000
,  // measure 44
0100
0010
1000
0001
0010
0100
1000
0010
,  // measure 45
0100
0000
0001
0000
0100
0000
0001
0000
0000
0010
0000
0000
0000
0000
0000
0100
0000
0000
1000
0000
0000
0010
0000
0000
,  // measure 46
0100
0000
0001
0000
0010
0001
0010
0000
0100
0000
1000
0000
0010
0100
0010
0000
,  // measure 47
0100
0000
0000
0000
0000
0000
0001
0000
0000
0010
0000
0000
0001
0000
0000
0000
0000
0000
1000
0000
0000
0000
0000
0000
0010
0000
0000
0000
0100
0000
0000
0000
0001
0000
0000
0000
1000
0000
0000
0000
0010
0000
0000
0000
0100
0000
0000
0000
,  // measure 48
0001
0100
0110
0000
0000
0000
2002
0000
,  // measure 49
0000
0000
0000
3003
;
