#TITLE:Lambda Driver;
#SUBTITLE:;
#ARTIST:SPELL BREAK;
#TITLETRANSLIT:;
#SUBTITLETRANSLIT:;
#ARTISTTRANSLIT:;
#CREDIT:;
#BANNER:;
#BACKGROUND:;
#LYRICSPATH:;
#CDTITLE:;
#MUSIC:Lambda Driver.mp3;
#OFFSET:-4.660;
#SAMPLESTART:41.820;
#SAMPLELENGTH:12.000;
#SELECTABLE:YES;
#BPMS:0.000=155.000;
#STOPS:;
#BGCHANGES:;

//---------------dance-single - ----------------
#NOTES:
     dance-single:
     :
     Beginner:
     1:
     0.101,0.143,0.000,0.010,0.000:
1000
0000
1000
0000
,
1000
0000
1000
0000
,
0001
0000
0001
0000
,
0001
0000
0001
0000
,
0100
0000
0100
0000
,
0100
0000
0100
0000
,
0010
0000
0010
0000
,
0010
0000
0010
0000
,
0100
0000
0000
0000
,
0010
0000
0000
0000
,
1000
0000
0000
0000
,
0001
0000
0000
0000
,
0100
0000
0000
0000
,
0010
0000
0000
0000
,
1000
0000
0000
0000
,
0001
0000
0000
0000
,
0100
0000
0000
0000
,
0000
0000
0000
0000
,
0000
0000
0000
0000
,
0000
0000
0000
0000
,
0010
0000
0000
0000
,
0000
0000
0000
0000
,
0000
0000
0000
0000
,
0000
0000
0000
0000
,
1000
0000
0001
0000
,
1000
0000
0000
0000
,
0010
0000
0100
0000
,
0010
0000
0000
0000
,
0100
0000
0001
0000
,
0100
0000
0000
0000
,
0010
0000
1000
0000
,
0010
0000
0000
0000
,
1000
0000
0100
0000
,
1000
0000
0000
0000
,
0001
0000
0010
0000
,
0001
0000
0000
0000
,
1000
0000
0001
0000
,
1000
0000
0000
0000
,
0010
0000
0100
0000
,
0010
0000
0000
0000
,
1000
0000
0000
0000
,
0100
0000
0000
0000
,
0010
0000
0000
0000
,
0001
0000
0000
0000
,
0100
0000
0000
0000
,
0010
0000
0000
0000
,
1000
0000
0000
0000
,
0001
0000
0000
0000
,
0010
0000
0100
0000
,
0010
0000
0000
0000
,
0100
0000
0010
0000
,
0100
0000
0000
0000
,
1000
0000
0001
0000
,
1000
0000
0000
0000
,
0001
0000
1000
0000
,
0001
0000
0000
0000
,
0000
0200
0000
0000
,
0000
0000
0000
0000
,
0000
0300
0000
0000
;

//---------------dance-single - ----------------
#NOTES:
     dance-single:
     :
     Easy:
     4:
     0.241,0.276,0.020,0.029,0.010: // measure 1
1000
0010
0100
0001
,  // measure 2
0010
0001
0100
0010
,  // measure 3
1000
0100
0001
0010
,  // measure 4
0001
0100
1000
0010
,  // measure 5
0100
0010
0100
0010
,  // measure 6
1000
0001
1000
0001
,  // measure 7
0100
0010
1000
0001
,  // measure 8
0010
0100
1000
0001
,  // measure 9
0200
0300
0001
0010
,  // measure 10
0001
0100
0010
1000
,  // measure 11
0100
1000
0001
0100
,  // measure 12
0010
1000
0001
0000
,  // measure 13
0020
0030
0100
0001
,  // measure 14
0100
0010
1000
0100
,  // measure 15
1000
0000
0000
0010
0000
0000
0100
0000
0001
0000
0100
0000
,  // measure 16
0001
0100
0010
1000
,  // measure 17
0002
0000
0000
0000
,  // measure 18
0000
0000
0000
0000
,  // measure 19
0000
0000
0000
0000
,  // measure 20
0000
0000
0000
0000
,  // measure 21
1000
0000
0000
0000
,  // measure 22
0000
0000
0000
0000
,  // measure 23
0000
0000
0000
0000
,  // measure 24
0000
0000
0000
0003
,  // measure 25
1000
0001
1000
0001
,  // measure 26
0100
0010
0100
0010
,  // measure 27
1000
0100
0010
0100
,  // measure 28
1000
0001
0100
0000
,  // measure 29
0010
0100
0010
0100
,  // measure 30
0001
1000
0001
1000
,  // measure 31
0001
0100
0010
1000
,  // measure 32
0010
0100
0001
0000
,  // measure 33
0010
0001
0010
0010
,  // measure 34
0100
1000
0100
0100
,  // measure 35
1000
0010
1000
1000
,  // measure 36
0100
0010
0001
0001
,  // measure 37
0010
0001
0100
1000
,  // measure 38
0100
0001
0010
0100
,  // measure 39
1000
0000
0001
0000
,  // measure 40
0100
0100
0010
0010
,  // measure 41
0100
0000
0010
0000
,  // measure 42
0100
0000
0010
0000
,  // measure 43
1000
0100
1000
0001
,  // measure 44
0100
0001
1000
0000
,  // measure 45
0010
0000
0010
0000
,  // measure 46
0100
0000
0100
0000
,  // measure 47
0001
0010
0001
0100
,  // measure 48
0010
0100
1000
0000
,  // measure 49
0010
0000
0100
0000
,  // measure 50
0010
0000
0010
0000
,  // measure 51
1000
0100
1000
0010
,  // measure 52
0100
0001
0010
0000
,  // measure 53
0100
0000
0100
0000
,  // measure 54
0010
0000
0010
0000
,  // measure 55
1000
0000
0001
0000
,  // measure 56
1001
0000
1001
0000
,  // measure 57
0010
0010
0000
0000
;

//---------------dance-single - ----------------
#NOTES:
     dance-single:
     :
     Medium:
     5:
     0.360,0.358,0.029,0.039,0.010:
1000
0000
0010
0000
0100
0001
0100
0000
,
0010
0000
1000
0000
0001
0010
0001
0000
,
0100
0000
0010
0000
1000
0100
1000
0000
,
0001
0000
0100
0000
0010
1000
0010
0000
,
1000
0000
0100
0000
0000
1000
0001
0000
,
0100
0000
0010
0000
0000
1000
0010
0000
,
0100
0001
0010
0100
,
1000
0000
0100
0000
0010
0001
0010
0000
,
2000
0000
3001
0000
0100
0000
0010
1000
,
0010
0000
0100
0001
0100
0000
0010
1000
,
0100
0000
0010
0001
0100
0000
0001
1000
,
0100
0010
0100
1000
,
0001
0000
0100
0010
,
1000
0100
1000
0000
0001
0100
0001
0000
,
0010
0000
0000
0100
0000
0000
1000
0000
0000
0000
0000
0000
0100
0000
0000
0000
0001
0000
0000
0000
0010
0000
0000
0000
,
1000
0001
0000
0001
1000
0000
0110
0000
,
0020
0100
0000
0000
,
0100
0000
0000
0000
,
0100
0000
0000
0000
,
0100
0000
0000
0030
,
2001
0000
0000
0000
,
0001
0000
0000
0000
,
0001
0000
0000
0000
,
0002
0000
0000
3003
,
0001
0000
0100
0000
0000
0010
1000
0000
,
0010
0000
1000
0000
0000
0001
0010
0000
,
0100
0000
1000
0000
0000
0100
0010
0000
,
0001
0000
0100
0001
0000
0001
0100
0000
,
0010
0000
1000
0000
0000
0100
1000
0000
,
0001
0000
0100
0000
0000
0010
1000
0000
,
0001
0000
0010
0000
0000
0100
1000
0000
,
0100
0000
0010
0001
0000
0001
0010
0000
,
0001
0000
1000
0000
0100
1000
0100
0000
,
0010
0000
0001
0000
0100
0010
0100
0000
,
0001
0000
0010
0000
0001
1000
0100
0000
,
1000
0000
0010
0100
0000
0100
0010
0000
,
1000
0000
0100
0000
0010
0001
0100
0000
,
0001
0000
0010
0000
0100
1000
0001
0000
,
0100
0000
0010
0000
1000
0001
0010
0000
,
0100
0000
1000
0010
0000
0100
0001
0000
,
0010
0000
0001
0100
0001
0000
0010
0000
,
0100
0000
1000
0100
1000
0000
0010
0000
,
0100
0000
0001
1000
0001
0000
0010
0100
,
0010
0000
0001
0100
0001
0000
1000
0010
,
1000
0000
0010
0000
0100
0000
0001
0010
,
0001
0000
0100
0000
0010
0000
1000
0100
,
1000
0000
0001
0010
0001
0000
0100
0010
,
0100
0000
0001
1000
0001
0000
0100
0010
,
1000
0000
0010
0000
0100
0000
0001
0010
,
0100
0000
1000
0100
0010
0000
0001
1000
,
0010
0000
0100
0001
0100
0000
1000
0100
,
0010
0000
0001
0100
0001
0000
1000
0000
,
0100
0010
0100
0010
,
0001
1000
0001
0000
0010
0100
0010
0000
,
0001
1000
0010
0000
0001
1000
0100
0000
,
0100
0010
0000
0001
1000
0000
0010
0000
,
0100
0110
0000
0000
;

//---------------dance-single - ----------------
#NOTES:
     dance-single:
     :
     Hard:
     7:
     0.447,0.477,0.069,0.078,0.020:
1000
0100
0010
0000
0010
0001
0010
0000
,
0100
1000
0100
0000
0100
0010
0001
0000
,
0001
0100
0010
0000
0010
1000
0100
0000
,
0100
0010
0001
0000
0001
0010
0100
0000
,
1000
0010
1000
0000
0000
0001
0100
0000
,
0010
1000
0001
0000
0000
0010
0100
0000
,
1000
0100
0010
0000
0001
0000
0010
0000
,
0100
0000
1000
0000
0001
0100
0001
0000
,
0020
0000
0031
0100
0010
1000
0001
0010
,
0100
1000
0100
0010
0001
1000
0010
0100
,
0001
0000
0010
1000
0001
0010
0100
1000
,
0200
0000
0301
0010
0100
1000
0000
1000
,
0010
0000
0010
1000
0100
0010
0001
0010
,
0100
1000
0001
0100
0010
1000
0001
0010
,
0100
0000
0000
0000
0000
0000
1000
0000
0000
0100
0000
0000
0010
0000
0001
0000
0010
0000
0100
0000
1000
0000
0100
0000
,
1000
0010
0000
0010
1000
0000
1001
0000
,
0220
0000
0000
0000
,
0000
0000
0000
0000
,
0000
0000
0000
0000
,
0000
0000
0000
0330
,
2002
0000
0000
0000
,
0000
0000
0000
0000
,
0000
0000
0000
0000
,
0000
0000
0000
3003
,
1000
0000
0100
0000
0010
0001
0010
0001
,
0010
0000
0100
0000
1000
0001
0100
0010
,
1000
0000
0010
0000
0100
0001
0010
0001
,
1000
0000
0100
1000
0000
1000
0010
0000
,
0100
0000
0001
0000
0010
0100
1000
0100
,
0010
0000
0001
0000
1000
0010
0100
0001
,
0100
0000
0010
0000
1000
0001
0010
0100
,
1000
0000
0100
1000
0000
1000
0001
0000
,
0100
0000
0010
0000
1000
0100
0001
0100
,
1000
0000
0100
0000
0010
0001
0100
0010
,
1000
0000
0010
0000
0100
0001
0010
0100
,
1000
0000
1000
0001
0000
0001
0100
0000
,
0010
0000
1000
0000
0100
1000
0001
0100
,
0010
0000
1000
0000
0001
0010
0100
1000
,
0100
0000
0010
0000
0001
1000
0010
0100
,
0001
0000
0100
0001
0000
0001
1000
0001
,
1000
0100
1000
0010
0100
0001
0100
0000
,
0001
0010
0001
1000
0100
0010
0100
0000
,
1000
0001
0100
0010
1000
0001
0010
0000
,
0100
1000
0010
0000
0100
0001
0010
0000
,
0001
0010
0001
0100
0010
1000
0001
0000
,
0010
0100
1000
0100
0010
0001
1000
0000
,
0001
0100
0010
1000
0001
0010
0001
0000
,
1000
0001
1000
0001
0000
0001
1000
0000
,
0010
0000
0100
0000
0001
0100
0010
1000
,
0001
0000
0010
0000
0100
1000
0100
0010
,
0001
0000
1000
0000
0010
0100
0001
0100
,
0010
0000
1000
0000
0001
0010
0100
1000
,
0001
1000
0001
1000
0001
1000
0001
1000
,
0010
0100
0010
0100
0010
0100
0010
0100
,
0010
1000
0100
0010
0001
0100
0010
1000
,
0001
0011
0000
0000
1100
0000
1001
0000
,
0100
2002
0000
0000
,
0000
3003
0000
0000
;
