#TITLE:HE IS AN ENERGIZER;
#SUBTITLE:;
#ARTIST:Mr.ABC;
#TITLETRANSLIT:;
#SUBTITLETRANSLIT:;
#ARTISTTRANSLIT:;
#CREDIT:;
#BANNER:banner.png;
#BACKGROUND:background.png;
#LYRICSPATH:;
#CDTITLE:;
#MUSIC:HE is an Energizer.mp3;
#OFFSET:-6.500;
#SAMPLESTART:26.000;
#SAMPLELENGTH:12.980;
#SELECTABLE:YES;
#BPMS:0.000=148.000;
#STOPS:;
#BGCHANGES:;

//---------------dance-single - ----------------
#NOTES:
     dance-single:
     :
     Beginner:
     1:
     0.140,0.219,0.076,0.113,0.000:
0000
0000
0000
0000
,
0000
0000
0000
0000
,
0000
0000
0000
0000
,
0000
0000
0000
0000
,
0001
0000
0001
0000
,
0001
0000
0001
0000
,
0010
0000
0010
0000
,
0010
0000
0010
0000
,
0100
0100
0100
0000
,
0100
0100
0100
0000
,
0200
0000
0000
0000
,
0300
0000
0000
0000
,
1000
0000
1000
0000
,
1000
0000
0000
0000
,
0010
0000
0010
0000
,
0010
0000
0000
0000
,
0100
0000
0100
0000
,
0100
0000
0000
0000
,
0001
0000
0001
0000
,
0001
0000
0000
0000
,
0010
0000
0010
0000
,
0010
0000
0000
0000
,
0001
0000
0001
0000
,
0001
0000
0000
0000
,
0100
0000
0100
0000
,
0100
0000
0000
0000
,
1000
0000
1000
0000
,
1000
0000
0000
0000
,
0020
0000
0000
0030
,
2000
0000
0000
3000
,
0002
0000
0000
0003
,
0200
0000
0000
0300
,
0020
0000
0000
0030
,
0200
0000
0000
0300
,
0002
0000
0000
0003
,
2000
0000
0000
3000
,
0010
0000
1000
0000
,
0100
0000
0001
0000
,
0001
0000
0100
0000
,
1000
0000
0010
0000
,
0010
0000
1001
0000
,
0100
0000
1001
0000
,
0110
0000
1001
0000
,
0110
0000
1001
0000
;

//---------------dance-single - ----------------
#NOTES:
     dance-single:
     :
     Easy:
     5:
     0.394,0.386,0.101,0.315,0.094: // measure 1
1000
1000
0001
0001
,  // measure 2
0100
0000
0100
0000
0010
0100
0010
0000
,  // measure 3
0100
0000
0001
0000
,  // measure 4
0010
0000
1000
1001
,  // measure 5
0001
0100
0010
1000
,  // measure 6
0010
0000
0100
0000
0001
0100
0000
0000
,  // measure 7
0010
1000
0010
0100
,  // measure 8
0001
0010
0100
1000
,  // measure 9
0001
0000
1000
0000
0001
0000
1000
0001
,  // measure 10
1000
0000
0001
0000
1000
0001
1000
0002
,  // measure 11
0000
0000
0000
0000
,  // measure 12
1003
0000
0000
0000
,  // measure 13
1000
0000
0000
0000
0010
0000
0000
0100
0000
0001
0000
0000
0100
0000
0000
0000
,  // measure 14
0010
0000
0000
0000
1000
0000
0000
0001
0000
0010
0000
0000
0001
0000
0000
0000
,  // measure 15
0100
0010
1000
0010
,  // measure 16
0100
0001
0100
0000
0220
0000
0330
0000
,  // measure 17
0010
0000
0000
0000
1000
0000
0000
0001
0000
0100
0000
0000
0001
0000
0000
0000
,  // measure 18
1000
0000
0000
0000
0010
0000
0000
0100
0000
1000
0000
0000
0100
0000
0000
0000
,  // measure 19
0001
1000
0010
1000
,  // measure 20
0001
0100
0001
0000
2002
0000
3003
0000
,  // measure 21
0001
0000
0000
0000
0100
0000
0000
1000
0000
0010
0000
0000
1000
0000
0000
0000
,  // measure 22
0100
0000
0000
0000
0001
0000
0000
0010
0000
0100
0000
0000
0020
0000
0000
0000
,  // measure 23
1030
0100
0001
0100
,  // measure 24
1000
0010
1000
0000
2200
0000
3300
0000
,  // measure 25
0100
0000
0000
0000
0001
0000
0000
0010
0000
1000
0000
0000
0010
0000
0000
0000
,  // measure 26
0001
0000
0000
0000
0100
0000
0000
0000
1000
0001
0000
0000
2000
0000
0000
0000
,  // measure 27
3010
0001
0100
1000
,  // measure 28
2002
0000
0000
3003
,  // measure 29
1000
0000
0100
0000
0001
0100
2000
0000
,  // measure 30
3001
0000
0010
0000
1000
0010
0002
0000
,  // measure 31
0103
0000
0010
0000
0100
0001
2000
0000
,  // measure 32
3100
0000
0010
0000
0100
1000
0002
0000
,  // measure 33
0013
0000
0001
0000
0100
0001
0020
0000
,  // measure 34
0130
0000
1000
0000
0010
1000
0200
0000
,  // measure 35
0310
0000
0001
0000
0100
1000
0020
0000
,  // measure 36
0130
0000
0001
0000
0010
1000
0020
0000
,  // measure 37
1030
0000
0001
0000
0100
0000
0010
1000
,  // measure 38
0010
0100
0001
0020
,  // measure 39
0130
0000
1000
0000
0100
0000
0001
0010
,  // measure 40
0001
0100
1000
0020
,  // measure 41
0130
0000
0001
0000
0010
0100
0010
0000
,  // measure 42
0001
0000
1000
0000
0010
0100
0001
0000
,  // measure 43
1000
0200
0300
0000
0001
0200
0300
0000
,  // measure 44
1001
0110
2002
3003
;

//---------------dance-single - ----------------
#NOTES:
     dance-single:
     :
     Hard:
     8:
     0.640,0.609,0.151,0.201,0.290:
0010
1000
0010
1000
0001
0100
0001
0100
,
0001
0010
0001
0010
0200
1300
1000
0010
,
0000
0100
0001
0010
0000
0100
1000
0010
,
0000
0100
0001
1000
0000
0010
0110
0000
,
0001
0100
1000
0100
0001
0010
1000
0010
,
0001
0000
0100
0000
0010
0000
1000
0000
0010
0000
0100
0001
0000
0000
0001
0000
,
0010
0000
0100
0000
1000
0000
0000
1100
0000
0000
0001
0000
0010
0000
0000
0110
,
0000
0000
1000
0000
0001
0000
0000
0101
0000
0000
0010
0000
1001
0000
0000
0000
,
1000
0000
0001
0000
1000
0000
0001
0000
1000
0000
0001
0000
1000
0000
0001
1000
,
0001
0000
1000
0000
0001
0000
1000
0000
0001
1000
0001
0000
1000
0000
0001
2000
,
0000
0002
0000
0000
0000
0000
0000
0000
,
3003
0000
0000
0000
,
1000
0000
0010
0000
0100
0000
0001
0010
0000
0001
0000
0000
0100
0000
0010
0000
,
1000
0000
0001
0000
0010
0000
0100
1000
0000
0100
0000
0000
0001
0000
0010
0000
,
0000
0100
1000
0001
0000
0001
1000
0100
,
0010
0010
0100
1000
0001
0100
0010
0000
,
0010
0000
1000
0000
0001
0000
0100
0001
0000
0010
0000
0000
0100
0000
1000
0000
,
0010
0000
0100
0000
0001
0000
0001
0010
0000
0001
0000
0000
0100
0000
1000
0000
,
0000
0001
0010
0100
0000
1000
0100
0010
,
0001
1000
0001
0010
0100
1000
0010
0000
,
1000
0000
0001
0000
0100
0000
0100
0010
0000
1000
0000
0000
0100
0000
0001
0000
,
0010
0000
0100
0000
1000
0000
0100
0010
0000
0001
0000
0000
0012
0000
0000
0000
,
1003
0100
0001
0100
1000
0010
0001
0010
,
1000
1000
0001
0100
0010
1000
0100
0000
,
1000
0010
0000
1000
0010
0000
0100
0001
0000
0100
0001
0000
0010
0000
0001
0000
,
0100
0010
0000
1000
0010
0000
0100
0000
0001
0010
0001
0000
1002
0000
0000
0000
,
1003
0100
0010
0010
0100
1000
0001
0001
,
0100
0010
1000
0001
0010
0100
1000
0000
,
1000
0000
0010
0000
0100
0001
0100
0000
0010
0000
1000
0000
0200
0000
0000
0000
,
0310
0000
1000
0000
0001
0100
0001
0000
0010
0000
0100
0000
2000
0000
0000
0000
,
3010
0000
0001
0000
0100
0001
0100
0000
0010
0000
1000
0000
0200
0000
0000
0000
,
0301
0000
0100
0000
0010
1000
0010
0000
0100
0001
0100
0000
0020
0000
0000
0030
,
1000
0000
0001
0000
0010
0100
0010
0000
0001
0000
1000
0000
0020
0000
0000
0000
,
1030
0000
0100
0000
1000
0001
1000
0000
0100
0000
0010
0000
0200
0000
0000
0000
,
0301
0000
0010
0000
0100
1000
0100
0000
0010
0000
0001
0000
0200
0000
0000
0000
,
0310
0000
1000
0000
0100
1000
0100
0000
0001
0100
0001
0000
0010
0000
0100
0000
,
1000
0000
0010
0000
0100
0000
0001
0000
0010
0100
0010
0000
1000
0001
1000
0000
,
0010
0100
0001
0010
0100
1000
0020
0000
,
0130
0000
1000
0000
0100
0000
0001
0000
1000
0001
1000
0000
0010
0100
0010
0000
,
1000
0010
0100
0001
0010
0100
2000
0000
,
3001
0000
0010
0000
0100
0000
1000
0000
0010
0100
0010
0000
1001
0000
0000
0000
,
0010
0000
1000
0000
0100
0000
0001
0000
0100
0010
0100
0000
1001
0000
0000
0000
,
0001
0010
0001
0000
0101
0000
0000
0000
1000
0100
1000
0000
1010
0000
0000
0000
,
0010
1000
0000
0001
0100
0000
0010
0000
2002
0000
0000
0000
0000
0000
0000
0000
,
3003
0000
0000
0000
;

//---------------dance-single - ----------------
#NOTES:
     dance-single:
     :
     Medium:
     6:
     0.444,0.388,0.063,0.076,0.088:
1000
0100
1000
0000
0001
0100
0001
0000
,
0100
0010
0100
0000
0010
0100
0110
0000
,
0100
0110
0001
1001
,
0010
1010
1000
1001
,
0001
0000
0100
0000
0010
0001
1000
0000
,
0010
0000
0100
0000
0001
0100
0010
0000
,
0010
0000
1000
0000
0010
0001
0100
0000
,
0001
1000
0010
0000
0100
0001
1000
0000
,
0001
0000
1000
0000
0001
0000
1000
0001
,
1000
0000
0001
0000
1000
0001
1000
0002
,
0000
0000
0000
0000
,
1003
0000
0000
0000
,
0010
1000
0100
1000
0010
0000
0100
0000
,
0001
0010
0001
0000
0100
0010
0100
0000
,
0000
0001
1000
0100
0000
1000
0001
0100
,
0010
0100
0010
0000
1000
0001
1000
0000
,
1000
0010
0001
0010
1000
0000
0001
0000
,
0100
1000
0100
0000
0001
1000
0001
0000
,
0000
0100
0010
0001
0000
0010
0100
0001
,
1000
0001
1000
0000
0010
0100
0010
0000
,
0100
0001
1000
0001
0100
0000
1000
0000
,
0010
0100
0010
0000
1000
0100
1000
0000
,
0000
0010
0001
1000
0000
0001
0010
1000
,
0100
1000
0100
0000
0001
0010
0001
0000
,
0001
0100
0010
0100
0001
0000
0010
0000
,
1000
0001
1000
0000
0010
0001
0010
0000
,
0000
1000
0100
0010
0000
0100
1000
0010
,
0002
0000
0000
0000
,
0013
0000
1000
0010
0100
0001
0100
0000
,
0010
0000
1000
0001
0010
0100
1000
0000
,
0100
0000
0010
0001
1000
0010
0100
0000
,
0001
0000
0100
0010
1000
0001
0010
0000
,
0001
0000
0100
0010
1000
0010
0100
0000
,
0001
0000
0010
0100
1000
0001
0100
0000
,
0010
0000
1000
0001
0010
0100
1000
0000
,
0001
0100
0010
1000
0001
0010
0100
0000
,
0001
0000
0000
0000
0100
0000
0000
0010
0000
1000
0000
0000
0010
0000
0100
0000
,
0001
0000
0000
0000
0010
0000
0000
0100
0000
1000
0000
0000
0200
0000
0000
0000
,
0310
0000
0000
0000
0001
0000
0000
0100
0000
1000
0000
0000
0100
0000
0001
0000
,
0010
0000
0000
0000
0100
0000
0000
1000
0000
0010
0000
0000
0200
0000
0000
0000
,
0301
0000
0000
0000
0010
0000
0000
0100
0000
1000
0000
0000
0200
0000
0000
0000
,
0310
0000
0000
0000
0001
0000
0000
0100
0000
0001
0000
0000
0100
0000
0000
0000
,
1000
0000
0001
0100
0000
0000
0000
0000
0010
0000
1000
0001
0000
0000
0000
0000
,
0010
1000
0001
0100
0020
0000
0000
0000
,
0030
0000
0000
0000
;
