#TITLE:Gothic System;
#SUBTITLE:;
#ARTIST:TCN180;
#TITLETRANSLIT:;
#SUBTITLETRANSLIT:;
#ARTISTTRANSLIT:;
#CREDIT:;
#BANNER:;
#BACKGROUND:;
#LYRICSPATH:;
#CDTITLE:;
#MUSIC:Gothic System.mp3;
#OFFSET:-10.660;
#SAMPLESTART:58.690;
#SAMPLELENGTH:10.620;
#SELECTABLE:YES;
#BPMS:0.000=180.000;
#STOPS:;
#BGCHANGES:;

//---------------dance-single - ----------------
#NOTES:
     dance-single:
     :
     Beginner:
     1:
     0.131,0.219,0.012,0.012,0.000:
0000
1000
0000
1000
,
0000
0001
0000
0001
,
0001
0000
0100
0000
,
0010
0010
0010
0010
,
0010
0000
1000
0000
,
0010
0000
0000
0000
,
0100
0000
0001
0000
,
0100
0000
0000
0000
,
0001
0000
0010
0000
,
0001
0000
0000
0000
,
1000
0000
0010
0000
,
1000
0000
0000
0000
,
0010
0000
0001
0000
,
0100
0000
0000
0000
,
0010
0000
1000
0000
,
0200
0000
0300
0000
,
0010
0000
0100
0000
,
0010
0000
0000
0000
,
1000
0000
0001
0000
,
1000
0000
0001
0000
,
1000
0000
0000
0000
,
0010
0000
0000
0000
,
0100
0000
0000
0000
,
0001
0000
0000
0000
,
0010
0000
0000
0000
,
0001
0000
0000
0000
,
0100
0000
0000
0000
,
0010
0000
0000
0000
,
1000
0000
0000
0000
,
0100
0000
0000
0000
,
1000
0000
0000
0000
,
0000
0000
0000
0000
,
0001
0000
0000
0000
,
0010
0000
0000
0000
,
0001
0000
0000
0000
,
0000
0000
0000
0000
,
0010
0000
0010
0000
,
0010
0000
0000
0000
,
0100
0000
0100
0000
,
0100
0000
0000
0000
,
0001
0000
0001
0000
,
0001
0000
0000
0000
,
1000
0000
1000
0000
,
1000
0000
0000
0000
,
0010
0000
0100
0000
,
0010
0000
0000
0000
,
1000
0000
0001
0000
,
1000
0000
0000
0000
,
0001
0000
0100
0000
,
0001
0000
0000
0000
,
1000
0000
0010
0000
,
1000
0000
0000
0000
,
1001
0000
0000
0000
;

//---------------dance-single - ----------------
#NOTES:
     dance-single:
     :
     Easy:
     6:
     0.414,0.407,0.072,0.084,0.000: // measure 1
1000
0000
0100
0000
0000
0100
1000
0000
,  // measure 2
0001
0000
0010
0000
0000
0010
0001
0000
,  // measure 3
0100
0000
0010
0000
0000
0010
0100
0000
,  // measure 4
1001
1001
1001
1001
,  // measure 5
0001
0000
0100
0000
0010
1000
0010
0000
,  // measure 6
0100
0000
0001
0000
0010
0001
0010
0000
,  // measure 7
0100
0000
1000
0000
0001
0100
0001
0100
,  // measure 8
0001
0000
0010
0000
0100
1000
0100
0000
,  // measure 9
0010
0000
0001
0000
1000
0010
1000
0000
,  // measure 10
0010
0000
0100
0000
0001
0010
0001
0000
,  // measure 11
0010
0000
0100
0000
1000
0001
1000
0001
,  // measure 12
1000
0000
0001
0000
0100
0010
1000
0000
,  // measure 13
0010
0000
0100
0000
0001
0010
0001
0000
,  // measure 14
0100
0000
0010
0000
1000
0100
1000
0000
,  // measure 15
0100
0000
0010
0000
0001
1000
0001
1000
,  // measure 16
0002
0000
0000
1003
0001
0000
0100
0000
,  // measure 17
0010
0000
1000
0000
0010
0000
0100
0001
,  // measure 18
0100
0000
0010
1000
0010
0000
1000
0001
,  // measure 19
1000
0001
1000
0010
,  // measure 20
0100
0001
0100
0001
0100
0001
0100
0001
,  // measure 21
0100
0010
0010
1000
,  // measure 22
0100
0100
1000
0010
,  // measure 23
0100
0100
0001
0010
,  // measure 24
0001
0001
0010
0100
,  // measure 25
1000
1000
0010
1000
,  // measure 26
0001
0001
0010
0100
,  // measure 27
1000
1000
0010
0100
,  // measure 28
2002
0000
3003
0000
,  // measure 29
0001
0100
0001
0100
,  // measure 30
0010
1000
0010
0000
,  // measure 31
1000
0100
1000
0100
,  // measure 32
0010
0001
0020
0030
,  // measure 33
0001
0100
0001
0100
,  // measure 34
0010
1000
0020
0030
,  // measure 35
1000
0100
1000
0100
,  // measure 36
0020
0000
0000
0030
,  // measure 37
0001
0000
0100
0000
0010
1000
0010
1000
,  // measure 38
0010
0100
0001
0100
,  // measure 39
0001
0000
0010
0000
0100
1000
0100
1000
,  // measure 40
0100
0010
0001
0100
,  // measure 41
0010
0000
1000
0000
0001
0010
0001
0010
,  // measure 42
0001
0100
0001
0010
,  // measure 43
0100
0000
1000
0000
0010
0100
0001
0100
,  // measure 44
0001
0100
0001
0010
,  // measure 45
0001
0000
1000
0000
0001
0100
0001
0000
,  // measure 46
0100
0010
1000
0000
,  // measure 47
0010
0000
1000
0000
0100
0010
0100
0000
,  // measure 48
0010
0001
0100
0000
,  // measure 49
0001
0000
0010
0000
0100
1000
0001
0000
,  // measure 50
0100
0010
1000
0010
,  // measure 51
0100
0000
0001
0000
1000
0001
0010
0000
,  // measure 52
0200
0000
0000
0300
,  // measure 53
1001
0000
0000
0000
;

//---------------dance-single - ----------------
#NOTES:
     dance-single:
     :
     Medium:
     8:
     0.541,0.532,0.192,0.048,0.000:
0011
0000
0001
0100
0000
0100
0010
0000
,
1010
0000
1000
0100
0000
0100
1000
0000
,
1010
0000
0010
0100
0000
0100
0001
0000
,
0101
1100
0011
1010
,
0001
0000
0100
0010
1000
0010
0100
0001
,
0010
0000
0100
1000
0100
0010
0001
1000
,
0010
0000
0100
0001
0100
0010
1000
0001
,
0010
0000
0001
0100
0010
1000
0001
0010
,
0100
0000
1000
0100
0010
0001
1000
0010
,
0100
0000
0010
1000
0100
0001
0100
0010
,
1000
0000
0001
0010
0001
0100
0010
1000
,
0001
0000
0010
0100
1000
0100
0010
0001
,
1000
0000
0100
0001
0100
1000
0100
0010
,
0100
0000
1000
0001
0100
0010
1000
0010
,
1000
0000
0001
0010
0001
0100
0010
1000
,
0002
0000
0013
0001
,
0100
0000
0010
1000
0010
0000
0100
0001
,
0010
0000
0100
1000
0100
0000
0010
0001
,
1000
0010
0100
0001
0100
0010
1000
0001
,
0010
0001
1000
0001
0100
0010
1000
0001
,
0010
0000
0100
0000
1000
0100
0010
0000
,
0001
0000
0100
0000
0010
1000
0100
0000
,
0010
0000
0100
0000
1000
0001
0100
0000
,
0010
0000
1000
0000
0010
0100
0001
0000
,
1000
0000
0001
1000
0001
1000
0001
0000
,
0100
0000
0010
0100
0010
0100
0010
0000
,
1000
0000
0100
0010
0001
1000
0010
0100
,
0001
0100
0010
1000
,
1001
0000
1000
0000
0000
0001
0000
0000
,
0100
0010
0010
0100
,
0001
0000
0010
0000
0000
0100
0000
0000
,
1000
0100
0010
0100
,
1000
0000
0001
0000
0000
0100
0000
0000
,
0010
0100
0001
0010
,
0100
0000
1000
0000
0000
0001
0000
0000
,
0220
0000
0000
0330
,
0001
0000
0100
0010
1000
0001
0010
0100
,
1000
0100
0010
0001
1000
0000
0010
0000
,
0100
0000
0001
0100
0010
1000
0001
0010
,
0100
1000
0100
0010
0001
0000
1001
0000
,
0101
0000
0001
0100
0010
1000
0100
0010
,
0100
1000
0001
0100
0010
0000
1000
0000
,
0100
0000
1000
0010
0100
0001
0010
0001
,
0100
0010
1000
0100
1000
0000
1100
0000
,
0011
0000
0010
0001
0100
0010
1000
0100
,
0010
0100
1000
0001
0100
0000
0010
0000
,
1000
0000
0100
1000
0010
0100
0001
0010
,
0001
0100
0010
1000
0001
0000
0011
0000
,
0101
0000
0001
0100
0010
1000
0100
0010
,
0100
1000
0010
0100
0001
0000
0100
0000
,
0010
0000
1000
0001
0010
0100
1000
0100
,
0020
0000
0000
0030
,
1001
0000
0000
0000
;

//---------------dance-single - ----------------
#NOTES:
     dance-single:
     :
     Hard:
     9:
     0.622,0.532,0.156,0.060,0.000:
1100
0000
1000
0010
0000
0010
0100
0001
,
0010
0000
0010
0001
0000
0001
0100
0010
,
1000
0000
0001
0010
0000
0010
0001
0000
,
0101
1010
1100
0011
,
0001
0100
0010
1000
0010
0100
0001
0010
,
0100
1000
0100
0010
0001
1000
0010
0000
,
0010
1000
0100
0010
0100
1000
0001
0100
,
0010
1000
0001
0010
0100
1000
0100
0000
,
0010
0001
1000
0001
0100
0010
1000
0100
,
0010
0100
1000
0001
0100
0010
1000
0000
,
0010
0001
0100
0100
0010
1000
0001
0010
,
0100
1000
0100
0010
0001
1000
0010
0000
,
0010
1000
0100
0001
0100
1000
0010
0100
,
0001
0010
0100
1000
0100
0010
0001
0000
,
0010
0001
0100
1000
0100
0010
0001
1000
,
0020
0000
0000
1030
0100
0010
0100
1000
,
0010
0000
0100
0001
0101
0000
0100
1000
,
1100
0000
0010
0001
0011
0000
0010
1000
,
0001
0010
0100
1000
0100
0010
0001
1000
,
0010
0100
0001
0100
0010
1000
0001
0010
,
0001
1000
0010
0100
0001
0100
0010
1000
,
0001
0010
0100
1000
0100
0000
0010
0000
,
0100
1000
0001
0100
0010
1000
0010
0100
,
0001
0010
0100
1000
0100
0000
0010
0000
,
0001
1000
0010
0100
0001
0100
0010
0000
,
1000
0001
0010
0100
1000
0100
0010
0000
,
0001
1000
0010
0100
0001
0100
0010
0000
,
2002
0000
0000
3003
,
0010
0000
1000
0100
0000
0100
1000
0010
,
0100
0001
0000
0001
0010
0000
0001
0000
,
1000
0000
0010
0100
0000
0100
0001
0010
,
0100
1000
0000
1000
0100
0000
0010
0000
,
0001
0000
0100
0001
0000
0001
0010
0001
,
0100
0010
0000
0010
1000
0000
0100
0000
,
0010
0000
0100
1000
0000
0001
0100
0010
,
2000
0000
0000
3001
,
0010
0001
0100
0100
0010
1000
1000
0010
,
0100
0001
0001
0010
0001
0100
0010
0000
,
0010
1000
0100
0100
1000
0010
0010
0100
,
0001
0010
0010
0001
0100
0000
1010
0000
,
0010
0100
0001
0001
0010
0100
0100
1000
,
0010
1000
1000
0010
0100
0000
0101
0000
,
0001
0010
0001
0001
0100
0010
0010
1000
,
0100
1000
0010
0100
0001
0000
1001
0000
,
0001
0100
0010
0010
1000
0100
0100
1000
,
0001
0100
0100
0010
1000
0001
0010
0100
,
1000
0100
0010
0010
0001
0100
0100
0010
,
1000
0001
0001
0010
0001
0100
0010
1000
,
0100
0010
0100
0100
1000
0001
0001
0100
,
1000
0010
0010
1000
0100
0010
0100
1000
,
0001
0100
0010
0010
1000
0001
0001
1000
,
0020
0000
0000
0030
,
1001
0000
0000
0000
;
