#TITLE:Evangelize -estish remix-;
#SUBTITLE:;
#ARTIST:syatten remixed by Est;
#TITLETRANSLIT:;
#SUBTITLETRANSLIT:;
#ARTISTTRANSLIT:;
#CREDIT:;
#BANNER:banner.png;
#BACKGROUND:bgblack.PNG;
#LYRICSPATH:;
#CDTITLE:;
#MUSIC:Evangelize -estish remix-.mp3;
#OFFSET:-13.940;
#SAMPLESTART:31.130;
#SAMPLELENGTH:12.000;
#SELECTABLE:YES;
#BPMS:0.000=140.000;
#STOPS:;
#BGCHANGES:;

//---------------dance-single - ----------------
#NOTES:
     dance-single:
     :
     Challenge:
     7:
     0.365,0.359,0.022,0.000,0.201: // measure 1
1000
0000
0000
0001
0000
0000
0100
0000
0010
0000
0000
0100
0000
0000
0001
0000
,  // measure 2
0010
0000
0000
0100
0000
0000
1000
0000
0100
0000
0000
0010
0000
0000
0001
0000
,  // measure 3
1000
0000
0000
0010
0000
0000
0100
0000
0001
0000
0000
0100
0000
0000
0010
0000
,  // measure 4
1000
0000
0000
0001
0000
0000
0010
0000
0100
0000
0000
1000
0000
0000
0100
0000
,  // measure 5
0010
0000
0000
0001
0000
0000
1000
0000
0010
0000
0000
0100
0000
0000
0001
0000
,  // measure 6
0100
0000
0000
0010
0000
0000
1000
0000
0001
0000
0000
0010
0000
0000
0100
0000
,  // measure 7
1000
0000
0000
0100
0000
0000
0010
0000
0001
0000
0000
1000
0000
0000
0010
0000
,  // measure 8
0110
0000
0000
0100
0000
0000
0001
0000
0011
0000
0000
0010
0000
0000
0100
0000
,  // measure 9
1000
0000
0000
0001
0000
0000
0100
0000
0010
0000
0000
1000
0000
0000
0001
0000
,  // measure 10
0010
0001
0100
0010
,  // measure 11
1000
0100
0000
1000
0000
0010
0000
0100
,  // measure 12
0000
0001
0000
0010
0000
0001
0000
0100
,  // measure 13
0000
0010
0000
1000
0000
0001
0000
0010
,  // measure 14
0000
0100
0000
1000
0000
0001
0000
0100
,  // measure 15
0010
0000
0000
1000
0000
0000
0001
0000
0010
0000
0000
0100
0000
0000
1000
0000
,  // measure 16
0100
0000
0000
0010
0000
0000
0001
0000
1000
0000
0000
0010
0000
0000
0100
0000
,  // measure 17
0001
0000
0000
0100
0000
0000
0010
0000
1000
0000
0000
0001
0000
0000
0010
0000
,  // measure 18
0100
0000
0000
1000
0000
0000
0100
0000
0010
0000
0000
0001
0000
0000
1000
0000
,  // measure 19
0100
0010
0000
0100
0000
0001
0000
0010
,  // measure 20
0000
1000
0000
0001
0000
1000
0000
0010
,  // measure 21
0000
0001
0000
0100
0000
1000
0000
0001
,  // measure 22
0000
0010
0000
0100
0000
1000
0000
0010
,  // measure 23
0001
0000
0000
0100
0000
0000
1000
0000
0001
0000
0000
0010
0000
0000
0100
0000
,  // measure 24
0010
0000
0000
0001
0000
0000
1000
0000
0100
0000
0000
0001
0000
0000
0010
0000
,  // measure 25
1000
0000
0000
0010
0000
0000
0001
0000
0100
0000
0000
1000
0000
0000
0010
0000
,  // measure 26
0100
0000
0000
0001
0000
0000
0010
0000
0001
0000
0000
0010
0000
0100
1000
0000
,  // measure 27
0001
0100
0000
0100
0001
0000
0010
0000
,  // measure 28
0100
1000
0000
1000
0010
0000
0100
0000
,  // measure 29
0001
0100
0000
0010
1000
0000
0001
0000
,  // measure 30
0010
0100
0000
1000
0100
0000
0010
0000
,  // measure 31
0001
1000
0010
0100
0001
0100
0010
0000
,  // measure 32
1000
0100
0001
0100
1000
0010
0001
0000
,  // measure 33
0010
0100
0001
1000
0100
0010
0100
0000
,  // measure 34
1000
0001
0100
0010
1000
0001
0010
0000
,  // measure 35
0100
1000
0000
1000
0000
0010
0000
0010
,  // measure 36
0000
0100
0000
0100
0000
0001
0000
0001
,  // measure 37
0000
0010
0000
0010
0000
0100
0000
0100
,  // measure 38
0000
1000
0000
1000
0000
0001
0000
0001
,  // measure 39
0000
0100
0000
0100
0000
0010
0000
0010
,  // measure 40
0000
1000
0000
1000
0000
0001
0000
0001
,  // measure 41
0000
0010
0000
0001
0000
0100
0000
0010
,  // measure 42
0000
1000
0000
0001
0000
0010
0000
0100
,  // measure 43
0000
1000
0000
0001
0000
0100
0000
0010
,  // measure 44
1000
0000
0000
0001
0000
0000
0100
0000
0001
0000
0000
1000
0000
0000
0010
0000
,  // measure 45
0100
0000
0000
0000
;
