#TITLE:Evangelize (radio edit);
#SUBTITLE:;
#ARTIST:syatten;
#TITLETRANSLIT:;
#SUBTITLETRANSLIT:;
#ARTISTTRANSLIT:;
#CREDIT:;
#BANNER:Evangelize(radioedit)bn.png;
#BACKGROUND:bgblack.PNG;
#LYRICSPATH:;
#CDTITLE:;
#MUSIC:Evangelize (radio edit).mp3;
#OFFSET:-13.700;
#SAMPLESTART:54.890;
#SAMPLELENGTH:12.000;
#SELECTABLE:YES;
#BPMS:0.000=140.000;
#STOPS:;
#BGCHANGES:;

//---------------dance-single - ----------------
#NOTES:
     dance-single:
     :
     Beginner:
     1:
     0.068,0.084,0.000,0.011,0.000:
1000
0000
0000
0000
,
1000
0000
0000
0000
,
0001
0000
0000
0000
,
0001
0000
0000
0000
,
0100
0000
0000
0000
,
0100
0000
0000
0000
,
0010
0000
0000
0000
,
0010
0000
0000
0000
,
0001
0000
0001
0000
,
0001
0000
0000
0000
,
1000
0000
1000
0000
,
1000
0000
0000
0000
,
0010
0000
0010
0000
,
0010
0000
0000
0000
,
0100
0000
0100
0000
,
0100
0000
0000
0000
,
1000
0000
0000
0000
,
0010
0000
0000
0000
,
0100
0000
0000
0000
,
0001
0000
0000
0000
,
0010
0000
0000
0000
,
0001
0000
0000
0000
,
0200
0000
0000
0000
,
0000
0000
0300
0000
,
0100
0000
0000
0000
,
0100
0000
0000
0000
,
0010
0000
0000
0000
,
0010
0000
0000
0000
,
1000
0000
0000
0000
,
1000
0000
0000
0000
,
0001
0000
0000
0000
,
0001
0000
0000
0000
,
0010
0000
0000
0000
,
1000
0000
0000
0000
,
0100
0000
0000
0000
,
0001
0000
0000
0000
,
0010
0000
0000
0000
,
0001
0000
0000
0000
,
0100
0000
0000
0000
,
1000
0000
0000
0000
,
0010
0000
0000
0000
;

//---------------dance-single - ----------------
#NOTES:
     dance-single:
     :
     Easy:
     3:
     0.138,0.168,0.011,0.021,0.000:
1000
0000
0000
0000
,
0010
0000
0000
0000
,
0100
0000
0000
0000
,
0001
0000
0000
0000
,
0010
0000
0000
0000
,
0001
0000
0000
0000
,
0200
0000
0000
0000
,
0000
0000
0300
0000
,
0010
0000
0010
0000
,
0010
0010
0010
0000
,
1000
0000
1000
0000
,
1000
1000
1000
0000
,
0001
0001
0001
0000
,
0001
0001
0001
0000
,
0100
0100
0100
0000
,
0100
0100
0100
0000
,
0100
0000
0000
0000
,
0010
0000
0000
0000
,
1000
0000
0000
0000
,
0001
0000
0000
0000
,
0010
0000
0001
0000
,
0010
0000
0001
0000
,
1000
0000
0100
0000
,
2000
0000
3000
0000
,
0001
0010
0001
0100
,
0010
0000
1000
0000
,
0100
1000
0010
0100
,
0001
0000
0010
0000
,
0001
0010
0001
0100
,
0010
0000
1000
0000
,
0100
1000
0010
0100
,
0001
0000
0010
0000
,
0001
0100
0001
0010
,
0100
0000
1000
0000
,
0010
0100
0001
0100
,
0010
0000
1000
0000
,
0001
0010
0100
1000
,
0010
0000
0100
0000
,
0001
0100
0010
1000
,
0001
0000
0100
0000
,
0110
0000
0000
0000
;

//---------------dance-single - ----------------
#NOTES:
     dance-single:
     :
     Medium:
     4:
     0.243,0.273,0.000,0.021,0.000:
0001
0000
0100
0000
,
0010
0000
1000
0100
,
1000
0000
0010
0100
,
0001
0000
0000
0100
0000
0000
0010
0000
,
1000
0000
0001
0010
,
0001
0000
0100
0010
,
2000
0000
0000
0000
,
3000
0000
0000
0000
,
0001
0100
0010
1000
,
0010
0000
0100
0000
0001
0010
0001
0000
,
0010
0100
1000
0001
,
0100
0000
0010
0000
1000
0100
1000
0000
,
0010
0100
0001
1000
,
0100
0000
0010
0000
0001
0100
0001
0000
,
0100
0010
1000
0001
,
0010
0000
0100
0000
1000
0001
1000
0000
,
0001
0001
0001
0001
,
0100
0100
0100
0100
,
0010
0010
0010
0010
,
1000
1000
1000
1000
,
0001
0001
0001
0001
,
0010
0010
0010
0010
,
0100
1000
0100
1000
0001
0100
0001
0100
,
0020
0000
0130
0100
,
0001
0000
0100
0000
0010
0000
1000
0100
,
0000
0100
1000
0000
0010
0000
0100
0000
,
0001
0010
0100
0010
,
0001
1000
0001
0100
,
0010
0000
1000
0000
0001
0000
0010
0001
,
0000
0001
0010
0000
0100
0000
1000
0000
,
0100
0000
0010
0000
0001
0000
1000
0010
,
0000
0010
1000
0000
0010
0000
0100
0000
,
0010
0000
1000
0000
0100
0000
0001
0010
,
0000
0010
0001
0000
0100
0000
1000
0000
,
0010
0100
0001
0010
,
0100
1000
0010
0001
,
0100
0000
0001
0000
0010
0000
0100
1000
,
0000
1000
0100
0000
0010
0000
0001
0000
,
1000
0000
0010
0000
0100
0000
0001
0100
,
0000
0100
0001
0000
0010
0000
0100
0000
,
1000
0000
0000
0000
;

//---------------dance-single - ----------------
#NOTES:
     dance-single:
     :
     Hard:
     6:
     0.365,0.358,0.105,0.011,0.089: // measure 1
1000
0000
0001
0000
1000
0000
0000
0001
,  // measure 2
0000
0100
0010
1000
,  // measure 3
0001
0010
0100
1100
,  // measure 4
1010
0000
0010
0100
0000
0001
0100
0000
,  // measure 5
0010
1000
0001
0011
,  // measure 6
0110
0000
0100
1000
0010
0000
0100
0000
,  // measure 7
0002
0000
0000
0000
,  // measure 8
0000
0000
0000
0003
,  // measure 9
0010
0001
0010
0000
0100
0000
1000
0000
,  // measure 10
0010
1000
0010
0000
0100
0000
0001
0000
,  // measure 11
0010
0100
1000
0000
0100
0000
0010
0000
,  // measure 12
0001
1000
0010
0000
0100
0000
0001
0000
,  // measure 13
0100
0010
1000
0000
0001
0000
0010
0000
,  // measure 14
0100
1000
0100
0000
0010
0000
0001
0000
,  // measure 15
1000
0010
0100
0000
0001
0100
0010
0000
,  // measure 16
1000
0000
0001
0000
0010
0100
1000
0001
,  // measure 17
0100
0000
0000
0010
0000
0000
1000
0000
0000
0010
0000
0100
0000
0000
0001
0000
,  // measure 18
0010
0000
0000
0000
0001
0000
0100
0000
0010
0000
0000
0010
1000
0000
0100
0000
,  // measure 19
1000
0000
0000
0010
0000
0000
0100
0000
0000
0001
0000
0010
0000
0000
0001
0000
,  // measure 20
1000
0000
0000
0000
0010
0000
0100
0000
0001
0000
0000
0001
1000
0000
0010
0000
,  // measure 21
0100
0001
0000
0100
0000
0000
0010
0000
1000
0100
0000
1000
0000
0000
0010
0000
,  // measure 22
0100
0000
0001
0000
0010
0000
0100
0000
1000
0000
0000
1000
0010
0000
0100
0000
,  // measure 23
0001
0010
0000
0001
0000
0000
0100
0000
0010
1000
0000
0010
0000
0000
0100
0000
,  // measure 24
0001
0010
0100
1000
0010
0000
1001
0000
,  // measure 25
0001
0100
0010
1000
0001
0010
0100
1000
,  // measure 26
0100
0010
0001
1000
0010
0000
0101
0000
,  // measure 27
0011
0000
0010
0100
1000
0001
0100
0000
,  // measure 28
0010
0000
1000
0100
0010
0100
1000
0000
,  // measure 29
0100
0000
0010
0001
0100
0000
0010
1000
,  // measure 30
0100
0000
0010
0001
1000
0010
0100
0001
,  // measure 31
0100
0000
0010
1000
0000
1000
0010
0100
,  // measure 32
0001
0000
0010
0100
1000
0001
0100
0000
,  // measure 33
0010
1000
0001
0010
0100
1000
0100
0010
,  // measure 34
0001
1000
0010
0100
0001
0000
0011
0000
,  // measure 35
1100
0000
1000
0010
0100
0010
1000
0000
,  // measure 36
1100
0000
0010
0001
0100
0010
1000
0001
,  // measure 37
0010
0000
0001
0100
0010
1000
0001
0010
,  // measure 38
0100
0000
1000
0100
0010
0001
1000
0010
,  // measure 39
0100
0000
0001
1000
0001
1000
0001
0010
,  // measure 40
0100
1000
0100
0010
0001
1000
0010
0100
,  // measure 41
0001
0000
0000
0000
;
