#TITLE:EUROPEAN AVIATION;
#SUBTITLE:;
#ARTIST:naotyu-;
#TITLETRANSLIT:;
#SUBTITLETRANSLIT:;
#ARTISTTRANSLIT:;
#CREDIT:;
#BANNER:;
#BACKGROUND:bgblack.PNG;
#LYRICSPATH:;
#CDTITLE:;
#MUSIC:EUROPEAN AVIATION.mp3;
#OFFSET:-14.320;
#SAMPLESTART:28.270;
#SAMPLELENGTH:12.000;
#SELECTABLE:YES;
#BPMS:0.000=135.000;
#STOPS:;
#BGCHANGES:;

//---------------dance-single - ----------------
#NOTES:
     dance-single:
     :
     Hard:
     7:
     0.455,0.505,0.037,0.019,0.094: // measure 1
0010
0000
1000
0100
0000
0100
1000
0010
,  // measure 2
0100
0000
0001
0010
0000
0010
0001
0100
,  // measure 3
0010
0000
0010
1000
0000
0100
1000
0010
,  // measure 4
0100
0000
0001
0010
0000
0010
0001
0100
,  // measure 5
0010
0000
1000
0010
0000
0010
0100
0001
,  // measure 6
0010
0000
0010
0001
0000
0100
0010
1000
,  // measure 7
0001
0000
0010
0100
0000
0010
0001
0100
,  // measure 8
0000
0101
0000
1010
0000
1001
0000
1000
,  // measure 9
1000
0010
0100
0001
0100
0010
1000
0000
,  // measure 10
1000
0010
0100
0001
0100
0010
1000
0000
,  // measure 11
0001
0010
0100
1000
0100
0010
0001
0000
,  // measure 12
0001
0010
0100
1000
0100
0010
0001
0000
,  // measure 13
0010
0001
0100
1000
0100
0001
0010
0000
,  // measure 14
0010
1000
0100
0001
0100
1000
0010
0000
,  // measure 15
0010
1000
0100
0010
0001
1000
0010
0000
,  // measure 16
0010
1000
0001
0010
0100
1000
0010
0000
,  // measure 17
1000
0000
0100
0000
0010
0001
0100
0000
,  // measure 18
0010
0000
0100
0000
0001
0010
0100
0000
,  // measure 19
1000
0000
0010
0000
1000
0100
0010
0000
,  // measure 20
0100
0000
1000
0000
0010
0100
0001
0000
,  // measure 21
0010
0000
0001
0000
0100
0010
1000
0000
,  // measure 22
0010
0000
0100
0000
0001
0010
0100
0000
,  // measure 23
1000
0000
0010
0000
0100
0001
0100
0010
,  // measure 24
0010
0000
0000
1000
0000
0000
1000
0000
0000
0001
0000
0000
0001
0000
0100
0000
0010
0000
1000
0000
0000
0100
0000
0000
,  // measure 25
1000
0010
1000
0010
1000
0010
1000
0010
,  // measure 26
0000
0010
0100
0001
0010
0100
1000
0100
,  // measure 27
0010
0001
1000
0010
0100
0001
0010
0100
,  // measure 28
0000
0100
0010
0001
1000
0010
0100
0001
,  // measure 29
0010
0001
0100
1000
0100
0001
0010
0100
,  // measure 30
0000
0100
1000
0010
0100
0001
0100
0010
,  // measure 31
1000
0001
0010
0100
1000
0100
0010
0001
,  // measure 32
0000
0001
0100
0010
1000
0001
0010
0000
,  // measure 33
0010
0001
0100
0010
1000
0100
0010
0100
,  // measure 34
0000
0100
1000
0010
0100
0001
0010
0100
,  // measure 35
1000
0100
0010
0001
1000
0010
0100
0001
,  // measure 36
0000
0001
0010
0001
0100
0010
1000
0001
,  // measure 37
0010
0100
1000
0100
0010
0001
1000
0010
,  // measure 38
0000
0010
1000
0100
0010
0100
1000
0001
,  // measure 39
0100
0010
1000
0001
0010
0100
1000
0010
,  // measure 40
0000
0010
1000
0001
0010
0100
1000
0100
,  // measure 41
0010
0000
0001
0100
1000
0100
0001
0000
,  // measure 42
0010
0000
1000
0100
0001
0100
1000
0000
,  // measure 43
0100
0000
0001
0010
1000
0010
0001
0100
,  // measure 44
0010
0010
1000
1000
0001
0001
0010
0010
,  // measure 45
0100
0000
1000
0000
0010
0100
0000
0001
0000
0010
0100
0000
0010
0001
0000
0001
,  // measure 46
0010
0000
0100
0000
1000
0100
0000
0100
0000
1000
0100
0000
0010
0001
0000
0100
,  // measure 47
0010
0000
1000
0000
0100
1000
0000
0010
0000
0100
0001
0000
0010
0001
0000
0001
,  // measure 48
0010
0000
0100
0000
1000
0010
0000
0010
1000
0000
0100
0000
0010
0001
0010
0000
,  // measure 49
0022
0000
0000
0000
,  // measure 50
0033
0000
0000
0000
;

//---------------dance-single - ----------------
#NOTES:
     dance-single:
     :
     Medium:
     5:
     0.317,0.344,0.009,0.009,0.009: // measure 1
1000
0000
0100
0000
1000
0001
0100
0000
,  // measure 2
0010
0000
0100
0000
0001
1000
0100
0000
,  // measure 3
0010
0000
0001
0000
0100
0010
0100
0000
,  // measure 4
0001
0000
0010
0000
0100
1000
0100
0000
,  // measure 5
0010
0000
0001
0000
1000
0010
1000
0000
,  // measure 6
0010
0000
0100
0000
0001
0100
0001
0000
,  // measure 7
0010
0000
0100
0000
1000
0001
0100
0000
,  // measure 8
0010
0100
1001
0000
,  // measure 9
0001
0000
0010
0000
0001
0010
0001
0000
,  // measure 10
0000
1000
0100
0000
1000
0100
1000
0000
,  // measure 11
0010
0000
1000
0000
0010
1000
0010
0000
,  // measure 12
0100
0000
0001
0000
0100
0001
0100
0000
,  // measure 13
0001
0000
0010
0000
0001
0010
0001
0000
,  // measure 14
1000
0000
0010
0000
1000
0010
1000
0000
,  // measure 15
0001
0000
0100
0000
0001
0100
0001
0000
,  // measure 16
1000
0100
1000
0000
,  // measure 17
0010
0100
0010
0000
,  // measure 18
1000
0000
0001
1000
0001
0000
0100
0000
,  // measure 19
0001
0010
0001
0000
,  // measure 20
1000
0000
0100
1000
0100
0000
1000
0000
,  // measure 21
0010
1000
0010
0000
,  // measure 22
0100
0000
0001
0100
0001
0000
0010
0000
,  // measure 23
0100
0000
1000
0001
0100
0000
0010
0100
,  // measure 24
0010
0000
0000
1000
0000
0000
0001
0000
0000
1000
0000
0000
0001
0000
1000
0000
0001
0000
1000
0000
0000
0000
0000
0000
,  // measure 25
0001
0000
0010
0000
0100
1000
0100
1000
,  // measure 26
0000
0010
0100
0000
0001
0000
0010
0000
,  // measure 27
0100
0000
1000
0000
0010
0100
0010
0100
,  // measure 28
0000
0100
0010
0000
1000
0000
0100
0000
,  // measure 29
0010
0000
0001
0000
0100
0010
0100
0010
,  // measure 30
0000
1000
0001
0000
0010
0000
0100
0000
,  // measure 31
1000
0000
0100
0000
0010
0001
0010
0001
,  // measure 32
0010
0000
0100
0000
1000
0001
0100
0000
,  // measure 33
0010
0000
1000
0000
0100
0010
0001
0010
,  // measure 34
0000
0100
1000
0000
0010
0000
0100
0000
,  // measure 35
0001
0000
0100
0000
0010
1000
0001
0010
,  // measure 36
0000
0100
0010
0000
0001
0000
0100
0000
,  // measure 37
0010
0000
1000
0000
0100
0010
0001
1000
,  // measure 38
0000
0010
0100
0000
0001
0000
0100
0000
,  // measure 39
0010
0000
1000
0000
0001
0010
0100
1000
,  // measure 40
0000
0100
0010
0000
0001
0000
0100
0000
,  // measure 41
0010
0000
1000
0000
0100
1000
0001
0000
,  // measure 42
0100
0000
0010
0000
0100
0001
1000
0000
,  // measure 43
0100
0000
0010
0000
0001
1000
0010
0000
,  // measure 44
0100
0000
0001
0000
0010
0100
1000
0001
,  // measure 45
0100
0010
0100
0010
,  // measure 46
1000
0001
1000
0001
,  // measure 47
1000
0010
0100
0001
,  // measure 48
0010
0000
0100
0000
1000
0001
1000
0001
,  // measure 49
2000
0000
0000
0000
,  // measure 50
3000
0000
0000
0000
;

//---------------dance-single - ----------------
#NOTES:
     dance-single:
     :
     Easy:
     3:
     0.214,0.207,0.009,0.028,0.000: // measure 1
1000
0100
0000
0100
,  // measure 2
1000
0100
0000
0100
,  // measure 3
0010
0100
0000
0100
,  // measure 4
0010
0100
0000
0010
,  // measure 5
0001
0010
0000
0010
,  // measure 6
0001
0010
0000
0001
,  // measure 7
1000
0001
0000
0001
,  // measure 8
1000
0001
0000
0001
,  // measure 9
0100
0001
0100
0000
,  // measure 10
0010
1000
0010
0000
,  // measure 11
1000
0100
1000
0000
,  // measure 12
0001
0010
0001
0000
,  // measure 13
0100
0010
0100
0000
,  // measure 14
0010
0100
0010
0000
,  // measure 15
1000
0001
1000
0000
,  // measure 16
0001
1000
0001
0000
,  // measure 17
1000
0000
0100
0000
,  // measure 18
1000
0100
1000
0000
,  // measure 19
0001
0000
0010
0000
,  // measure 20
0001
0010
0001
0000
,  // measure 21
1000
0000
0010
0000
,  // measure 22
1000
0010
1000
0000
,  // measure 23
0001
0000
0100
0000
,  // measure 24
0001
0100
0202
0303
,  // measure 25
0001
0100
0001
0100
,  // measure 26
0010
1000
0010
1000
,  // measure 27
0100
1000
0100
1000
,  // measure 28
0001
0100
0001
0100
,  // measure 29
0010
1000
0010
1000
,  // measure 30
0001
0010
0001
0010
,  // measure 31
0100
1000
0100
1000
,  // measure 32
0001
0100
0001
0000
,  // measure 33
0010
0001
0010
0001
,  // measure 34
1000
0100
1000
0100
,  // measure 35
0001
0100
0001
0100
,  // measure 36
0010
1000
0010
1000
,  // measure 37
0001
0010
0001
0010
,  // measure 38
0100
1000
0100
1000
,  // measure 39
0001
0100
0001
0100
,  // measure 40
0010
1000
0010
0000
,  // measure 41
0010
1000
0100
0100
,  // measure 42
0010
0001
0100
0100
,  // measure 43
0001
0010
1000
1000
,  // measure 44
0100
0010
0001
0001
,  // measure 45
1000
0000
1000
0000
,  // measure 46
0001
0000
0001
0000
,  // measure 47
0100
0000
0100
0000
,  // measure 48
0010
0000
0010
0010
,  // measure 49
0020
0000
0000
0000
,  // measure 50
0030
0000
0000
0000
;

//---------------dance-single - ----------------
#NOTES:
     dance-single:
     :
     Beginner:
     1:
     0.099,0.135,0.000,0.000,0.000:
1000
0000
1000
0000
,
1000
0000
0000
0000
,
0001
0000
0001
0000
,
0001
0000
0000
0000
,
0100
0000
0100
0000
,
0100
0000
0000
0000
,
0010
0000
0010
0000
,
0010
0000
0000
0000
,
0010
0000
0010
0000
,
0010
0000
0010
0000
,
0010
0000
0010
0000
,
0010
0000
0000
0000
,
0100
0000
0100
0000
,
0100
0000
0100
0000
,
0100
0000
0100
0000
,
0100
0000
0000
0000
,
0001
0000
0001
0000
,
0001
0000
0000
0000
,
1000
0000
1000
0000
,
1000
0000
0000
0000
,
0010
0000
0010
0000
,
0010
0000
0000
0000
,
0100
0000
0100
0000
,
0100
0000
0100
0000
,
0100
0000
0000
0000
,
0010
0000
0000
0000
,
0001
0000
0000
0000
,
1000
0000
0000
0000
,
0010
0000
0000
0000
,
0100
0000
0000
0000
,
0001
0000
0000
0000
,
0010
0000
0000
0000
,
0001
0000
0000
0000
,
0100
0000
0000
0000
,
0010
0000
0000
0000
,
1000
0000
0000
0000
,
1000
0000
0000
0000
,
0010
0000
0000
0000
,
0100
0000
0000
0000
,
0001
0000
0000
0000
,
0010
0010
0010
0000
,
0010
0000
0010
0000
,
0100
0100
0100
0000
,
0100
0000
0100
0000
,
0100
0000
0001
0000
,
0100
0000
0001
0000
,
1000
0000
0010
0000
,
1000
0000
0010
0000
,
1000
0000
0000
0000
;
