#TITLE:Deus ex Machina;
#SUBTITLE:;
#ARTIST:Moses vs. SPELL BREAK;
#TITLETRANSLIT:;
#SUBTITLETRANSLIT:;
#ARTISTTRANSLIT:;
#CREDIT:;
#BANNER:banner.png;
#BACKGROUND:bgblack.PNG;
#LYRICSPATH:;
#CDTITLE:;
#MUSIC:Deus ex Machina.mp3;
#OFFSET:-11.320;
#SAMPLESTART:23.370;
#SAMPLELENGTH:12.000;
#SELECTABLE:YES;
#BPMS:0.000=90.000,16.000=180.000;
#STOPS:;
#BGCHANGES:;

//---------------dance-single - ----------------
#NOTES:
     dance-single:
     :
     Beginner:
     2:
     0.153,0.203,0.013,0.039,0.000: // measure 1
1000
0000
0000
0000
,  // measure 2
0010
0000
0000
0000
,  // measure 3
0100
0000
0000
0000
,  // measure 4
0001
0000
0000
0000
,  // measure 5
0010
0000
0000
0000
,  // measure 6
1000
0000
1000
0000
,  // measure 7
1000
0000
0000
0000
,  // measure 8
0001
0000
0001
0000
,  // measure 9
0001
0000
0000
0000
,  // measure 10
0100
0000
0100
0000
,  // measure 11
0100
0000
0000
0000
,  // measure 12
0010
0000
0010
0000
,  // measure 13
0010
0000
0000
0000
,  // measure 14
1000
0000
0100
0000
,  // measure 15
1000
0000
0000
0000
,  // measure 16
0001
0000
0010
0000
,  // measure 17
0001
0000
0000
0000
,  // measure 18
0100
0000
0010
0000
,  // measure 19
0100
0000
0000
0000
,  // measure 20
0001
0000
1000
0000
,  // measure 21
0002
0000
0003
0000
,  // measure 22
1000
1000
1000
0000
,  // measure 23
1000
1000
1000
0000
,  // measure 24
0001
0001
0001
0000
,  // measure 25
0001
0001
0001
0000
,  // measure 26
0100
0100
0100
0000
,  // measure 27
0100
0100
0100
0000
,  // measure 28
0010
0010
0010
0000
,  // measure 29
0010
0010
0010
0000
,  // measure 30
1000
0000
0100
0000
,  // measure 31
1000
1000
1000
0000
,  // measure 32
0001
0000
0010
0000
,  // measure 33
0001
0001
0001
0000
,  // measure 34
0100
0100
0100
0100
,  // measure 35
0100
0100
0100
0000
,  // measure 36
0010
0010
0010
0010
,  // measure 37
0010
0010
0010
0000
,  // measure 38
0000
2002
0000
0000
,  // measure 39
0000
0000
0000
0000
0000
0000
0000
3003
;

//---------------dance-single - ----------------
#NOTES:
     dance-single:
     :
     Easy:
     5:
     0.358,0.432,0.026,0.065,0.118:
1000
0000
0100
0000
0010
0001
0010
0000
,
0001
0000
0100
0000
0010
1000
0010
0000
,
1000
0000
0000
0000
0100
0000
0010
0001
0010
0000
0000
0000
0001
0000
0000
0000
,
0100
0000
0010
0000
1000
0000
0100
1000
0100
0000
1000
0000
0001
0000
0100
0000
,
2002
0000
3003
0000
,
1000
0000
0100
0000
1000
0001
0100
0000
,
0010
0000
1000
0000
0001
0010
0100
0000
,
1000
0000
0100
0000
0010
0001
0100
0000
,
0010
1000
0001
0000
,
1000
0000
0010
0000
0100
0001
0100
0000
,
0010
0000
1000
0000
0001
0010
0100
0000
,
1000
0000
0100
0000
0010
0001
1000
0000
,
0010
0100
0001
0000
,
0100
0000
0010
0000
0100
0001
1000
0000
,
0100
0000
0010
0000
0100
1000
0001
0000
,
0100
0000
0010
0000
0100
0001
1000
0000
,
0001
0010
0100
0000
,
1000
0000
0100
0000
0010
0001
0010
0000
,
0100
0000
1000
0000
0010
0100
0001
0000
,
0100
0010
0100
0010
0100
0000
0010
0000
,
0200
0000
0000
0310
,
1000
0000
0000
0000
0100
0000
0000
0000
1000
0000
0000
1000
0000
0000
1000
0000
,
0001
0000
0000
0000
0100
0000
0000
0000
0001
0000
0000
0001
0000
0000
0001
0000
,
0010
0000
0000
0000
0100
0000
0000
0000
0010
0000
0000
0010
0000
0000
0010
0000
,
0100
0000
0000
0100
0000
0000
0100
0000
0000
0000
0010
0000
0000
0000
0000
0000
,
1000
0000
0000
0000
0100
0000
0000
0000
1000
0000
0000
1000
0000
0000
1000
0000
,
0010
0000
0000
0010
0000
0000
0010
0000
0100
0000
0000
0010
0000
0000
1000
0000
,
0001
0000
0000
0000
0010
0000
0000
0000
0100
0000
0000
1000
0000
0000
0001
0000
,
0100
0000
0000
0010
0000
0000
0100
0000
0000
0001
0000
1000
0000
0000
0010
0000
,
0100
0000
0001
0000
1000
0100
0010
0000
,
0100
0000
1000
0000
0001
0100
0010
0000
,
1000
0000
0001
0000
0010
0001
0100
0000
,
0010
0000
0000
1000
0000
0000
0010
0000
0000
0100
0000
0001
0000
0000
0100
0000
,
0010
1000
0010
1000
0010
0000
0000
0000
,
0100
0010
0100
0010
0100
0000
0000
0000
,
0001
1000
0001
1000
0001
1000
0001
1000
,
0001
0000
0000
1000
0000
0000
0001
0000
0000
1000
0000
0000
0001
0000
1000
0000
,
0000
2002
0000
0000
,
0000
0000
0000
0000
0000
0000
0000
3003
;

//---------------dance-single - ----------------
#NOTES:
     dance-single:
     :
     Medium:
     7:
     0.465,0.533,0.039,0.052,0.183:
0010
0000
1000
0000
0100
0000
0010
0001
0100
0000
0001
0000
0010
0000
0100
1000
,
0010
0000
0100
0000
0001
0000
0010
0100
0000
1000
0100
0000
0010
0000
0001
0100
,
0010
0000
1000
0000
0100
0000
0010
0001
1000
0000
0001
0000
0100
0000
0000
0000
,
0010
0000
1000
0000
0100
0000
0010
0001
1000
0000
0001
0000
0100
0000
0000
0000
,
2002
0000
0000
3003
,
0010
0000
1000
0000
0100
0010
0001
1000
,
0010
0000
0100
0000
0001
0100
0010
1000
,
0001
0000
0010
0000
0100
1000
0100
0010
,
0001
0000
0000
0100
0000
0000
0010
0000
0000
1000
0000
0100
0000
0000
0010
0000
,
0001
0000
0100
0000
0010
1000
0001
0010
,
0100
0000
1000
0000
0100
0010
0001
1000
,
0010
0000
0100
0000
0001
0100
0010
1000
,
0001
0000
0000
0100
0000
0000
0010
0000
0000
1000
0000
0001
0000
0000
0100
0000
,
0010
0000
1000
0000
0100
0010
0001
0100
,
0010
0000
1000
0000
0010
1000
0100
0010
,
0001
0000
0010
0000
0100
1000
0010
0100
,
0001
0000
0000
0010
0000
0000
0100
0000
0000
0010
0000
0001
0000
0000
0100
0000
,
1000
0000
0100
0000
0010
0001
1000
0000
,
0100
0000
0010
0000
0100
1000
0001
0000
,
1000
0001
1000
0001
0010
0100
0010
0100
,
0010
0001
1000
0010
0100
0001
0100
0000
,
0010
0000
1000
0000
0001
0010
0001
0100
,
0010
1000
0100
0010
0100
1000
0001
0100
,
0010
0000
1000
0000
0001
0010
0001
0000
,
0010
0000
0000
0001
0000
0000
0100
0000
0000
0010
0000
1000
0000
0000
0001
0000
,
0010
0000
1000
0000
0100
0010
0100
0010
,
1000
0001
0100
0010
1000
0001
0010
0100
,
1000
0000
0100
0000
0010
0001
1000
0000
,
0010
0000
0000
0001
0000
0000
0100
0000
0000
0010
0000
1000
0000
0000
0100
0000
,
0010
0000
0100
0000
0001
0100
0010
1000
,
0001
0100
0010
1000
0100
0010
0001
0100
,
0010
0000
1000
0000
0010
0100
0001
0100
,
0010
0000
0000
1000
0000
0000
0001
0000
0000
0100
0000
0001
0000
0000
0010
0000
,
1000
0100
1000
0100
0010
0001
0010
0001
,
0100
0010
0100
0010
1000
0001
1000
0001
,
0010
0001
0100
0010
1000
0001
0010
0100
,
1000
0000
0000
0010
0000
0000
1010
0000
0000
0001
0000
0100
0000
0000
0010
0000
,
1000
2002
0000
0000
,
0000
0000
0000
0000
0000
0000
0000
3003
;

//---------------dance-single - ----------------
#NOTES:
     dance-single:
     :
     Hard:
     9:
     0.601,0.635,0.235,0.039,0.301:
0010
0000
1000
0000
1100
0000
0100
0010
0001
0000
0100
0000
0110
0000
0010
1000
,
0001
0000
0010
0000
0011
0000
0001
0100
0010
0000
1000
0000
0010
0000
0100
0000
,
0001
0000
0010
0000
0110
0000
0100
1000
0001
0000
0100
0000
0101
0000
0001
1000
,
0100
0000
0010
0000
0011
0000
0001
0100
0010
0000
1000
0000
1100
0000
0100
0000
,
0220
0000
0000
0330
,
0001
0000
0010
0000
0001
0010
0001
0000
0100
0000
0010
0000
1000
0000
0001
0000
,
0010
0000
0100
0000
1000
0100
1000
0000
0010
0000
0100
0000
0001
0000
0010
0000
,
0100
0000
1000
0000
0010
1000
0010
0000
0100
0000
0001
0000
0010
0000
0100
0000
,
1000
0000
0000
1010
0000
0000
0101
0000
0000
1001
0000
1001
0000
0000
1000
0000
,
0100
0000
0010
0000
0001
0100
0001
0000
0010
0000
0001
0000
1000
0000
0010
0100
,
0010
1000
0010
0001
0100
1000
0100
0010
,
0001
0000
0100
0000
1000
0010
1000
0000
0100
0000
0001
0000
0100
0000
0010
0000
,
1000
0000
0000
1010
0000
0000
0011
0000
0000
0001
0000
0000
1000
0000
0001
0000
,
0010
0000
0100
0000
1000
0001
1000
0000
0010
0000
1000
0000
0001
0000
0100
0000
,
0010
0000
1000
0000
0001
0010
0001
0000
1000
0000
0100
0000
1000
0000
0001
0000
,
0100
0000
0010
0000
1000
0001
1000
0000
0010
0000
1000
0000
0001
0000
0010
0000
,
0100
0000
0000
1000
0000
0000
0010
0000
0000
0100
0000
0001
0000
0000
0001
0000
,
0010
0000
0001
0000
0100
0000
0010
0000
1000
0000
0000
0100
0000
0000
1000
0100
,
1000
0010
0100
0001
0010
0001
0100
0010
,
1000
0001
1000
0001
0100
0010
0100
0010
,
1000
0100
1000
0000
0001
0010
0001
0000
0100
0000
0001
0000
0010
0000
0100
0000
,
1000
0100
0001
0100
1000
0010
0001
0010
,
1000
0100
0010
0100
0001
0100
0010
1000
,
0001
0010
0100
1000
0100
0010
0001
1000
,
0010
0000
0000
1000
0000
0000
0001
0000
0000
0010
0000
0100
0000
0000
0010
0000
,
0001
0100
0010
1000
0001
0010
1000
0010
,
0001
0100
1000
0100
0001
0010
0100
1000
,
0100
0010
0001
1000
0010
0100
0001
0100
,
0010
0000
0000
1000
0000
0000
0001
0000
0000
0010
0000
0000
0001
0000
1000
0000
,
0010
0000
0100
0000
0001
0100
0001
0000
0010
0000
0010
0001
0000
0000
0100
0000
,
0010
0000
1000
0000
0100
1000
0001
0000
0100
0000
0100
0010
0000
0000
1000
0000
,
0010
0000
0100
0000
0001
0010
0001
0000
0100
0000
0100
0010
0000
0000
1000
0010
,
1000
0000
0000
0001
0000
0000
0010
0000
0000
0100
0000
0010
0000
0000
0001
0000
,
1000
0100
0001
0100
1000
0010
0001
0010
,
1000
0001
0100
0010
1000
0010
0100
0001
,
1000
0010
1000
0000
0100
0000
0010
0000
0001
0010
0001
0000
0100
0000
0010
0000
,
1000
0000
0000
1100
0000
0000
0011
0000
0000
0101
0000
0000
0010
0000
1000
0000
,
0001
0210
0000
0000
,
0000
0000
0000
0000
0000
0000
0000
0310
;
