#TITLE:Cross Galaxy;
#SUBTITLE:;
#ARTIST:kanone;
#TITLETRANSLIT:;
#SUBTITLETRANSLIT:;
#ARTISTTRANSLIT:;
#CREDIT:;
#BANNER:;
#BACKGROUND:bgblack.PNG;
#LYRICSPATH:;
#CDTITLE:;
#MUSIC:Cross Galaxy.mp3;
#OFFSET:-0.000;
#SAMPLESTART:28.830;
#SAMPLELENGTH:12.000;
#SELECTABLE:YES;
#BPMS:0.000=150.000;
#STOPS:;
#BGCHANGES:0.000=cross_galaxy_bga.avi=1.000=0=0=1,
99999=-nosongbg-=1.000=0=0=0 // don't automatically add -songbackground-
;

//---------------dance-single - ----------------
#NOTES:
     dance-single:
     :
     Hard:
     8:
     0.507,0.626,0.022,0.120,0.164: // measure 1
0000
0000
0000
0000
,  // measure 2
0000
0000
0000
0000
,  // measure 3
0000
0000
0000
0000
,  // measure 4
0000
0000
0000
0000
,  // measure 5
0000
0000
0000
0000
,  // measure 6
0000
0000
0000
0000
,  // measure 7
0000
0000
0000
0000
,  // measure 8
0000
0000
0000
0000
,  // measure 9
1000
0000
0100
0000
0010
0001
0010
0000
,  // measure 10
0001
0000
0100
0000
0010
1000
0000
1000
,  // measure 11
0010
0000
0100
0000
0001
0010
0001
0000
,  // measure 12
0010
0100
1000
0001
0000
0100
0001
0000
,  // measure 13
1000
0000
0100
0000
0010
0100
1000
0000
,  // measure 14
0001
0010
0000
0000
0001
0000
0000
0100
0000
0001
0000
1000
0000
0000
0000
0000
,  // measure 15
0001
0000
0100
0000
0010
0000
0010
0000
1000
0100
0000
0100
0000
0100
1000
0000
,  // measure 16
0010
0000
0000
0100
0000
0000
0001
0000
0000
0100
0000
0000
0010
0000
1000
0000
0010
0000
0100
0000
0001
0000
0100
0000
,  // measure 17
0020
0000
0000
0030
,  // measure 18
1001
0000
0000
0000
0000
0000
0000
0000
1000
0000
0000
0100
0000
0000
0010
0000
,  // measure 19
0001
0010
0100
1000
0100
0010
0001
1000
,  // measure 20
0010
0100
0001
0100
0010
1000
0001
0000
,  // measure 21
0010
0100
1000
0100
0010
0001
1000
0010
,  // measure 22
0100
0000
0001
0000
0100
0000
0000
0010
0000
1000
0000
0001
0000
0000
0100
0000
,  // measure 23
0001
0010
0100
1000
0100
0010
0001
1000
,  // measure 24
0010
0001
0010
1000
0100
0010
0100
1000
,  // measure 25
0001
0100
0010
1000
0001
0010
0100
1000
,  // measure 26
0100
0000
0010
0000
0001
0000
1000
0000
0010
0000
0000
0100
0000
0000
0001
0000
,  // measure 27
0010
0001
0100
0010
1000
0100
0010
0100
,  // measure 28
1000
0001
0100
0010
1000
0001
0010
0010
,  // measure 29
0001
0100
0010
1000
0100
0010
0100
1000
,  // measure 30
0001
0000
0100
0000
0010
0000
0000
1000
0000
0010
0000
0000
0100
0000
0001
0000
,  // measure 31
0010
0001
0010
0001
0010
0001
0020
0000
,  // measure 32
0130
1000
0100
1000
0100
1000
0200
0000
,  // measure 33
0310
0001
0010
0000
0100
0000
1000
0000
0010
1000
0010
0000
0100
0000
0001
0000
,  // measure 34
1000
0001
1000
0001
2000
0000
0000
0000
3002
0000
0000
0000
0203
0000
0000
0000
,  // measure 35
0310
0001
0100
0010
1000
0100
1000
0010
,  // measure 36
1000
0100
0001
0010
0001
0100
0010
1000
,  // measure 37
0100
0010
0100
1000
0001
0100
0010
1000
,  // measure 38
0001
0010
0100
1000
0100
0010
0001
0001
,  // measure 39
0100
0010
1000
0100
0010
0100
1000
0001
,  // measure 40
0100
0010
1000
0001
0010
0100
1000
0100
,  // measure 41
0010
0001
1000
0010
0100
0001
0100
0010
,  // measure 42
1000
0000
0001
0000
0010
0000
0100
0000
1000
0000
0000
0001
0000
0000
0100
0000
,  // measure 43
0010
0000
1000
0000
0001
0000
0010
0000
0100
0000
1000
0000
0100
0010
0100
0000
,  // measure 44
1000
0000
0001
0000
0100
0000
0010
0000
1000
0000
0001
0000
0010
0100
1000
0000
,  // measure 45
0100
0000
0010
0000
0001
0000
1000
0000
0010
0000
0100
0000
0001
0100
0001
0000
,  // measure 46
0010
0100
1000
0100
0010
0001
1000
1000
,  // measure 47
0010
0001
0100
1000
0010
1000
0200
0000
,  // measure 48
0310
0001
0100
1000
0100
0001
0020
0000
,  // measure 49
0031
0100
0001
0000
0100
0000
0010
0000
1000
0100
1000
0000
0010
0000
0100
0000
,  // measure 50
0001
0010
0001
0010
0002
0000
0000
0000
1003
0000
0100
0000
0010
0000
0100
0000
,  // measure 51
2002
0000
0000
0000
,  // measure 52
0000
0000
0000
0000
,  // measure 53
3003
0000
0000
0000
;

//---------------dance-single - ----------------
#NOTES:
     dance-single:
     :
     Medium:
     5:
     0.336,0.411,0.033,0.033,0.011: // measure 1
0000
0000
0000
0000
,  // measure 2
0000
0000
0000
0000
,  // measure 3
0000
0000
0000
0000
,  // measure 4
0000
0000
0000
0000
,  // measure 5
0000
0000
0000
0000
,  // measure 6
0000
0000
0000
0000
,  // measure 7
0000
0000
0000
0000
,  // measure 8
0000
0000
0000
0000
,  // measure 9
1000
0000
0100
0000
0010
0001
0010
0000
,  // measure 10
0001
0000
0100
0000
0010
0100
0000
0100
,  // measure 11
0010
0000
1000
0000
0001
1000
0001
0000
,  // measure 12
0010
0000
0100
0000
1000
0100
0000
0100
,  // measure 13
0010
0000
0001
0000
0100
0010
0100
0000
,  // measure 14
0010
0000
1000
0000
0001
0010
0001
0000
,  // measure 15
0100
0000
0010
0000
1000
0001
1000
0000
,  // measure 16
0010
0100
0001
1000
,  // measure 17
0002
0000
0003
0000
,  // measure 18
1001
0000
0010
0000
,  // measure 19
1000
0000
0100
0000
0010
0001
0010
0000
,  // measure 20
0100
0000
1000
0000
0010
0100
0001
0000
,  // measure 21
0100
0000
0010
0000
1000
0001
0010
0000
,  // measure 22
0001
0000
0100
0000
1000
0100
0010
0000
,  // measure 23
0001
0000
0100
0000
0010
1000
0010
0000
,  // measure 24
0100
0000
0001
0000
0010
0100
1000
0000
,  // measure 25
0100
0000
0010
0000
0001
1000
0010
0000
,  // measure 26
0100
0000
0000
0000
0001
0000
0000
0000
0100
0000
0000
0010
0000
0000
0100
0000
,  // measure 27
1000
0000
0010
0000
0100
0001
0100
0000
,  // measure 28
0010
0000
1000
0000
0100
0010
0100
0000
,  // measure 29
1000
0000
0001
0000
0100
0010
1000
0000
,  // measure 30
0001
0000
0100
0000
0010
0100
0001
0000
,  // measure 31
1000
0000
0001
0000
1000
0001
1000
0000
,  // measure 32
0010
0000
0100
0000
0010
0100
0010
0000
,  // measure 33
1000
0001
1000
0000
0010
0100
0010
0000
,  // measure 34
0220
0330
0001
1000
,  // measure 35
0010
0000
0100
0001
0100
0000
0010
0000
,  // measure 36
1000
0000
0100
0010
0100
0000
1000
0000
,  // measure 37
0001
0000
0100
0010
1000
0000
0010
0000
,  // measure 38
0100
0000
0001
0010
0001
0000
0100
0000
,  // measure 39
0010
0000
1000
0001
0010
0000
0100
0000
,  // measure 40
1000
0000
0100
0010
0001
0000
1000
0000
,  // measure 41
0010
0000
0100
0001
1000
0000
0001
0000
,  // measure 42
0010
0000
0000
0000
0100
0000
1000
0000
0100
0000
0000
1000
0000
0000
0001
0000
,  // measure 43
0010
0000
0001
0000
0100
0010
1000
0000
,  // measure 44
0010
0000
0100
0000
0001
0010
0001
0000
,  // measure 45
0100
0000
0010
0000
1000
0001
0010
0000
,  // measure 46
0100
0000
1000
0000
0100
0010
0001
0000
,  // measure 47
1000
0001
1000
0001
1000
0001
1000
0000
,  // measure 48
0010
0100
0010
0100
0010
0100
0010
0000
,  // measure 49
0010
1000
0100
0010
0001
0010
0100
1000
,  // measure 50
0010
0100
0001
1000
,  // measure 51
1001
0000
0000
0000
;

//---------------dance-single - ----------------
#NOTES:
     dance-single:
     :
     Easy:
     4:
     0.230,0.274,0.044,0.066,0.000: // measure 1
0000
0000
0000
0000
,  // measure 2
0000
0000
0000
0000
,  // measure 3
0000
0000
0000
0000
,  // measure 4
0000
0000
0000
0000
,  // measure 5
0000
0000
0000
0000
,  // measure 6
0000
0000
0000
0000
,  // measure 7
0000
0000
0000
0000
,  // measure 8
0000
0000
0000
0000
,  // measure 9
1000
0100
1000
0000
,  // measure 10
0010
0100
0001
0000
,  // measure 11
0100
0010
1000
1000
,  // measure 12
0010
0001
0100
0000
,  // measure 13
0001
0010
0100
0000
,  // measure 14
1000
0100
0010
0000
,  // measure 15
0001
0100
0010
0000
,  // measure 16
1000
0100
1000
0000
,  // measure 17
2002
0000
3003
0000
,  // measure 18
0010
0000
0000
0000
,  // measure 19
0010
1000
0100
1000
,  // measure 20
0010
0100
0001
0000
,  // measure 21
0010
0001
0100
0010
,  // measure 22
1000
0100
0010
0000
,  // measure 23
0001
0010
0001
0100
,  // measure 24
0010
1000
0001
0000
,  // measure 25
0010
0001
0100
0010
,  // measure 26
1000
0100
1000
0000
,  // measure 27
0010
0100
0010
0100
,  // measure 28
0001
1000
0001
0000
,  // measure 29
0100
0001
0010
0001
,  // measure 30
0100
0010
1000
0000
,  // measure 31
0010
0010
0010
0010
,  // measure 32
0100
0100
0100
0100
,  // measure 33
0001
1000
0001
1000
,  // measure 34
2002
3003
0000
0000
,  // measure 35
1000
0100
1000
0100
,  // measure 36
0010
0001
0010
0001
,  // measure 37
0100
0010
0100
0010
,  // measure 38
1000
0001
1000
0000
,  // measure 39
0001
0100
0001
0100
,  // measure 40
0010
1000
0010
1000
,  // measure 41
0001
1000
0001
1000
,  // measure 42
0010
0000
0100
0000
,  // measure 43
0010
0100
0010
0000
,  // measure 44
0100
0001
0100
0000
,  // measure 45
0010
1000
0010
0000
,  // measure 46
1000
0100
1000
0000
,  // measure 47
0001
0001
0010
0010
,  // measure 48
0100
0100
1000
1000
,  // measure 49
0001
1000
0001
1000
,  // measure 50
2002
3003
0000
0000
,  // measure 51
0110
0000
0000
0000
;

//---------------dance-single - ----------------
#NOTES:
     dance-single:
     :
     Beginner:
     1:
     0.114,0.219,0.033,0.055,0.000: // measure 1
0000
0000
0000
0000
,  // measure 2
0000
0000
0000
0000
,  // measure 3
0000
0000
0000
0000
,  // measure 4
0000
0000
0000
0000
,  // measure 5
0000
0000
0000
0000
,  // measure 6
0000
0000
0000
0000
,  // measure 7
0000
0000
0000
0000
,  // measure 8
0000
0000
0000
0000
,  // measure 9
1000
0000
0000
0000
,  // measure 10
0100
0000
0000
0000
,  // measure 11
0001
0000
0000
0000
,  // measure 12
0010
0000
0000
0000
,  // measure 13
0001
0000
0000
0000
,  // measure 14
0100
0000
0000
0000
,  // measure 15
0010
0000
0000
0000
,  // measure 16
1000
0000
0000
0000
,  // measure 17
2002
0000
0000
0000
,  // measure 18
3003
0000
0000
0000
,  // measure 19
1000
0000
1000
0000
,  // measure 20
1000
0000
0000
0000
,  // measure 21
0001
0000
0001
0000
,  // measure 22
0001
0000
0000
0000
,  // measure 23
0100
0000
0100
0000
,  // measure 24
0100
0000
0000
0000
,  // measure 25
0010
0000
0010
0000
,  // measure 26
0010
0000
0000
0000
,  // measure 27
1000
0000
0100
0000
,  // measure 28
1000
0000
0000
0000
,  // measure 29
0010
0000
0100
0000
,  // measure 30
0010
0000
0000
0000
,  // measure 31
0100
0000
0001
0000
,  // measure 32
0100
0000
0000
0000
,  // measure 33
0010
0000
0100
0000
,  // measure 34
0020
0000
0030
0000
,  // measure 35
0100
0000
0100
0000
,  // measure 36
0100
0000
0100
0000
,  // measure 37
0001
0000
0001
0000
,  // measure 38
0001
0000
0001
0000
,  // measure 39
0010
0000
0010
0000
,  // measure 40
0010
0000
0010
0000
,  // measure 41
1000
0000
1000
0000
,  // measure 42
1000
0000
1000
0000
,  // measure 43
1000
0000
0100
0000
,  // measure 44
0010
0000
0001
0000
,  // measure 45
0001
0000
0010
0000
,  // measure 46
0100
0000
1000
0000
,  // measure 47
0001
0000
0001
0000
,  // measure 48
1000
0000
1000
0000
,  // measure 49
0001
0000
1000
0000
,  // measure 50
2002
0000
3003
0000
,  // measure 51
1001
0000
0000
0000
;
