#TITLE:Conference on Disarmament 20XX;
#SUBTITLE:;
#ARTIST:Professor S;
#TITLETRANSLIT:;
#SUBTITLETRANSLIT:;
#ARTISTTRANSLIT:;
#CREDIT:;
#BANNER:banner.png;
#BACKGROUND:bgblack.PNG;
#LYRICSPATH:;
#CDTITLE:;
#MUSIC:Conference on Disarmament 20XX.mp3;
#OFFSET:-10.540;
#SAMPLESTART:92.850;
#SAMPLELENGTH:12.000;
#SELECTABLE:YES;
#BPMS:0.000=183.000,160.000=193.000;
#STOPS:;
#BGCHANGES:;

//---------------dance-single - ----------------
#NOTES:
     dance-single:
     :
     Beginner:
     2:
     0.155,0.273,0.094,0.000,0.000:
1000
1000
1000
0000
,
1000
0000
1000
0000
,
0010
0010
0010
0000
,
0010
0000
0010
0000
,
0100
0100
0100
0000
,
0100
0000
0100
0000
,
0001
0001
0001
0000
,
0001
0000
0001
0000
,
1001
0000
0100
0000
,
0010
0000
0100
0000
,
0110
0000
1000
0000
,
0100
0000
0010
0000
,
1001
0000
0000
0000
,
0110
0000
0000
0000
,
1000
1000
1000
1000
,
1000
0000
0000
0000
,
0100
0000
0010
0000
,
0100
0000
0100
0000
,
0010
0000
0100
0000
,
0010
0000
0010
0000
,
1000
0000
0001
0000
,
1000
0000
1000
0000
,
0001
0000
1000
0000
,
0001
0000
0001
0000
,
1001
0000
0010
0000
,
0100
0000
0010
0000
,
0110
0000
1000
0000
,
0100
0000
0010
0000
,
1001
0000
0001
0000
,
0110
0000
0010
0000
,
1000
1000
1000
1000
,
1000
0000
0000
0000
,
0001
0001
0000
0001
,
0000
0001
0000
0001
,
0001
0001
0000
0001
,
0000
0001
0000
0001
,
0001
0000
0100
0000
,
0010
0000
1000
0000
,
0010
0010
0010
0000
,
0100
0100
0100
0100
,
0100
0000
0000
0000
,
0000
0000
0000
0000
,
0000
0000
0000
0000
,
0000
0000
0000
0000
,
0000
0000
0000
0000
,
0000
0000
0000
0000
,
0000
0000
0000
0000
,
0000
0000
0000
0000
,
0010
0000
0000
0000
,
0000
0000
0000
0000
,
0000
0000
0000
0000
,
0000
0000
0000
0000
,
0000
0000
0000
0000
,
0000
0000
0000
0000
,
0000
0000
0000
0000
,
0000
0000
0000
0000
,
1000
0000
0000
0000
,
0000
0000
0000
0000
,
0001
0000
0000
0000
,
0000
0000
0000
0000
,
0100
0000
0000
0000
,
0000
0000
0000
0000
,
0010
0000
0000
0000
,
0000
0000
0000
0000
,
0010
0000
0010
0000
,
0010
0000
0000
0000
,
1000
0000
1000
0000
,
1000
0000
0000
0000
,
0001
0000
0001
0000
,
0001
0000
0000
0000
,
0100
0000
0100
0000
,
0100
0000
0000
0000
,
0110
0000
0000
0000
,
0000
0000
0000
0000
,
1001
0000
0000
0000
,
0000
0000
0000
0000
,
1000
0000
0000
0000
,
0100
0000
0000
0000
,
0010
0010
0010
0000
,
0001
0000
0000
0000
,
1001
0000
0000
0000
;

//---------------dance-single - ----------------
#NOTES:
     dance-single:
     :
     Easy:
     6:
     0.336,0.443,0.009,0.034,0.000: // measure 1
0010
0000
1000
0000
0100
1000
0001
0000
,  // measure 2
0100
0000
0001
1000
0000
1000
0001
0000
,  // measure 3
0010
0000
0100
0000
1000
0100
0010
0000
,  // measure 4
0001
0000
1000
0010
0000
0010
1000
0000
,  // measure 5
0010
0000
0100
0001
0100
0000
0010
0000
,  // measure 6
1000
0000
0001
0010
0000
0010
0001
0000
,  // measure 7
0100
0000
0010
0000
1000
0001
1000
0000
,  // measure 8
0001
0000
0010
0100
0000
0100
0010
1000
,  // measure 9
0100
0000
0010
0000
0001
1000
0001
0000
,  // measure 10
0100
0000
0010
0100
0000
0100
0010
0000
,  // measure 11
1000
0000
0100
0000
0010
0001
0010
0000
,  // measure 12
0001
0000
0100
0001
0000
0001
0100
0000
,  // measure 13
0010
0001
0100
0100
,  // measure 14
0010
1000
0001
0001
,  // measure 15
0010
0100
1000
0000
0001
0010
0100
0000
,  // measure 16
2000
0000
3000
0000
,  // measure 17
0010
0000
1000
0000
0100
0010
0100
0000
,  // measure 18
1000
0001
0100
0000
,  // measure 19
0001
0000
0010
0000
0100
0000
1000
0100
,  // measure 20
0010
0000
0000
0001
1000
0000
1000
0000
,  // measure 21
0010
0000
1000
0000
0001
0010
0001
0000
,  // measure 22
0100
0010
1000
1000
,  // measure 23
0010
0000
0100
0001
0000
0010
0000
0001
,  // measure 24
1000
0001
0010
0100
,  // measure 25
1000
0010
0100
0001
,  // measure 26
0100
0000
0010
1000
0000
1000
0010
0000
,  // measure 27
0100
0001
0010
0100
,  // measure 28
1000
0000
0010
1000
0000
1000
0010
0000
,  // measure 29
0100
0000
0001
0100
0000
0100
0001
0000
,  // measure 30
0010
0000
0001
0010
0000
0010
0001
0000
,  // measure 31
1000
0000
0100
1000
0000
1000
0010
0000
,  // measure 32
0200
0000
0000
0300
,  // measure 33
1000
0000
0001
0000
0000
1000
0001
0000
,  // measure 34
0100
0000
0010
0000
0000
0100
0010
0000
,  // measure 35
1000
0000
0100
0000
0000
0010
0001
0000
,  // measure 36
0001
0000
0010
0000
0000
0100
1000
0000
,  // measure 37
1000
0000
0010
0000
0100
0001
0100
0000
,  // measure 38
0010
0000
1000
0000
0001
0010
0001
0000
,  // measure 39
1000
0001
1000
0000
0010
0100
0010
0000
,  // measure 40
0100
0000
0001
0000
1000
0001
1000
0001
,  // measure 41
2000
0000
0000
0000
,  // measure 42
0000
0000
0000
0000
,  // measure 43
0000
0000
0000
0000
,  // measure 44
0000
0000
0000
0000
,  // measure 45
0000
0000
0000
0000
,  // measure 46
0000
0000
0000
0000
,  // measure 47
0000
0000
0000
0000
,  // measure 48
3000
0000
0000
0000
,  // measure 49
1000
0000
0000
0000
,  // measure 50
0010
0000
0000
0000
,  // measure 51
0100
0000
0000
0000
,  // measure 52
0001
0000
0000
0000
,  // measure 53
0010
0000
0000
0000
,  // measure 54
0100
0000
0000
0000
,  // measure 55
1000
0000
0000
0000
,  // measure 56
0001
0000
0000
0000
,  // measure 57
0000
1000
0000
0000
0000
1000
0000
0000
,  // measure 58
0000
0010
0000
0000
0000
0010
0000
0000
,  // measure 59
0000
0100
0000
0000
0000
0100
0000
0000
,  // measure 60
0000
0001
0000
0000
0000
0001
0000
0000
,  // measure 61
0000
0010
0000
0000
0000
0010
0000
0000
,  // measure 62
0000
1000
0000
0000
0000
1000
0000
0000
,  // measure 63
0000
0100
0000
0000
0000
0100
0000
0000
,  // measure 64
0020
0000
0000
0030
,  // measure 65
1000
0000
0100
0000
0000
0010
0001
0000
,  // measure 66
1000
0000
0010
0000
0000
0100
0001
0000
,  // measure 67
0010
0000
0100
0000
0000
1000
0001
0000
,  // measure 68
0100
0000
0010
0000
0000
1000
0010
0000
,  // measure 69
0100
0000
0001
0000
0000
0010
0100
0000
,  // measure 70
1000
0000
0100
0000
0000
0010
0001
0000
,  // measure 71
1000
0000
0010
0000
0000
0100
0001
0000
,  // measure 72
1000
0000
0100
0000
0000
0010
0001
0000
,  // measure 73
1000
0001
1000
0001
,  // measure 74
0100
0010
0100
0010
,  // measure 75
1000
0100
1000
0100
,  // measure 76
0010
0001
0010
0001
,  // measure 77
0100
0010
0100
0010
,  // measure 78
1000
0001
1000
0001
,  // measure 79
0010
0000
0001
0100
0000
0010
1000
0000
,  // measure 80
0100
0000
1001
0000
,  // measure 81
0010
0000
0000
0000
;

//---------------dance-single - ----------------
#NOTES:
     dance-single:
     :
     Medium:
     7:
     0.404,0.614,0.017,0.060,0.000: // measure 1
0010
0000
1000
0000
0100
1000
0001
0000
,  // measure 2
0100
0000
0010
0100
0000
0100
0010
0000
,  // measure 3
1000
0000
0001
0000
0010
0100
0010
0000
,  // measure 4
0001
0000
0100
0001
0000
0001
0100
0000
,  // measure 5
0010
0000
1000
0100
1000
0000
0010
0000
,  // measure 6
0100
0000
0001
0010
0000
0010
0001
0000
,  // measure 7
0100
0001
0100
0000
0010
0000
1000
0000
,  // measure 8
0100
0000
0010
0100
0000
0100
0010
0000
,  // measure 9
0001
0000
0100
0000
0010
1000
0001
0000
,  // measure 10
0010
0000
0001
0100
0000
0100
0001
0000
,  // measure 11
0010
0000
0100
0000
1000
0010
1000
0000
,  // measure 12
0100
0000
0010
0100
0000
0100
0010
0000
,  // measure 13
0001
0000
0100
0010
0100
0000
0001
0000
,  // measure 14
0010
0000
0100
1000
0100
0000
0010
0000
,  // measure 15
0001
1000
0000
1000
0001
0000
0100
0000
,  // measure 16
0020
0000
0000
0030
,  // measure 17
1000
0000
0100
0000
1000
0001
0100
0000
,  // measure 18
0001
0000
0100
0000
0001
1000
0100
0000
,  // measure 19
1000
0000
0001
0000
1000
0001
0010
0000
,  // measure 20
0001
0000
1000
0000
0001
1000
0010
0000
,  // measure 21
1000
0000
0001
0000
0010
0100
1000
0000
,  // measure 22
0100
0000
0010
0000
0001
0100
0010
0000
,  // measure 23
0100
0000
0001
0000
0010
0100
1000
0000
,  // measure 24
0001
0000
0100
0000
0010
1000
0001
0000
,  // measure 25
0010
0000
0000
0001
0000
0100
0001
0000
,  // measure 26
0010
0000
0100
1000
0000
1000
0100
0000
,  // measure 27
0010
0000
0000
0001
0000
0100
0010
0000
,  // measure 28
1000
0000
0010
0001
0000
0001
0100
0000
,  // measure 29
0010
0000
0000
1000
0000
0100
0010
0000
,  // measure 30
0100
0000
0000
1000
0000
0001
0100
0000
,  // measure 31
0010
0000
1000
0010
0000
0010
1000
0000
,  // measure 32
0001
0000
0100
0000
,  // measure 33
0001
0000
1000
0000
0000
0001
1000
0000
,  // measure 34
0001
0000
1000
0000
0000
0001
1000
0000
,  // measure 35
0010
0000
0100
0000
0000
0010
0100
0000
,  // measure 36
0010
0000
0100
0000
0000
0010
0100
0000
,  // measure 37
1000
0001
1000
0000
0001
1000
0001
0000
,  // measure 38
0100
0001
0100
0000
0010
1000
0010
0000
,  // measure 39
1000
0001
1000
0001
1000
0010
1000
0010
,  // measure 40
0100
0001
0010
0100
1000
0100
0010
0001
,  // measure 41
2002
0000
0000
0000
,  // measure 42
0000
0000
0000
0000
,  // measure 43
0000
0000
0000
0000
,  // measure 44
0000
0000
0000
0000
,  // measure 45
0000
0000
0000
0000
,  // measure 46
0000
0000
0000
0000
,  // measure 47
0000
0000
0000
0000
,  // measure 48
0003
0000
0000
0000
,  // measure 49
3001
0000
0100
0000
,  // measure 50
0001
0000
0100
0000
,  // measure 51
0010
0000
1000
0000
,  // measure 52
0010
0000
1000
0000
,  // measure 53
0100
0000
0010
0000
,  // measure 54
0100
0000
0010
0000
,  // measure 55
1000
0000
0001
0000
,  // measure 56
1000
0000
0001
0000
,  // measure 57
1000
0001
0000
1000
0000
0001
0000
1000
,  // measure 58
0000
0010
0000
1000
0000
0010
0000
1000
,  // measure 59
0000
0001
0000
0100
0000
0001
0000
0100
,  // measure 60
0000
1000
0000
0100
0000
1000
0000
0100
,  // measure 61
0000
0010
0000
0001
0000
0100
0000
0010
,  // measure 62
0000
1000
0010
0000
0100
0000
0001
0000
,  // measure 63
0100
0010
1000
0001
,  // measure 64
2002
0000
0000
3003
,  // measure 65
0010
0000
1000
0000
0100
1000
0001
0000
,  // measure 66
0100
0000
0010
0100
0000
0100
0010
0000
,  // measure 67
1000
0000
0001
0000
0010
0100
0010
0000
,  // measure 68
0001
0000
0100
0001
0000
0001
0100
0000
,  // measure 69
0010
0000
1000
0000
0100
1000
0001
0000
,  // measure 70
0100
0000
0010
1000
0000
1000
0010
0000
,  // measure 71
0100
0000
0001
0010
0001
0000
0100
0000
,  // measure 72
0010
0000
1000
0001
0000
0001
1000
0000
,  // measure 73
0001
0000
0100
0000
0010
1000
0001
0000
,  // measure 74
0010
0000
0001
0000
0100
0010
1000
0000
,  // measure 75
0010
0000
0100
0000
0001
0010
0100
0000
,  // measure 76
0010
0000
0001
0000
0100
0010
1000
0000
,  // measure 77
0010
0000
0100
0001
0100
0001
0100
0000
,  // measure 78
0010
0000
1000
0010
1000
0010
1000
0000
,  // measure 79
0010
1000
0100
0010
0001
1000
0010
0100
,  // measure 80
0002
0000
2003
0000
,  // measure 81
3001
0000
0000
0000
;

//---------------dance-single - ----------------
#NOTES:
     dance-single:
     :
     Hard:
     9:
     0.569,0.750,0.043,0.034,0.102: // measure 1
0010
0000
1000
0100
1000
0001
0100
0000
,  // measure 2
0010
0000
1000
0100
0000
0100
1000
0001
,  // measure 3
0100
0010
1000
0001
0010
0001
0100
0000
,  // measure 4
0010
0000
1000
0100
0000
0100
1000
0001
,  // measure 5
0100
0000
0010
1000
0001
0010
0100
0000
,  // measure 6
1000
0000
0010
0100
0000
0100
0010
1000
,  // measure 7
0001
0010
0001
0100
0010
1000
0100
0000
,  // measure 8
0100
0000
0001
0010
0000
0010
0001
0100
,  // measure 9
0010
1000
0001
0010
0100
1000
0100
0000
,  // measure 10
0010
0000
0001
0100
0000
0100
0001
0010
,  // measure 11
0100
1000
0010
0100
0001
0010
0001
0000
,  // measure 12
0100
0000
0010
1000
0000
0100
1000
0001
,  // measure 13
0100
0000
0010
1000
0010
0100
0001
0000
,  // measure 14
0010
0000
0001
0100
0010
1000
0001
0000
,  // measure 15
0010
0001
0100
0010
1000
0100
0010
0100
,  // measure 16
2000
0000
0000
0000
,  // measure 17
3001
0000
0100
0000
0010
0000
1000
0000
0010
0000
0000
0100
0000
0000
0010
0000
,  // measure 18
1000
0000
0001
0000
0010
0000
0001
0000
0100
0000
0010
1000
0000
0100
0000
1000
,  // measure 19
0010
0100
0001
0010
0001
0100
1000
0100
,  // measure 20
0001
0010
1000
0010
0001
0100
0010
1000
,  // measure 21
0100
0000
1000
0000
0010
0000
0100
0001
0100
0000
0001
0000
0010
0000
0100
0000
,  // measure 22
1000
0000
0010
0000
0100
0000
0010
0000
1000
0000
0001
0010
0000
0001
0000
0100
,  // measure 23
0010
1000
0100
1000
0010
0100
0001
0010
,  // measure 24
0001
0100
0000
0010
0000
1000
0001
0000
0010
0000
0001
0000
0100
0000
0010
0000
,  // measure 25
1000
0100
1000
0010
0100
0001
0010
0000
,  // measure 26
0010
0000
0001
0100
0000
0100
0001
0010
,  // measure 27
0100
1000
0100
0010
0001
1000
0010
0000
,  // measure 28
0010
0000
1000
0100
0000
0100
1000
0010
,  // measure 29
0100
0001
0100
0001
0100
0001
0100
0000
,  // measure 30
0010
1000
0010
1000
0010
1000
0010
0000
,  // measure 31
1000
0100
0001
0100
1000
0010
0001
0010
,  // measure 32
2000
0000
0000
0000
,  // measure 33
3001
0000
0000
0000
0101
0000
0000
0100
0000
0010
1000
0000
0100
0000
1000
0000
,  // measure 34
0010
0000
0000
0000
1010
0000
0000
0001
0000
0010
0001
0000
0100
0000
0010
0000
,  // measure 35
1000
0000
0000
0000
1100
0000
0000
0010
0000
0100
0001
0000
0010
0000
0100
0000
,  // measure 36
0010
0000
0000
0000
0011
0000
0000
0010
0000
0001
0100
0000
0010
0000
1000
0000
,  // measure 37
0001
0100
0001
0100
0010
1000
0010
1000
,  // measure 38
0001
1000
0001
1000
0010
0100
0010
0100
,  // measure 39
0010
1000
0100
0010
0001
1000
0010
0100
,  // measure 40
0001
0010
0001
0000
0100
1000
0100
0000
0010
0001
0010
0000
1000
0010
1000
0010
,  // measure 41
2000
0000
0000
0000
,  // measure 42
0000
0000
0000
0000
,  // measure 43
0000
0000
0000
0000
,  // measure 44
0000
0000
0000
0000
,  // measure 45
0000
0000
0000
0000
,  // measure 46
0000
0000
0000
0000
,  // measure 47
0000
0000
0000
0000
,  // measure 48
0000
0000
0000
0000
,  // measure 49
3010
0000
1000
0000
,  // measure 50
0100
0000
0001
0000
,  // measure 51
0010
0000
0001
0000
,  // measure 52
0100
0000
1000
0000
,  // measure 53
0010
0000
0100
0000
,  // measure 54
0001
0000
1000
0000
,  // measure 55
0001
0000
0100
0000
,  // measure 56
0010
0000
1000
0000
,  // measure 57
0100
1000
0000
0001
0000
0100
0000
0010
,  // measure 58
0000
1000
0000
0001
0000
0010
0000
0001
,  // measure 59
0000
0100
0000
0100
0000
0010
0000
0010
,  // measure 60
0000
1000
0000
1000
0000
0001
0000
0001
,  // measure 61
1000
0001
1000
0001
0100
0010
0100
0010
,  // measure 62
1000
0100
1000
0100
0010
0001
0010
0001
,  // measure 63
0100
0010
1000
0001
0010
0100
1000
0010
,  // measure 64
0200
0000
0000
0000
,  // measure 65
0310
1000
0100
0001
0100
1000
0010
0100
,  // measure 66
0001
0010
0100
1000
0100
0010
0001
0000
,  // measure 67
0001
0010
0001
0100
0010
1000
0100
0010
,  // measure 68
0100
1000
0001
0100
0010
1000
0001
0000
,  // measure 69
0010
0001
0100
0010
1000
0100
0010
0100
,  // measure 70
1000
0001
0100
0010
1000
0010
0100
0000
,  // measure 71
0001
0010
0001
0100
0010
1000
0001
0010
,  // measure 72
0100
1000
0100
0010
0001
1000
0010
0000
,  // measure 73
1000
0100
1000
0100
0010
0001
0010
0001
,  // measure 74
1000
0001
1000
0001
0100
0010
0100
0010
,  // measure 75
1000
0100
0010
0100
1000
0001
0100
0010
,  // measure 76
1000
0001
0100
1000
0100
0001
0010
0100
,  // measure 77
1000
0010
1000
0010
0100
0001
0100
0001
,  // measure 78
0010
0001
0010
0001
1000
0100
1000
0100
,  // measure 79
1000
0001
0100
0010
1000
0001
0010
0100
,  // measure 80
1000
1000
1000
1000
,  // measure 81
1001
0000
0000
0000
;
