#TITLE:Chariot;
#SUBTITLE:;
#ARTIST:SHIKI;
#TITLETRANSLIT:;
#SUBTITLETRANSLIT:;
#ARTISTTRANSLIT:;
#CREDIT:;
#BANNER:banner.PNG;
#BACKGROUND:bgblack.PNG;
#LYRICSPATH:;
#CDTITLE:;
#MUSIC:Chariot (DDR Edit).mp3;
#OFFSET:-10.720;
#SAMPLESTART:74.050;
#SAMPLELENGTH:10.600;
#SELECTABLE:YES;
#BPMS:0.000=181.980;
#STOPS:;
#BGCHANGES:;

//---------------dance-single - ----------------
#NOTES:
     dance-single:
     :
     Beginner:
     1:
     0.150,0.189,0.017,0.000,0.000:
1000
0000
0100
0000
,
1000
0000
0010
0000
,
0100
0000
0001
0000
,
0010
0000
0001
0000
,
1000
0000
0100
0000
,
0001
0000
0100
0000
,
1000
0000
0010
0000
,
0001
0000
0010
0000
,
0001
0000
0100
0000
,
0010
0000
0100
0000
,
1000
0000
0100
0000
,
0010
0000
0100
0000
,
1000
0000
0001
0000
,
0100
0000
0010
0000
,
0100
0000
0001
0000
,
1000
0000
0100
0000
,
0000
0010
0000
0010
,
0000
0001
0000
0001
,
0000
0100
0000
0100
,
0000
1000
0000
1000
,
0000
0010
0000
0010
,
0000
1000
0000
1000
,
0000
0100
0000
0100
,
0000
0001
0000
0000
,
0000
0001
0000
0001
,
0000
0100
0000
0100
,
0000
0010
0000
0010
,
0000
1000
0000
1000
,
0000
0010
0000
0001
,
0000
0100
0000
1000
,
0000
0010
0000
1000
,
0000
0100
0000
0001
,
0001
0001
0000
0001
,
0000
0001
0000
0000
,
0010
0010
0000
0010
,
0000
0010
0000
0000
,
1000
1000
0000
1000
,
0000
1000
0000
0000
,
0100
0100
0000
0100
,
0000
0100
0000
0000
,
0110
0000
0000
0000
,
0100
0000
0000
0000
,
1000
0000
0000
0000
,
0001
0000
0000
0000
,
0010
0000
0000
0000
,
0001
0000
0000
0000
,
0100
0000
0000
0000
,
1000
0000
0000
0000
,
0010
0000
1000
0000
,
0010
0000
0010
0000
,
0100
0000
0001
0000
,
0100
0000
0100
0000
,
0010
0000
1000
0000
,
0100
0000
0001
0000
,
0010
0000
0001
0000
,
0100
0000
1000
0000
,
0010
0000
0000
0000
,
0100
0000
0000
0000
,
0001
0000
0000
0000
,
1000
0000
0000
0000
,
0010
0000
0000
0000
,
1000
0000
0000
0000
,
0100
0000
0000
0000
,
0001
0000
0000
0000
,
0010
0000
0000
0000
,
0001
0000
0000
0000
,
0100
0000
0000
0000
,
1000
0000
0000
0000
,
0010
0000
0000
0000
,
1000
0000
0000
0000
,
0100
0000
0000
0000
,
0001
0000
0000
0000
,
0000
0000
0000
0000
,
1001
0000
0000
0000
;

//---------------dance-single - ----------------
#NOTES:
     dance-single:
     :
     Easy:
     4:
     0.256,0.283,0.095,0.069,0.000:
0010
1000
0001
0100
,
0010
0100
0001
0010
,
0100
1000
0010
0100
,
0001
0010
0100
1000
,
0001
0100
0010
1000
,
0100
0010
0001
0100
,
0010
1000
0100
0010
,
0001
0100
0010
1000
,
0010
1000
0100
0010
,
0100
1000
0010
0100
,
0001
0010
0100
1000
,
0010
0100
0001
0010
,
0001
0100
0010
1000
,
0001
0010
0100
1000
,
0010
0100
0001
0010
,
0100
1000
0010
0100
,
0000
0001
0000
0001
,
0000
0100
0000
0100
,
0000
0010
0000
0010
,
0000
1000
0000
1000
,
0000
0100
0000
0100
,
0000
0010
0000
0010
,
0000
0001
0000
0001
,
0000
1000
0000
1000
,
0010
1000
0100
1000
,
0010
0100
0001
0010
,
0001
0100
0010
1000
,
1100
0000
0110
0000
,
0010
0001
0100
0010
,
1000
0010
0100
0001
,
0010
0100
1000
0010
,
1000
0100
0010
0001
,
1000
0001
1000
0001
,
0100
0010
0100
0010
,
1000
0100
0010
0001
,
0100
0010
1000
0001
,
0010
0001
0010
0001
,
0100
0001
0100
0001
,
0010
0100
1000
0010
,
0100
0001
0010
0100
,
2000
0000
0000
0000
,
3020
0000
0230
0000
,
0302
0000
0000
0000
,
0000
0000
0003
0000
,
0020
0000
0000
0000
,
0032
0000
0203
0000
,
0320
0000
0000
0000
,
0030
0010
0000
0010
,
1000
0010
1000
0000
,
0010
0000
1000
0000
,
0001
0100
0001
0000
,
0100
0000
0001
0000
,
0010
0001
0100
0000
,
0010
0000
1000
0000
,
0100
1000
0010
0000
,
0100
0000
0001
0000
,
0011
0000
0000
0000
,
0010
0000
0000
0000
,
0110
0000
0000
0000
,
0100
0000
0000
0000
,
1100
0000
0000
0000
,
1000
0000
0000
0000
,
1010
0000
0000
0000
,
0010
0000
0000
0000
,
0110
0000
0000
0000
,
0100
0000
0000
0000
,
0101
0000
0000
0000
,
0001
0000
0000
0000
,
0011
0000
0000
0000
,
0010
0000
0000
0000
,
0110
0000
0000
0000
,
0100
0000
0000
0000
,
0000
0000
0000
0000
,
1001
0000
0000
0000
;

//---------------dance-single - ----------------
#NOTES:
     dance-single:
     :
     Medium:
     6:
     0.336,0.446,0.077,0.017,0.000: // measure 1
1000
0000
0010
0000
1000
0001
0000
0001
,  // measure 2
0100
0000
0010
0000
1000
0100
0000
0100
,  // measure 3
1000
0000
0010
0000
0100
0001
0000
0001
,  // measure 4
0010
0000
0100
0000
1000
0100
0000
0010
,  // measure 5
0001
0000
1000
0000
0010
0100
0000
0100
,  // measure 6
0010
0000
1000
0000
0001
0010
0000
0010
,  // measure 7
0001
0000
0100
0000
0010
1000
0000
1000
,  // measure 8
0010
0000
0100
0000
0001
1000
0000
1000
,  // measure 9
0001
0000
0010
0000
0100
1000
0000
0100
,  // measure 10
0010
0000
0001
0000
0010
0001
0000
0100
,  // measure 11
0001
0000
0010
0000
0100
1000
0000
0100
,  // measure 12
0010
0000
0001
0000
1000
0010
0000
0010
,  // measure 13
1000
0000
0001
0000
0010
0100
0000
1000
,  // measure 14
0100
0000
0010
0000
0001
1000
0000
0010
,  // measure 15
0100
0000
0001
0000
0010
0100
0000
1000
,  // measure 16
0100
0000
0010
0000
0001
1000
0000
0000
,  // measure 17
1000
1000
0000
1000
,  // measure 18
0000
0100
0000
0100
,  // measure 19
0000
0001
0000
0001
,  // measure 20
0000
0010
0000
0010
,  // measure 21
0000
0001
0000
0100
,  // measure 22
0000
0010
0000
1000
,  // measure 23
0000
0100
0000
0010
,  // measure 24
0001
1000
0001
1000
,  // measure 25
0010
0000
0100
0000
0001
0100
0001
0000
,  // measure 26
0010
0000
0100
0000
1000
0100
1000
0000
,  // measure 27
0010
0000
0100
0000
0001
0010
0001
0000
,  // measure 28
1000
0000
0010
1000
0000
1000
0010
0000
,  // measure 29
0100
0000
0001
0000
0010
0100
0010
0000
,  // measure 30
0001
0000
0100
0000
0010
1000
0010
0000
,  // measure 31
0100
0000
0001
0000
0010
0100
1000
0000
,  // measure 32
1100
0011
0101
1010
,  // measure 33
0010
0000
1000
0000
0001
0010
0100
0000
,  // measure 34
1000
0000
0100
0000
0010
0001
1000
0000
,  // measure 35
0010
0000
0100
0000
0001
0010
0001
0000
,  // measure 36
0100
0000
0010
0000
1000
0100
1000
0000
,  // measure 37
0010
0000
0100
0000
0001
0010
0001
0000
,  // measure 38
1000
0000
0010
0000
0100
0001
0100
0000
,  // measure 39
0010
0000
1000
0000
0100
0001
0100
0000
,  // measure 40
0010
0000
1000
0000
0001
0100
1000
0000
,  // measure 41
0010
0000
0000
0000
,  // measure 42
0100
0000
0001
0000
,  // measure 43
1000
0000
0000
0000
,  // measure 44
0000
0000
0000
0000
,  // measure 45
0010
0000
0000
0000
,  // measure 46
1000
0000
0100
0000
,  // measure 47
0001
0000
0000
0000
,  // measure 48
1000
0000
0000
0000
,  // measure 49
1000
0000
0100
0000
0010
0001
0010
0000
,  // measure 50
0100
1000
0001
0100
,  // measure 51
0010
0000
1000
0000
0100
0010
0100
0000
,  // measure 52
1000
0001
0100
0010
,  // measure 53
1000
0000
0100
0000
0001
0100
1000
0000
,  // measure 54
0100
0001
0010
0100
,  // measure 55
1000
0000
0010
0000
0001
0010
1000
0000
,  // measure 56
0010
0000
0100
0000
0001
0010
0100
1000
,  // measure 57
0100
0000
0010
0000
,  // measure 58
0101
0000
0001
0000
,  // measure 59
0010
0000
0100
0000
,  // measure 60
1000
1000
0000
0000
0010
0000
0000
0000
,  // measure 61
0100
0000
0001
0000
,  // measure 62
0011
0000
0010
0000
,  // measure 63
0100
0000
1000
0000
,  // measure 64
0001
0001
0000
0000
0100
0000
0000
0000
,  // measure 65
0010
0000
1000
0000
,  // measure 66
1100
0000
0100
0000
,  // measure 67
0010
0000
0001
0000
,  // measure 68
0100
0100
0000
0000
0010
0000
0000
0000
,  // measure 69
1000
0000
0001
0000
,  // measure 70
0110
0000
0100
0000
,  // measure 71
1000
0000
0010
0000
,  // measure 72
0100
0100
0000
0000
0001
0000
1000
0000
,  // measure 73
0000
0000
0000
0000
,  // measure 74
2002
0000
0000
0000
,  // measure 75
3003
0000
0000
0000
;

//---------------dance-single - Copied from----------------
#NOTES:
     dance-single:
     Copied from:
     Hard:
     8:
     0.497,0.613,0.103,0.017,0.116: // measure 1
0010
1000
0100
1000
0010
0010
0100
0001
,  // measure 2
0010
0100
1000
0100
0010
0010
0001
0100
,  // measure 3
0010
1000
0001
0010
0100
0100
1000
0001
,  // measure 4
0100
0010
1000
0001
0100
0100
0001
0010
,  // measure 5
0001
0100
0010
1000
0001
0001
0010
0100
,  // measure 6
1000
0010
1000
0100
0001
0001
0100
0010
,  // measure 7
1000
0001
0010
0100
1000
1000
0010
0001
,  // measure 8
0100
0000
0010
0000
1000
0000
0001
0000
1000
0000
1000
0000
0000
0010
0000
1000
,  // measure 9
0001
0100
0010
1000
0001
0010
0100
1000
,  // measure 10
0100
0010
0001
1000
0010
0100
0000
0100
,  // measure 11
0010
1000
0001
0010
0100
1000
0100
0010
,  // measure 12
0001
1000
0010
0100
0001
0010
0000
0010
,  // measure 13
0001
0100
0010
1000
0001
0010
0100
1000
,  // measure 14
0100
0010
0001
1000
0010
1000
0000
1000
,  // measure 15
0010
0001
0010
0100
1000
0001
0100
0010
,  // measure 16
1000
0001
0010
0100
1000
0010
0000
0000
,  // measure 17
0000
0010
0000
0010
,  // measure 18
0000
0001
0000
0001
,  // measure 19
0000
0100
0000
0100
,  // measure 20
0000
0010
0000
0010
,  // measure 21
0000
1000
0000
1000
,  // measure 22
0000
0100
0000
0100
,  // measure 23
0000
0010
0000
0010
,  // measure 24
0001
1000
0001
1000
,  // measure 25
0001
0100
0010
1000
0001
0010
0001
0100
,  // measure 26
0010
0000
1000
0000
0001
0000
0010
0000
0100
0000
1000
0000
0001
0100
0001
0000
,  // measure 27
0010
1000
0100
0001
0100
0010
1000
0001
,  // measure 28
0010
0000
0000
0100
0000
0000
1001
0000
1000
0000
0000
0100
0000
0000
0110
0000
,  // measure 29
0001
0010
0100
1000
0010
0100
0001
0100
,  // measure 30
0010
1000
0100
0010
0001
0100
0010
1000
,  // measure 31
0100
0001
0010
0100
1000
0100
0010
0001
,  // measure 32
1000
0010
0100
0001
,  // measure 33
0010
0000
0000
0010
0001
0000
0100
0000
0010
0000
1000
0000
0001
0000
0010
0000
,  // measure 34
0100
1000
0100
0010
0001
1000
0010
0100
,  // measure 35
0001
0000
0000
0001
0010
0000
0100
0000
1000
0000
0010
0000
0100
0000
0001
0000
,  // measure 36
0010
1000
0010
0100
0001
0100
0010
1000
,  // measure 37
0010
0000
0000
0010
0001
0000
0010
0000
0100
0000
1000
0000
0100
0000
0010
0000
,  // measure 38
0001
1000
0010
0100
0001
0100
0010
1000
,  // measure 39
0010
0000
0000
0010
0100
0000
0001
0000
0010
0000
0100
0000
1000
0000
0001
0000
,  // measure 40
0100
0000
0010
0000
1000
0000
0001
0000
0010
0000
0100
0000
1000
0001
1000
0001
,  // measure 41
1000
0000
0000
0000
,  // measure 42
0010
0001
0010
0000
0001
0000
0000
0000
,  // measure 43
0100
0000
0000
0000
,  // measure 44
0000
0000
0000
0000
,  // measure 45
0010
0000
0000
0000
,  // measure 46
1000
0100
1000
0000
0100
0000
0000
0000
,  // measure 47
0010
0000
0000
0000
,  // measure 48
0001
0000
0100
0000
0000
0100
0001
0000
,  // measure 49
0010
0000
0000
0000
0110
0000
0000
0010
0000
1000
0001
0000
0010
0000
0000
0000
,  // measure 50
0100
0000
0000
0000
1001
0000
0000
0001
0000
0100
0010
0000
1000
0000
0100
0000
,  // measure 51
1000
0000
0000
0000
1010
0000
0000
0010
0000
0100
0001
0000
0100
0000
0010
0000
,  // measure 52
1000
0000
0100
0000
1100
0000
0000
1000
0000
0010
0100
0000
0001
0000
0010
0000
,  // measure 53
0001
0000
0100
0000
0001
0000
0000
1000
0000
0010
1000
0000
0010
0000
0100
0000
,  // measure 54
0001
0000
0010
0000
0100
0000
0000
0010
0000
0001
0100
0000
0010
0000
1000
0000
,  // measure 55
0001
0000
0010
0000
0001
0000
0000
0100
0000
0010
1000
0000
0001
0000
0010
0000
,  // measure 56
0100
0000
1000
0000
0100
0000
0000
0010
0000
0001
1000
0000
0010
0000
0100
0000
,  // measure 57
0001
0000
0100
0000
,  // measure 58
0110
0000
0000
0000
0010
0000
1000
0100
,  // measure 59
1000
0000
0010
0000
,  // measure 60
0100
0100
0000
0000
0001
0000
0010
0001
,  // measure 61
0010
0000
0100
0000
,  // measure 62
1100
0000
0000
0000
1000
0000
0010
0100
,  // measure 63
0001
0000
0010
0000
,  // measure 64
1000
1000
0000
0000
0010
0000
0100
0000
,  // measure 65
0101
0000
0001
0000
,  // measure 66
0011
0000
0010
0100
,  // measure 67
1000
0000
0001
0000
,  // measure 68
0010
0010
0000
0000
0100
0000
0000
0000
,  // measure 69
0001
0000
0010
0000
,  // measure 70
0011
0000
0001
0100
,  // measure 71
0010
0000
1000
0000
,  // measure 72
1000
1000
0000
0000
1000
0000
0010
0010
,  // measure 73
0000
0000
0000
0000
,  // measure 74
2002
0000
0000
0000
,  // measure 75
0000
0000
0000
0000
,  // measure 76
3003
0000
0000
0000
;
