#TITLE:Blue Moment;
#SUBTITLE:;
#ARTIST:nixx;
#TITLETRANSLIT:;
#SUBTITLETRANSLIT:;
#ARTISTTRANSLIT:;
#CREDIT:;
#BANNER:;
#BACKGROUND:;
#LYRICSPATH:;
#CDTITLE:;
#MUSIC:Blue Moment.mp3;
#OFFSET:-0.180;
#SAMPLESTART:41.330;
#SAMPLELENGTH:12.000;
#SELECTABLE:YES;
#BPMS:0.000=140.000;
#STOPS:;
#BGCHANGES:0.000=blue_moment_bga.avi=1.000=1=0=1,
236.000=bgblack.PNG=1.000=1=0=1,
99999=-nosongbg-=1.000=0=0=0 // don't automatically add -songbackground-
;

//---------------dance-single - ----------------
#NOTES:
     dance-single:
     :
     Beginner:
     1:
     0.069,0.085,0.000,0.039,0.000:
0000
0000
0000
0000
,
0000
0000
0000
0000
,
0000
0000
0000
0000
,
0000
0000
0000
0000
,
0000
0000
0000
0000
,
0000
0000
0000
0000
,
0000
0000
0000
0000
,
0000
0000
0000
0000
,
1000
0000
0000
0000
,
1000
0000
0000
0000
,
0001
0000
0000
0000
,
0001
0000
0000
0000
,
0100
0000
0000
0000
,
0100
0000
0000
0000
,
0010
0000
0000
0000
,
0010
0000
0000
0000
,
1000
0000
0000
0000
,
0001
0000
0000
0000
,
0100
0000
0000
0000
,
0010
0000
0000
0000
,
0010
0000
0000
0000
,
0100
0000
0000
0000
,
0001
0000
0000
0000
,
1000
0000
0000
0000
,
1000
0000
0000
0000
,
1000
0000
0000
0000
,
0010
0000
0000
0000
,
0010
0000
0000
0000
,
0100
0000
0000
0000
,
0100
0000
0000
0000
,
0001
0000
0000
0000
,
0001
0000
0000
0000
,
1000
0000
0000
0000
,
0100
0000
0000
0000
,
0010
0000
0000
0000
,
0001
0000
0000
0000
,
0001
0000
0000
0000
,
0100
0000
0000
0000
,
0010
0000
0000
0000
,
1000
0000
0000
0000
,
0001
0000
0000
0000
,
0100
0000
0000
0000
,
0001
0000
0000
0000
,
0000
0000
0000
0000
,
1000
0000
0000
0000
,
0010
0000
0000
0000
,
1000
0000
0000
0000
,
0000
0000
0000
0000
,
0001
0000
0000
0000
,
0010
0000
0000
0000
,
0100
0000
0000
0000
,
1000
0000
0000
0000
,
0020
0000
0000
0000
,
0030
0000
0000
0000
,
0200
0000
0000
0000
,
0300
0000
0000
0000
,
0002
0000
0000
0000
,
0003
0000
0000
0000
,
2000
0000
0000
0000
,
3000
0000
0000
0000
;

//---------------dance-single - ----------------
#NOTES:
     dance-single:
     :
     Easy:
     3:
     0.211,0.230,0.000,0.087,0.000: // measure 1
0000
0000
0000
0000
,  // measure 2
0000
0000
0000
0000
,  // measure 3
0000
0000
0000
0000
,  // measure 4
0000
0000
0000
0000
,  // measure 5
0000
1000
0000
1000
,  // measure 6
0000
0001
0000
0001
,  // measure 7
0000
0100
0000
0100
,  // measure 8
0000
0000
0000
0000
,  // measure 9
0010
0000
0010
0000
,  // measure 10
0010
0010
0010
0000
,  // measure 11
1000
0000
1000
0000
,  // measure 12
1000
1000
1000
0000
,  // measure 13
0001
0000
0001
0000
,  // measure 14
0001
0001
0001
0000
,  // measure 15
0100
0000
0100
0000
,  // measure 16
0100
0100
0100
0000
,  // measure 17
0010
0000
1000
0000
,  // measure 18
0100
0010
0001
0000
,  // measure 19
0010
0000
0100
0000
,  // measure 20
1000
0001
0100
0000
,  // measure 21
0010
0000
1000
0000
,  // measure 22
0010
0100
0001
0000
,  // measure 23
0010
0000
0100
0000
,  // measure 24
2000
0000
3000
0000
,  // measure 25
0001
1000
0001
1000
,  // measure 26
0010
0100
0010
0000
,  // measure 27
0100
0010
0100
0001
,  // measure 28
1000
0001
1000
0000
,  // measure 29
0001
0010
0001
1000
,  // measure 30
0100
1000
0100
0000
,  // measure 31
1000
0100
1000
0001
,  // measure 32
0010
0001
0010
0000
,  // measure 33
0001
0100
0001
0100
,  // measure 34
0010
1000
0010
0000
,  // measure 35
0010
1000
0010
1000
,  // measure 36
0001
0100
0001
0000
,  // measure 37
0010
0001
0100
0010
,  // measure 38
1000
0100
0010
0000
,  // measure 39
0100
1000
0010
0100
,  // measure 40
0001
0010
0100
0000
,  // measure 41
0010
0000
0001
0000
,  // measure 42
0010
0000
0001
0000
,  // measure 43
1000
0000
0100
0000
,  // measure 44
1000
0000
0100
0000
,  // measure 45
0010
0001
0010
0001
,  // measure 46
0010
0010
0001
0000
,  // measure 47
1000
0100
1000
0100
,  // measure 48
1000
1000
0100
0000
,  // measure 49
0001
0100
0001
0100
,  // measure 50
0001
0001
0100
0000
,  // measure 51
0010
1000
0010
1000
,  // measure 52
0010
0010
1000
0000
,  // measure 53
0020
0000
0000
0000
,  // measure 54
2030
0000
0000
0000
,  // measure 55
3002
0000
0000
0000
,  // measure 56
0203
0000
0000
0000
,  // measure 57
0320
0000
0000
0000
,  // measure 58
0230
0000
0000
0000
,  // measure 59
0302
0000
0000
0000
,  // measure 60
2003
0000
0000
3000
;

//---------------dance-single - ----------------
#NOTES:
     dance-single:
     :
     Medium:
     6:
     0.373,0.376,0.000,0.173,0.000:
0000
0000
0000
0000
,
0000
0000
0000
0000
,
0000
0000
0000
0000
,
0000
0000
0000
0000
,
0001
0000
0100
0001
0000
0000
0100
0000
,
0010
0000
1000
0100
0000
0000
0100
0000
,
1000
0000
0010
1000
0000
0000
0010
0000
,
0200
0000
0000
0000
,
0301
0000
0010
0001
0000
0000
0010
0000
,
0100
0000
1000
0010
0000
0000
1000
0000
,
0010
0000
0100
0001
0000
0000
0010
0000
,
0001
0000
0100
0010
0000
0010
0100
0000
,
0001
0000
0010
0001
0000
0001
0010
0000
,
0100
0000
1000
0100
0000
0100
1000
0000
,
0010
0000
1000
0010
0000
0010
1000
0000
,
0001
0100
0010
1000
,
0001
0000
0010
0000
1000
0010
0001
0000
,
0100
0000
1000
0000
0100
0001
0100
0000
,
0010
0000
1000
0000
0001
0010
0100
0000
,
1000
0000
0100
0000
0010
0001
1000
0000
,
0010
0000
0100
0000
0001
0100
0010
0000
,
1000
0000
0100
0000
0010
0100
1000
0000
,
0001
0000
0100
0000
0010
1000
0001
0000
,
0020
0000
0000
0030
,
0001
0000
0100
0000
0010
1000
0010
1000
,
0010
0000
0100
0000
0001
0100
0001
0100
,
0001
0000
0010
0000
0001
0010
0001
0010
,
0001
0000
1000
0000
0100
1000
0100
1000
,
0100
0000
0010
0000
0001
0100
0010
1000
,
0001
0000
0010
0000
0100
1000
0100
0010
,
0001
0000
1000
0000
0010
0100
0001
1000
,
0100
0000
0010
0000
0100
1000
0001
0100
,
0010
0000
1000
0000
0100
1000
0100
1000
,
0100
0000
0010
0000
0001
0010
0001
0010
,
0001
0000
0100
0000
0001
0100
0001
0100
,
0001
0000
0100
0000
0010
1000
0010
1000
,
0010
0000
1000
0000
0001
0010
0100
1000
,
0010
0000
0100
0000
0001
0100
0010
1000
,
0001
0000
0010
0000
0100
1000
0010
0100
,
0001
0000
0010
0000
0001
0100
0010
1000
,
0001
0100
0000
0100
,
0001
0010
0000
0010
,
0100
1000
0000
1000
,
0010
0100
0000
0100
,
1000
0000
0010
0000
0100
0001
0010
0000
,
0001
0000
0100
0000
0010
1000
0001
0000
,
0010
0000
0100
0000
1000
0010
0100
0000
,
0001
0000
0010
0000
0100
1000
0001
0000
,
0100
0000
0010
0000
1000
0001
0010
0001
,
1000
0000
0010
0000
0100
0001
1000
0010
,
0100
0000
0010
0000
1000
0001
0010
0100
,
1000
0000
0100
0000
0010
0001
1000
0010
,
0200
0000
0320
0000
,
2030
0000
3002
0000
,
2003
0000
3020
0000
,
0230
0000
0302
0000
,
0023
0000
0032
0000
,
0203
0000
0320
0000
,
2030
0000
3020
0000
,
0230
0000
0302
0000
,
0003
0000
0000
0000
;

//---------------dance-single - ----------------
#NOTES:
     dance-single:
     :
     Hard:
     7:
     0.485,0.491,0.000,0.173,0.034:
0000
0000
0000
0000
,
0000
0000
0000
0000
,
0000
0000
0000
0000
,
0000
0000
0000
0000
,
1000
0000
0000
1000
0010
0000
0100
0000
0000
0000
0100
0000
0001
0000
0000
0000
,
0010
0000
0000
0010
0001
0000
0100
0000
0000
0000
0100
0000
0010
0000
0000
0000
,
1000
0000
0000
1000
0001
0000
0100
0000
0000
0000
0100
0000
0010
0000
0000
0000
,
2000
0000
0000
3000
,
0001
0000
0100
0000
0010
1000
0010
0100
,
0001
0000
0010
0000
0100
1000
0100
0010
,
0001
0000
1000
0000
0010
0100
0001
0100
,
0010
0000
1000
0000
0001
0010
0001
0100
,
0010
0000
1000
0000
0001
0010
0001
0100
,
0010
0000
1000
0000
0100
0010
0100
1000
,
0001
0000
0100
0000
0010
1000
0001
0010
,
0001
0000
0100
0000
0010
1000
0001
0010
,
0100
0000
0000
0100
1000
0000
0010
0000
0100
0001
0000
0000
0010
0000
0001
0000
,
0010
0100
1000
0010
0100
0001
0010
0000
,
0010
0001
1000
0010
0100
0001
0010
0000
,
0010
0001
0100
1000
0010
0100
0001
0000
,
0100
0010
1000
0001
0010
0100
0010
0000
,
0001
0100
0010
1000
0010
0100
0001
0000
,
0010
0001
1000
0010
0100
0001
0010
0010
,
0020
0000
0000
0030
,
0001
0010
0001
0010
0100
1000
0100
1000
,
0010
1000
0010
1000
0001
0100
0001
0100
,
0001
0010
0100
1000
0100
0010
0001
1000
,
0010
0100
0001
0100
0010
1000
1000
0010
,
0100
0001
0100
0001
0010
0001
0010
0001
,
1000
0100
1000
0100
1000
0010
1000
0010
,
1000
0001
0010
0100
1000
0100
0100
0010
,
0001
1000
0010
0100
0001
0100
0100
0010
,
1000
0000
0000
0010
0100
0000
0001
0000
0100
0010
0000
0000
1000
0000
0001
0000
,
0100
0010
1000
0001
0010
0100
1000
0000
,
0100
0010
0001
1000
0010
0100
0001
0100
,
0010
1000
0001
0010
0100
1000
0100
0000
,
0010
0001
1000
0010
0100
0001
0010
0001
,
0100
0010
1000
0001
0010
0100
1000
0000
,
0100
0010
0001
1000
0010
1000
0001
0010
,
0100
1000
0100
0010
0001
1000
0010
0000
,
1000
0001
0000
0001
,
1000
0010
0000
0010
,
0100
0001
0000
0001
,
0100
0010
0000
0010
,
1000
0001
1000
0001
0100
0010
0100
0010
,
1000
0100
1000
0100
0010
0001
0010
0001
,
0100
0010
1000
0001
0010
0100
1000
0100
,
0010
0001
1000
0010
0100
0001
0100
0000
,
0010
1000
0010
1000
0001
0100
0001
0100
,
1000
0100
1000
0100
0001
0010
0001
0010
,
0100
1000
0010
0100
0001
0100
0010
1000
,
0001
0100
0010
1000
0001
0010
0100
1000
,
0020
0000
0230
0000
,
0302
0000
2003
0000
,
3002
0000
0023
0000
,
0230
0000
2300
0000
,
3020
0000
2030
0000
,
3002
0000
0023
0000
,
0230
0000
0320
0000
,
0032
0000
2000
0000
,
3003
0000
0000
0000
;
