#TITLE:BLAST;
#SUBTITLE:;
#ARTIST:syzfonics;
#TITLETRANSLIT:;
#SUBTITLETRANSLIT:;
#ARTISTTRANSLIT:;
#CREDIT:;
#BANNER:;
#BACKGROUND:;
#LYRICSPATH:;
#CDTITLE:;
#MUSIC:BLAST!!.mp3;
#OFFSET:-1.400;
#SAMPLESTART:57.670;
#SAMPLELENGTH:12.000;
#SELECTABLE:YES;
#BPMS:0.000=175.000;
#STOPS:;
#BGCHANGES:;

//---------------dance-single - ----------------
#NOTES:
     dance-single:
     :
     Beginner:
     1:
     0.130,0.166,0.061,0.000,0.000:
1000
0000
1000
0000
,
1000
0000
1000
0000
,
0001
0000
0001
0000
,
0001
0000
0001
0000
,
0100
0000
0100
0000
,
0100
0000
0100
0000
,
0010
0000
0010
0000
,
0010
0000
0010
0000
,
1000
0000
0100
0000
,
1000
0000
0000
0000
,
0001
0000
0010
0000
,
0001
0000
0000
0000
,
0100
0000
0010
0000
,
0100
0000
0000
0000
,
0001
0000
1000
0000
,
0001
0000
0000
0000
,
1001
0000
0000
0000
,
0010
0000
0000
0000
,
0110
0000
0000
0000
,
0100
0000
0000
0000
,
1001
0000
0000
0000
,
0100
0000
0000
0000
,
0110
0000
0000
0000
,
0010
0000
0000
0000
,
1001
0000
0000
0000
,
0000
0000
0000
0000
,
0000
0000
0000
0000
,
0000
0000
0000
0000
,
0000
0000
0000
0000
,
0000
0000
0000
0000
,
0000
0000
0000
0000
,
0000
0000
0000
0000
,
0001
0000
0000
0000
,
0001
0000
0000
0000
,
0100
0000
0000
0000
,
0100
0000
0000
0000
,
0010
0000
0000
0000
,
0010
0000
0000
0000
,
1000
0000
0000
0000
,
1000
0000
0000
0000
,
0001
0000
0000
0000
,
0001
0000
0001
0000
,
0001
0000
0000
0000
,
0100
0000
0100
0000
,
0100
0000
0000
0000
,
0010
0000
0010
0000
,
0010
0000
0000
0000
,
1000
0000
1000
0000
,
1000
0000
0000
0000
,
0001
0000
1000
0000
,
0001
0000
0000
0000
,
0100
0000
0010
0000
,
0100
0000
0000
0000
,
0001
0000
0010
0000
,
0001
0000
0000
0000
,
1000
0000
0100
0000
,
1000
0000
0000
0000
,
0010
0000
0000
0000
,
0100
0000
0000
0000
,
0001
0000
0000
0000
,
1000
0000
0000
0000
,
0010
0000
0010
0000
,
0100
0000
0100
0000
,
0001
0000
1000
0000
,
0001
0000
1000
0000
,
1001
0000
0000
0000
;

//---------------dance-single - ----------------
#NOTES:
     dance-single:
     :
     Easy:
     4:
     0.233,0.300,0.183,0.041,0.000:
1000
0000
1000
0000
,
1000
0000
0010
0000
,
0100
0000
0100
0000
,
0100
0000
0001
0000
,
0010
0000
0001
0000
,
0010
0000
0001
0000
,
1000
0000
0100
0000
,
1000
0000
0100
0000
,
1000
0000
0010
0000
,
0100
0000
0001
1001
,
1000
0000
0010
0000
,
0100
0000
0001
0011
,
0010
0000
0100
0000
,
1000
0000
0010
0110
,
0100
0000
0001
0000
,
0010
0000
0100
0000
,
1000
0000
0001
0000
,
0100
0000
0110
0000
,
0010
0000
1000
0000
,
0001
0000
1001
0000
,
0001
0000
0100
0000
,
0010
0000
1010
0000
,
1000
0000
0100
0000
,
0010
0000
0011
0000
,
2002
0000
0000
0000
,
0000
0000
0000
0000
,
0000
0000
0000
0000
,
0000
0000
0000
0000
,
0000
0000
0000
0000
,
0000
0000
0000
0000
,
0000
0000
0000
0000
,
3003
0000
0000
0000
,
1000
0000
0000
0000
,
0010
0000
0000
0000
,
0100
0000
0000
0000
,
0001
0000
0000
0000
,
0010
0000
0000
0000
,
1000
0000
0000
0000
,
0100
0000
0000
0000
,
0001
0000
0000
0000
,
1001
0000
0000
0000
,
1000
1000
1000
1000
,
1000
1000
1000
0000
,
0010
0010
0010
0010
,
0010
0010
0010
0000
,
0100
0100
0100
0100
,
0100
0100
0100
0000
,
0001
0001
0001
0001
,
0001
0001
0001
0000
,
1000
0010
1000
0010
,
0100
0001
0100
0001
,
0010
0001
0010
0001
,
1000
0100
1000
0100
,
1000
0010
0100
0001
,
0010
0100
1000
0100
,
0010
0001
0100
0010
,
1000
0001
0010
0100
,
1000
0000
1001
0000
,
0001
0000
1001
0000
,
0010
0000
0110
0000
,
0100
0000
0110
0000
,
1000
0000
1100
0000
,
0100
0000
1100
0000
,
0001
0000
0011
0000
,
0010
0000
0011
0000
,
2002
0000
3003
0000
;

//---------------dance-single - ----------------
#NOTES:
     dance-single:
     :
     Medium:
     7:
     0.482,0.504,0.224,0.031,0.540:
1000
0000
1000
0010
0000
0000
0100
0000
0000
0001
0000
0000
,
0010
0000
0010
0001
0000
0000
0100
0000
0000
0010
0000
0000
,
1000
0000
1000
0100
0000
0000
0010
0000
0000
0001
0000
0000
,
0100
0000
0100
0010
0000
0010
1000
0000
1000
0001
0000
0001
,
0100
0000
0100
0001
0000
0000
0010
0000
0000
0001
0000
0000
,
0100
0000
0100
0010
0000
0000
1000
0000
0000
0001
0000
0000
,
0100
0000
0100
0010
0000
0000
1000
0000
0000
0100
0000
0000
,
0010
0000
0010
0001
0000
0001
0100
0000
0100
0010
0000
0010
,
1000
0100
0010
0001
,
0100
0000
0000
0010
0000
1000
0100
0000
0010
0001
0000
1000
,
0010
0100
0001
0010
,
0100
0000
0000
1000
0000
0100
0010
0000
0001
0100
0000
0010
,
1000
0001
0010
0100
,
1000
0000
0000
0001
0000
0100
0010
0000
1000
0001
0000
0010
,
0100
0000
0000
1000
0000
0001
0100
0000
0010
1000
0000
0001
,
0010
0000
0000
0100
0000
1000
0001
0000
0100
0010
0000
1000
,
0001
0100
0110
0010
,
1010
1000
1100
0100
,
0110
0010
0011
0001
,
0101
1000
1100
1000
,
0101
0001
0011
0010
,
0110
0100
1100
1000
,
1010
0010
0110
0100
,
0001
0000
0001
0010
0000
0010
0100
0000
0100
1000
0000
1000
,
0002
0000
0000
0000
,
0000
0000
0000
0000
,
0000
0000
0000
0000
,
0000
0000
0000
0000
,
0000
0000
0000
0000
,
0000
0000
0000
0000
,
0000
0000
0000
0000
,
0003
0000
0000
0000
,
0100
0000
0000
0010
0000
0000
1000
0000
0001
0000
0010
0000
,
0100
0000
0000
1000
0000
0000
0100
0000
0010
0000
0001
0000
,
1000
0000
0000
0010
0000
0000
0100
0000
0001
0000
0100
0000
,
0010
0000
0000
1000
0000
0000
0100
0000
0010
0000
0001
0000
,
1000
0000
0000
0010
0000
0000
0100
0000
0001
0000
0100
0000
,
0010
0000
0000
1000
0000
0000
0100
0000
0010
0000
0001
0000
,
1000
0000
0000
0010
0000
0000
0100
0000
0001
0000
1000
0000
,
0010
0000
0000
0100
0000
0000
0001
0000
0010
0000
0100
0000
,
1000
0000
0002
0000
,
1003
0000
0100
0010
0000
0000
0001
0000
0100
0000
0010
0000
,
1000
0000
1000
0010
0000
0000
0100
0000
0001
0000
0010
0000
,
0100
0000
0100
1000
0000
0000
0010
0000
0100
0000
0001
0000
,
0100
0000
0100
0010
0000
0000
1000
0000
0001
0000
0010
0000
,
0100
0000
1000
0100
0000
0000
0010
0000
0001
0000
0100
0000
,
0010
0000
1000
0010
0000
0000
0100
0000
0001
0000
0010
0000
,
0100
0000
1000
0100
0000
0000
0010
0000
0001
0000
1000
0000
,
0010
0000
0100
0001
0000
0000
0100
0000
0010
0000
1000
0000
,
0001
0000
0001
0100
0000
0000
0010
0000
1000
0000
0100
0000
,
0010
0000
0010
0001
0000
0001
0100
0000
0100
0010
0000
0010
,
1000
0000
1000
0100
0000
0000
0010
0000
0001
0000
0100
0000
,
0010
0000
0010
1000
0000
1000
0100
0000
0100
0010
0000
0010
,
0001
0000
0001
0100
0000
0000
0010
0000
1000
0000
0100
0000
,
0010
0000
0010
0001
0000
0001
0100
0000
0100
0010
0000
0010
,
1000
0000
1000
0100
0000
0000
0010
0000
0001
0000
0100
0000
,
0010
0000
1000
0001
0000
0010
0100
0000
1000
0100
0000
0010
,
0001
0000
0101
0000
,
1000
0000
1010
0000
,
0010
0000
0110
0000
,
0001
0000
1001
0000
,
0001
0100
0110
0010
,
1010
1000
1100
0100
,
0110
0010
0011
0001
,
0001
0000
0001
0100
0000
0100
0010
0000
0010
1000
0100
0010
,
0002
0000
0000
0000
,
0003
0000
0000
0000
;

//---------------dance-single - ----------------
#NOTES:
     dance-single:
     :
     Hard:
     9:
     0.607,0.673,0.000,0.041,1.000: // measure 1
0010
0000
0010
1000
0000
1000
0100
0000
0100
0010
0000
0010
,  // measure 2
0001
0000
0001
0010
0000
0010
0100
0000
0100
1000
0000
1000
,  // measure 3
0001
0000
0001
0100
0000
0100
0010
0000
0010
1000
0000
1000
,  // measure 4
0001
0100
0001
0100
0000
0100
0010
1000
0010
1000
0000
1000
,  // measure 5
0001
0000
0001
0010
0000
0010
0100
0000
0100
1000
0000
1000
,  // measure 6
0010
0000
0010
0100
0000
0100
0001
0000
0001
0010
0000
0010
,  // measure 7
0001
0000
0001
0100
0000
0100
0010
0000
0010
1000
0000
1000
,  // measure 8
0001
0010
0001
0010
0000
0010
0100
1000
0100
1000
0000
1000
,  // measure 9
0010
0000
0010
1000
0000
1000
0001
0000
0000
0010
0000
0000
,  // measure 10
0001
0000
0001
0100
0000
0010
1000
0000
0001
0010
0000
0100
,  // measure 11
1000
0000
1000
0010
0000
0010
0100
0000
0000
0001
0000
0000
,  // measure 12
0010
0000
0010
0001
0000
0100
0010
0000
1000
0010
0000
0100
,  // measure 13
0001
0000
0001
0010
0000
0010
0001
0000
0000
0100
0000
0000
,  // measure 14
0010
0000
0010
1000
0000
0001
0010
0000
0100
1000
0000
0010
,  // measure 15
0100
0000
0100
0001
0000
0010
0100
0000
1000
0010
0000
0100
,  // measure 16
0001
0000
0001
0010
0000
0010
0001
0000
0100
0010
0000
1000
,  // measure 17
0001
0000
0001
0100
0000
0000
0010
0000
0010
1000
0000
0000
,  // measure 18
1000
0000
1000
0100
0000
0000
0100
0000
0100
0010
0000
0000
,  // measure 19
0010
0000
0010
0001
0000
0000
0001
0000
0001
0100
0000
0000
,  // measure 20
0100
0000
0100
0010
0000
0000
0010
0000
0010
1000
0000
0000
,  // measure 21
0010
0000
0100
0001
0000
0000
0010
0000
0100
1000
0000
0000
,  // measure 22
0100
0000
0010
0001
0000
0000
1000
0000
0010
0100
0000
0000
,  // measure 23
0001
0000
0010
0100
0000
0000
1000
0000
0100
0010
0000
0010
,  // measure 24
0001
1000
0001
0100
0010
0100
0010
1000
0001
0100
0010
0001
,  // measure 25
2000
0000
0000
0000
,  // measure 26
0000
0000
0000
0000
,  // measure 27
0000
0000
0000
0000
,  // measure 28
0000
0000
0000
0000
,  // measure 29
0000
0000
0000
0000
,  // measure 30
0000
0000
0000
0000
,  // measure 31
0000
0000
0000
0000
,  // measure 32
0000
0000
0000
3000
,  // measure 33
0001
0000
0000
0100
0000
0000
0010
0000
1000
0000
0010
0000
,  // measure 34
0100
0000
0000
0001
0000
0000
0010
0000
0100
0000
1000
0000
,  // measure 35
0100
0000
0000
0010
0000
0000
0001
0000
1000
0000
0010
0000
,  // measure 36
0100
0000
0000
0001
0000
0000
0010
0000
0001
0000
0100
0000
,  // measure 37
0010
0000
0000
1000
0000
0100
0000
1000
0000
0001
0000
0000
,  // measure 38
0100
0000
0000
0010
0000
1000
0000
0001
0000
0010
0000
0000
,  // measure 39
0001
0000
0000
0100
0000
0010
0000
1000
0000
0001
0000
0000
,  // measure 40
0010
0000
0000
0100
0000
1000
0000
0001
0000
0100
0010
1000
,  // measure 41
0002
0000
2000
3003
,  // measure 42
0001
0100
0010
1000
0010
0100
0001
0000
0100
0000
0010
0000
,  // measure 43
1000
0100
0010
0100
1000
0001
0100
0000
0010
0000
1000
0000
,  // measure 44
0001
0010
0001
0100
0010
1000
0001
0000
0010
0000
0100
0000
,  // measure 45
1000
0100
0010
0001
1000
0010
0100
0000
0010
0000
1000
0000
,  // measure 46
0001
0010
0001
0100
0010
1000
0001
0000
0010
0000
0100
0000
,  // measure 47
1000
0100
0010
0001
1000
0010
0100
0000
0010
0000
1000
0000
,  // measure 48
0001
0010
0001
0100
0010
1000
0001
0000
0010
0000
0100
0000
,  // measure 49
1000
0100
0010
0001
1000
0010
0100
0000
0001
0000
0100
0000
,  // measure 50
0010
0000
0010
1000
0000
1000
0100
0000
0100
0010
0000
0010
,  // measure 51
0001
0000
0001
0100
0000
0100
0010
0000
1000
0000
0001
0000
,  // measure 52
0010
0000
0010
0001
0000
0001
0100
0000
0100
0010
0000
0010
,  // measure 53
1000
0000
1000
0100
0000
0100
1000
0000
0010
0000
0100
0000
,  // measure 54
0001
0000
0001
0100
0000
0100
0010
0000
0010
1000
0000
1000
,  // measure 55
0001
0000
0001
0010
0000
0010
0100
0000
1000
0000
0001
0000
,  // measure 56
0100
0000
0100
0010
0000
0010
1000
0000
1000
0001
0000
0001
,  // measure 57
0010
0000
0010
0100
0000
0100
1000
0000
0001
0000
0100
0000
,  // measure 58
0010
0000
0010
1000
0000
0000
1000
0000
1000
0100
0000
0000
,  // measure 59
0100
0000
0100
0010
0000
0000
0010
0000
0010
0001
0000
0000
,  // measure 60
0001
0000
0001
0100
0000
0000
0100
0000
0100
0010
0000
0000
,  // measure 61
0010
0000
0010
1000
0000
0000
1000
0000
1000
0001
0000
0000
,  // measure 62
0100
0000
0010
0100
0000
0000
1000
0000
0001
1000
0000
0000
,  // measure 63
0001
0000
0010
0001
0000
0000
1000
0000
0010
1000
0000
0000
,  // measure 64
0001
0000
0100
0001
0000
0000
1000
0000
0100
1000
0000
0000
,  // measure 65
0001
0010
0100
1000
0100
0010
0001
1000
0010
0100
0001
0100
,  // measure 66
0020
0000
0000
0000
,  // measure 67
0030
0000
0000
0000
;
