#TITLE:Acque Minerali;
#SUBTITLE:;
#ARTIST:naotyu-;
#TITLETRANSLIT:;
#SUBTITLETRANSLIT:;
#ARTISTTRANSLIT:;
#CREDIT:;
#BANNER:;
#BACKGROUND:bgblack.PNG;
#LYRICSPATH:;
#CDTITLE:;
#MUSIC:naotyu - Acque Minerali.mp3;
#OFFSET:-5.060;
#SAMPLESTART:16.240;
#SAMPLELENGTH:12.000;
#SELECTABLE:YES;
#BPMS:0.000=172.000;
#STOPS:;
#BGCHANGES:;

//---------------dance-single - ----------------
#NOTES:
     dance-single:
     :
     Beginner:
     1:
     0.104,0.159,0.000,0.000,0.000:
0000
1000
0000
1000
,
0000
0001
0000
0001
,
0000
0100
0000
0100
,
0000
0010
0000
0010
,
0000
1000
0000
1000
,
0000
0001
0000
0001
,
0000
1000
0000
1000
,
0000
0001
0000
0001
,
0001
0000
0000
0000
,
0100
0000
0000
0000
,
0010
0000
0000
0000
,
1000
0000
0000
0000
,
0010
0000
0000
0000
,
0100
0000
0000
0000
,
0001
0000
0000
0000
,
0010
0000
0000
0000
,
0100
0000
0000
0000
,
1000
0000
0000
0000
,
0010
0000
0000
0000
,
0100
0000
0000
0000
,
0001
0000
0000
0000
,
0010
0000
0000
0000
,
0100
0000
0000
0000
,
1000
0000
0000
0000
,
0010
0000
0000
0000
,
0010
0000
0000
0000
,
0100
0000
0000
0000
,
0100
0000
0000
0000
,
0001
0000
0000
0000
,
1000
0000
0000
0000
,
0001
0000
0000
0000
,
1000
0000
0000
0000
,
0010
0000
0000
0000
,
0100
0000
0000
0000
,
0010
0000
0000
0000
,
0100
0000
0000
0000
,
0001
0000
0000
0000
,
0001
0000
0000
0000
,
1000
0000
0000
0000
,
1000
0000
0000
0000
,
1000
0000
0000
0000
,
0010
0000
0000
0000
,
0100
0000
0000
0000
,
0001
0000
0000
0000
,
0001
0000
0001
0000
,
0000
0000
0010
0000
,
0000
0000
0100
0000
,
0000
0000
1000
0000
,
0000
0000
0010
0000
,
0000
0000
0100
0000
,
0000
0000
0001
0000
,
0000
0000
1000
0000
,
0000
0000
0010
0000
,
0000
0000
0010
0000
,
0000
0000
0100
0000
,
0000
0000
0100
0000
,
0000
0000
0001
0000
,
0000
0000
0001
0000
,
0000
0000
1000
0000
,
0000
0000
1000
0000
,
0000
0000
0010
0000
,
0000
0000
0010
0000
,
0000
0000
0100
0000
,
0000
0000
0100
0000
,
0000
0000
0001
0000
,
0000
0000
0001
0000
,
0000
0000
1000
0000
,
0000
0000
1000
0000
,
0000
0000
0010
0000
;

//---------------dance-single - ----------------
#NOTES:
     dance-single:
     :
     Easy:
     3:
     0.198,0.223,0.000,0.000,0.000:
0000
1000
0000
1000
,
0000
0001
0000
0001
,
0000
0100
0000
0100
,
0000
0010
0000
0010
,
0000
1000
0000
0100
,
0000
0010
0000
0001
,
0000
0001
0000
0010
,
0000
0100
0000
1000
,
1000
0000
0010
0000
,
0100
0000
0001
0010
,
0001
0000
0010
0000
,
0100
0000
1000
0010
,
1000
0000
0001
0000
,
0100
0000
0010
1000
,
0001
0000
0010
0000
,
0100
0000
0100
0010
,
0001
0000
0100
0000
,
0010
0000
1000
0001
,
1000
0000
0010
0000
,
0100
0000
0001
0010
,
0001
0000
0100
0000
,
0010
0000
1000
0100
,
1000
0000
0010
0000
,
0100
0000
0001
0000
,
0010
0000
0010
0000
,
0001
0000
0001
0000
,
0100
0000
0100
0000
,
0010
0000
0010
0000
,
1000
0000
0000
0000
,
0100
0000
0100
0000
,
0010
0000
0000
0000
,
0010
0000
0001
0000
,
0001
0000
0000
0000
,
0100
0000
0010
0000
,
0010
0000
0000
0000
,
1000
0000
1000
0000
,
1000
0000
0100
0000
,
1000
0000
0010
0000
,
0100
0000
0001
0000
,
0010
0000
0001
0000
,
0100
0000
0010
0000
,
1000
0000
0001
0000
,
0010
0000
0100
0000
,
0010
0000
0001
0000
,
1000
0000
0000
0000
,
0000
0000
0010
0000
,
0100
0000
0010
0000
,
1000
0000
0001
0010
,
0001
0000
0100
0000
,
0010
0000
1000
0100
,
1000
0000
0010
0000
,
0100
0000
0001
0010
,
0001
0000
0010
0000
,
0100
0000
0010
0000
,
1000
0000
0010
0000
,
0100
0000
0010
0000
,
0001
0000
0010
0000
,
0100
0000
1000
0000
,
0100
0000
0001
0000
,
0100
0000
0010
1000
,
0100
0001
0010
0000
,
0001
0000
0010
0000
,
0100
1000
0100
0000
,
1000
0000
0010
0000
,
1000
0010
1000
0000
,
0100
1000
0001
0000
,
0100
0010
0100
0000
,
0001
0000
0010
0000
,
0100
1000
0010
0000
;

//---------------dance-single - ----------------
#NOTES:
     dance-single:
     :
     Medium:
     5:
     0.352,0.414,0.009,0.009,0.000:
1000
0000
0100
0000
0000
0100
1000
0000
,
0001
0000
0010
0000
0000
0010
0001
0000
,
0100
0000
0010
0000
0000
0010
0100
0000
,
0001
0000
1000
0000
0000
1000
0001
0000
,
1000
0000
0010
0000
0000
0100
0001
0000
,
0010
0000
0001
0000
0000
0100
0010
0000
,
1000
0000
0100
0000
0000
0010
0100
0000
,
1000
0000
0001
0000
0000
0100
0010
0000
,
0100
0000
0001
0010
0000
0001
0000
0100
,
0000
0010
0000
1000
0100
0000
1000
0000
,
0001
0000
0100
0010
0000
0100
0000
0001
,
0000
0010
0001
0100
,
0010
0000
1000
0100
0000
1000
0000
0001
,
0000
0100
0000
0000
0010
0000
0100
0000
,
0001
0000
0000
0010
0000
0000
0100
0000
,
1000
0000
0001
0000
0100
0010
0100
0000
,
0001
0000
0000
0010
0000
0001
0000
0100
,
0000
0010
0000
0000
1000
0000
0100
0000
,
1000
0000
0001
0100
0000
0000
0001
0000
,
0010
0000
0001
0000
0000
0001
0100
0000
,
0010
0000
1000
0100
0000
1000
0000
0001
,
0000
0100
0000
0000
0010
0000
0100
0000
,
0001
0000
1000
0000
0000
0100
0010
0000
,
0100
0000
1000
0000
0000
0001
1000
0000
,
0001
0000
0100
0000
0001
0100
0001
0000
,
1000
0000
0010
0000
1000
0010
1000
0000
,
0010
0000
0100
0000
0010
0100
0010
0000
,
1000
0000
0001
1000
0001
1000
0001
1000
,
0001
0000
0000
0100
0000
0000
0010
0000
,
0000
1000
0100
1000
,
0001
0000
0000
0100
0000
0000
0010
0000
,
0000
0100
0001
0000
,
0100
0000
0000
0001
0000
0000
0010
0000
,
0000
0000
0100
1000
,
0001
0000
0000
0100
0000
0000
0010
0000
,
0000
0100
0000
0001
,
0010
0000
0000
0001
0000
0000
0100
0000
,
0010
0000
1000
0000
0000
1000
0100
1000
,
0100
0000
0000
0001
0000
0000
0100
0000
,
0001
0000
0010
0000
0000
0010
0001
0000
,
0100
0000
0010
0000
0000
0010
0100
0000
,
0001
0000
1000
0000
0000
1000
0001
0000
,
0100
0000
0010
0100
0000
0100
0010
0000
,
1000
0000
0001
0000
0000
0100
0010
0000
,
2000
0000
0000
0000
3001
0000
0100
0001
,
0000
0001
0100
0000
0010
0000
1000
0000
,
0000
0100
1000
0010
0100
0000
0001
0010
,
0000
0010
0001
0000
0100
0000
0010
0000
,
0000
0100
0001
0000
0010
0000
0001
1000
,
0000
1000
0001
0000
0100
0000
0010
0000
,
0000
0010
0100
0000
0001
0000
1000
0100
,
0000
0100
1000
0000
0010
0000
0100
0000
,
0001
0000
0010
0000
0001
0000
0100
0001
,
0000
0001
0100
0000
0010
0000
0000
0000
,
1000
0000
0000
0000
0100
0000
1000
0010
,
0000
0010
1000
0000
0010
0000
0100
0000
,
0001
0000
0010
0000
0001
0000
0100
0001
,
0000
0001
0100
0000
0001
0000
0010
0000
,
0000
0000
0010
0000
0001
0000
0100
0010
,
0000
0010
0100
0000
0010
0000
1000
0000
,
0100
0010
0001
0000
,
1000
0000
0001
0000
,
1000
0000
0010
0000
,
0100
0000
0010
0000
,
0100
0000
0000
0000
0001
0000
0000
0100
,
0000
0001
0000
0010
0000
0000
0000
0000
,
0100
0000
1000
0000
0001
0000
0000
0100
,
0000
0000
0010
0100
,
0001
0010
1001
0000
;

//---------------dance-single - ----------------
#NOTES:
     dance-single:
     :
     Hard:
     7:
     0.479,0.420,0.019,0.028,0.019: // measure 1
1000
0000
0010
0000
0000
0010
1000
0000
,  // measure 2
0001
0010
0001
0000
0000
0100
0001
0000
,  // measure 3
0010
0000
0100
0000
0000
1000
0100
0000
,  // measure 4
0010
0001
0100
0000
0000
0010
1000
0000
,  // measure 5
0010
0000
0000
0000
0100
0000
0000
0001
0000
0000
0000
0000
0010
0000
0001
0000
,  // measure 6
0100
0000
0000
0000
0010
0000
0000
1000
0000
0000
0000
0000
0100
0000
1000
0000
,  // measure 7
0001
0000
0000
0000
0100
0000
0000
0010
0000
0000
0000
0000
1000
0000
0100
0000
,  // measure 8
1000
0000
0001
0000
0100
0000
0000
0010
0000
0000
0000
0000
1001
0000
0000
0000
,  // measure 9
1000
0000
0001
0100
0000
0100
0001
0000
,  // measure 10
0010
0001
0100
0010
0000
0010
1000
0000
,  // measure 11
0001
0000
0010
0001
0000
0001
0010
0000
,  // measure 12
0100
1000
0001
0100
0000
0100
0001
0000
,  // measure 13
0010
0000
0100
1000
0000
1000
0001
0000
,  // measure 14
0100
0010
0100
0001
0000
0001
0010
0001
,  // measure 15
0000
0100
0010
0000
1000
0100
1000
0000
,  // measure 16
0010
0100
0010
0100
0000
0100
0010
0000
,  // measure 17
1000
0000
0001
1000
0000
1000
0001
0000
,  // measure 18
0010
0001
0010
0001
0000
0001
0100
0000
,  // measure 19
0010
0000
1000
0100
0000
0100
1000
0000
,  // measure 20
0001
0010
0001
0010
0000
0010
0100
0000
,  // measure 21
1000
0000
0010
0100
0000
0100
0010
0000
,  // measure 22
1000
0100
1000
0001
0000
0001
0100
0000
,  // measure 23
0010
0000
1000
0001
0000
0001
1000
0000
,  // measure 24
0010
0100
0001
0010
0000
0010
0001
0000
,  // measure 25
0100
0000
0010
0000
1000
0001
0010
0000
,  // measure 26
0100
0000
1000
0000
0100
0010
0001
1000
,  // measure 27
0010
0100
0001
0100
,  // measure 28
0010
1000
0001
0100
0010
1000
0010
0100
,  // measure 29
0001
0000
0100
0001
0000
0001
0100
0000
,  // measure 30
0010
1000
0100
1000
,  // measure 31
0010
0000
1000
0010
0000
0010
1000
0000
,  // measure 32
0100
1000
0001
0100
,  // measure 33
0001
0000
0010
0001
0000
0010
0001
0000
,  // measure 34
0010
0100
1000
0001
,  // measure 35
0100
0000
0010
0100
0000
0010
1000
0000
,  // measure 36
0010
0100
0001
0010
,  // measure 37
0001
0100
0001
0000
1000
0010
1000
0000
,  // measure 38
0010
0100
0010
0000
0000
0100
0010
0100
,  // measure 39
1000
0001
1000
0000
0001
0100
0001
0000
,  // measure 40
1000
0010
1000
0000
0000
0010
1000
0010
,  // measure 41
0100
0001
0100
0000
0001
0010
0001
0000
,  // measure 42
1000
0100
1000
0000
0000
0100
1000
0100
,  // measure 43
0010
0001
0100
0000
0010
1000
0001
0000
,  // measure 44
0010
0100
1000
0000
0000
0001
0100
0010
,  // measure 45
2000
0000
0000
0000
3001
0000
0100
0001
,  // measure 46
0000
0001
0100
0000
0010
1000
0100
0000
,  // measure 47
0000
0100
1000
0010
0100
0000
0001
0010
,  // measure 48
0000
0010
0001
0000
0100
0000
0010
0000
,  // measure 49
1000
0000
0001
0000
0010
0000
0001
0100
,  // measure 50
0000
0100
0001
0000
1000
0100
1000
0000
,  // measure 51
0000
0010
0100
0001
0010
0000
0100
1000
,  // measure 52
0000
1000
0100
0000
0010
0001
0100
0000
,  // measure 53
0010
1000
0001
0010
0001
0000
0001
0100
,  // measure 54
0000
0100
0010
0000
1000
0000
0100
0000
,  // measure 55
0000
0000
0100
0000
1000
0000
0010
1000
,  // measure 56
0000
1000
0010
0000
0100
0000
0001
0000
,  // measure 57
0100
0010
0100
0000
0001
0000
0100
0001
,  // measure 58
0000
0001
0100
0000
0010
0000
1000
0000
,  // measure 59
0100
1000
0001
0000
0100
0000
0010
0100
,  // measure 60
0000
0100
0010
0000
1000
0000
0001
0010
,  // measure 61
0100
1000
0100
0010
0001
0000
0100
0000
,  // measure 62
0010
1000
0001
0000
0010
0000
0100
0000
,  // measure 63
1000
0100
0010
0000
0001
0000
1000
0000
,  // measure 64
0010
0100
0001
0000
0100
0000
0010
0000
,  // measure 65
1000
0000
0001
0000
1000
0000
0001
0100
,  // measure 66
0000
0010
0000
1000
0000
0001
0000
0010
,  // measure 67
0100
0000
0010
0000
0001
0000
0100
0010
,  // measure 68
0000
1000
0000
0001
0000
0000
0010
0000
,  // measure 69
0100
1000
2002
0000
,  // measure 70
0000
0000
3003
0000
;
