#TITLE:Acque Minerali;
#SUBTITLE:-Ultimo Blu-;
#ARTIST:naotyu- remixed by Est feat. miyu;
#TITLETRANSLIT:;
#SUBTITLETRANSLIT:;
#ARTISTTRANSLIT:;
#CREDIT:;
#BANNER:;
#BACKGROUND:;
#LYRICSPATH:;
#CDTITLE:;
#MUSIC:Est feat. miyu - Acque Minerali -Ultimo Blu-.mp3;
#OFFSET:-5.060;
#SAMPLESTART:5.050;
#SAMPLELENGTH:12.000;
#SELECTABLE:YES;
#BPMS:0.000=172.000,96.000=86.000,128.000=172.000;
#STOPS:128.000=1.040
;
#BGCHANGES:;

//---------------dance-single - ----------------
#NOTES:
     dance-single:
     :
     Challenge:
     8:
     0.491,0.595,0.282,0.034,0.192: // measure 1
0001
1000
0001
1100
0000
1010
0000
0101
,  // measure 2
0000
0011
0000
1100
0000
0110
0000
0001
,  // measure 3
0010
0001
0100
1010
0000
0110
0000
0011
,  // measure 4
0000
1100
0000
0101
0000
1010
0000
0010
,  // measure 5
0100
0001
0010
1100
0000
0011
0000
0101
,  // measure 6
0000
1010
0000
1100
0000
0101
0000
0010
,  // measure 7
0100
0001
0010
0110
0000
1100
0000
1001
,  // measure 8
0000
0110
0000
0100
0010
0001
0100
0010
,  // measure 9
1000
0100
1000
0000
0010
0000
0100
0001
0000
0100
0000
0010
1000
0000
0001
0010
,  // measure 10
0001
0000
0100
0000
0010
0000
1000
0100
0000
1000
0000
0001
0100
0000
0010
0000
,  // measure 11
1000
0100
1000
0000
0010
0000
0100
0001
0000
0010
0001
0000
0100
0000
0010
0000
,  // measure 12
1000
0100
0000
0010
0001
0000
0010
0001
0000
0100
0010
0000
1000
0000
0100
0000
,  // measure 13
0010
0001
0010
0000
1000
0000
0001
0100
0000
0001
0000
1000
0010
0000
0100
1000
,  // measure 14
0100
0000
0001
0000
1000
0000
0010
0001
0000
0010
0000
0100
0001
0000
1000
0000
,  // measure 15
0010
0100
0001
0010
0100
1000
0100
0010
,  // measure 16
0001
0000
1000
0100
1000
0000
0001
0010
0001
0000
0100
0010
0100
0000
0001
0000
,  // measure 17
2000
0000
0000
0000
,  // measure 18
0000
0000
0000
0000
,  // measure 19
0000
0000
0000
0000
,  // measure 20
0000
0000
0000
0000
,  // measure 21
0000
0000
0000
0000
,  // measure 22
0000
0000
0000
0000
,  // measure 23
0000
0000
0000
0000
,  // measure 24
0000
0000
0000
0000
,  // measure 25
3010
0000
0000
0100
0000
0000
0101
0000
0000
0001
0000
0000
0010
0000
0100
0000
,  // measure 26
1000
0000
0000
0010
0000
0000
0110
0000
0000
0100
0000
0000
0001
0000
0010
0000
,  // measure 27
0100
0000
0000
1000
0000
0000
0100
0000
0000
0010
0000
0000
0001
0000
0100
0000
,  // measure 28
0001
0000
0000
1000
0000
0000
0010
0000
0000
0100
0000
0000
0001
0000
0100
0000
,  // measure 29
0010
0000
0000
1000
0000
0000
0100
0000
0000
0001
0000
0000
0100
0000
0010
0000
,  // measure 30
1000
0000
0000
0010
0000
0000
0001
0000
0000
0100
0000
0000
0010
0000
1000
0000
,  // measure 31
0001
0000
0000
0010
0000
0000
0100
0000
1000
0000
0100
0000
0010
0000
0001
0000
,  // measure 32
0100
0000
0010
0000
1000
0000
0001
0000
0010
0001
0100
0010
1000
0100
0010
0100
,  // measure 33
2000
0000
3001
0010
0001
0010
0100
1000
,  // measure 34
0100
1000
0100
0010
0001
0100
0010
1000
,  // measure 35
0010
0000
0100
0001
0100
0001
1000
0001
,  // measure 36
1000
0001
0010
0001
0010
0001
0100
0001
,  // measure 37
1000
0010
0100
0001
0100
0001
0010
0001
,  // measure 38
0010
0001
0010
0100
1000
0010
0100
0001
,  // measure 39
0010
0000
0001
0010
0001
0010
0100
1000
,  // measure 40
0100
1000
0010
0100
0001
0010
0001
0100
,  // measure 41
0010
1000
0100
0000
0000
1100
0000
0000
,  // measure 42
0011
0000
0110
0000
,  // measure 43
0110
0000
0100
0000
0010
0100
0000
1000
,  // measure 44
0001
0100
0010
1000
,  // measure 45
0010
0100
0001
0000
0100
0010
0000
0000
,  // measure 46
0110
0001
0010
0100
,  // measure 47
1100
0000
0011
0000
0000
0101
0000
0000
,  // measure 48
2010
0000
0000
0000
0000
3001
0100
0010
,  // measure 49
1000
0001
0010
0000
0100
1000
0000
0100
,  // measure 50
0000
0010
0000
0001
0100
0000
0001
0010
,  // measure 51
0001
0100
0010
0000
1000
0100
0000
1000
,  // measure 52
0000
0001
0000
0100
0010
0100
0000
0001
,  // measure 53
0010
0100
1000
0000
0001
0010
0000
0001
,  // measure 54
0000
0100
0000
0010
1000
0000
0010
0100
,  // measure 55
0001
0010
0100
0000
1000
0100
0000
0010
,  // measure 56
0000
0001
0000
1000
0010
0100
0000
0001
,  // measure 57
0100
0010
1000
0000
0001
0010
0000
0001
,  // measure 58
0000
1000
0000
0100
0001
0000
0100
1000
,  // measure 59
0100
0001
1000
0000
0010
0001
0000
0010
,  // measure 60
0000
0100
0000
0001
1000
0001
0000
0100
,  // measure 61
1000
0001
0010
0000
0100
1000
0000
0100
,  // measure 62
0000
0001
0000
1000
0010
0000
1000
0000
,  // measure 63
0001
0000
1000
0010
0100
0001
0010
0100
,  // measure 64
1000
0000
0100
0000
0010
0000
0001
0010
0001
0000
1000
0100
1000
0000
0010
0000
,  // measure 65
0100
0001
0020
0000
0000
0000
0000
0000
,  // measure 66
0000
0000
0000
0000
,  // measure 67
0000
0030
0000
0000
;
