#TITLE:4502-RA002 in the void;
#SUBTITLE:;
#ARTIST:The Scarecrow;
#TITLETRANSLIT:;
#SUBTITLETRANSLIT:;
#ARTISTTRANSLIT:;
#CREDIT:;
#BANNER:;
#BACKGROUND:;
#LYRICSPATH:;
#CDTITLE:;
#MUSIC:4502-RA002 in the void.mp3;
#OFFSET:-2.400;
#SAMPLESTART:62.430;
#SAMPLELENGTH:12.000;
#SELECTABLE:YES;
#BPMS:0.000=200.000,192.000=100.000,196.000=200.000;
#STOPS:;
#BGCHANGES:;

//---------------dance-single - ----------------
#NOTES:
     dance-single:
     :
     Beginner:
     2:
     0.147,0.283,0.009,0.070,0.000:
1000
0000
0000
0000
,
0000
0000
0000
0001
,
0001
0000
0000
0000
,
0000
0000
0000
0000
,
0100
0000
0000
0000
,
0000
0000
0000
0010
,
0010
0000
0010
0000
,
0010
0000
0010
0000
,
1000
0000
0010
0000
,
1000
0000
0000
0000
,
0001
0000
0100
0000
,
0001
0000
0000
0000
,
0010
0000
0001
0000
,
0010
0000
0000
0000
,
0100
0000
1000
0000
,
0100
0000
0000
0000
,
1000
0000
0000
0000
,
0100
0000
0000
0000
,
0010
0000
0000
0000
,
0001
0000
0000
0000
,
0100
0000
0000
0000
,
0010
0000
0000
0000
,
1000
0000
0000
0000
,
0001
0000
0000
0000
,
0010
0000
0010
0000
,
0010
0000
0000
0000
,
0100
0000
0100
0000
,
0100
0000
0000
0000
,
1000
0000
1000
0000
,
1000
0000
0000
0000
,
0001
0000
0001
0000
,
0001
0000
0000
0000
,
2000
0000
0000
0000
,
3000
0000
0000
0000
,
0200
0000
0000
0000
,
0300
0000
0000
0000
,
0020
0000
0000
0000
,
0030
0000
0000
0000
,
0002
0000
0000
0000
,
0003
0000
0000
0000
,
2000
0000
0000
0000
,
3000
0000
0000
0000
,
0020
0000
0000
0000
,
0030
0000
0000
0000
,
0200
0000
0000
0000
,
0300
0000
0000
0000
,
0002
0000
0000
0000
,
0003
0000
0000
0000
,
0000
0000
0000
0000
,
0010
0000
0010
0000
,
0010
0000
0000
0000
,
0010
0000
0010
0000
,
0010
0000
0000
0000
,
0100
0000
0100
0000
,
0100
0000
0000
0000
,
0100
0000
0100
0000
,
0100
0000
0000
0000
,
0001
0000
0001
0000
,
0001
0000
0000
0000
,
0001
0000
0001
0000
,
0001
0000
0000
0000
,
1000
0000
1000
0000
,
1000
0000
0000
0000
,
1000
0000
1000
0000
,
1000
0000
0000
0000
,
1000
0000
0000
0000
,
0010
0000
0000
0000
,
0001
0000
0000
0000
,
0100
0000
0000
0000
,
1000
0000
0000
0000
,
0100
0000
0000
0000
,
0010
0000
0000
0000
,
0001
0000
0000
0000
,
1000
1000
1000
1000
,
1000
1000
1000
0000
,
0010
0010
0010
0010
,
0010
0010
0010
0000
,
0100
0100
0100
0100
,
0100
0100
0100
0000
,
0001
0001
0001
0001
,
0001
0000
1000
0000
,
1001
0000
0000
0000
;

//---------------dance-single - ----------------
#NOTES:
     dance-single:
     :
     Easy:
     6:
     0.374,0.442,0.078,0.174,0.000:
1001
0000
0000
0000
,
0010
0000
0100
0000
,
0001
0000
0000
0000
,
0010
0000
0100
0000
,
1000
0000
0000
0000
,
0010
0000
0100
0000
,
0001
0000
1000
0000
,
0001
1000
0001
1000
,
0010
1000
0100
0010
,
0001
0100
0001
0010
,
0100
1000
0100
0010
,
0001
1000
0010
0000
,
0010
1000
0001
0010
,
0100
0010
0001
0100
,
0010
1000
0001
0010
,
0200
0000
0000
0300
,
1000
0100
1000
0010
,
0100
0000
0001
0000
0010
0001
0010
0000
,
0100
1000
0001
0100
,
0010
0000
1000
0000
0100
0010
0100
0000
,
1000
0001
0010
0001
,
0100
0000
0010
0000
1000
0100
1000
0000
,
0010
1000
0001
0010
,
0100
0000
1000
0000
0001
1000
0001
1000
,
0001
0100
0010
1000
,
0010
0000
0100
0000
0001
0010
0001
0000
,
0010
0100
1000
0100
,
0010
0000
0001
0000
0100
0010
0100
0000
,
0010
1000
0001
0010
,
0100
0000
1000
0000
0010
1000
0010
0000
,
1000
0100
0010
0100
,
2002
0000
3003
0000
,
2000
0000
0000
0000
,
3020
0000
0000
0000
,
0230
0000
0000
0000
,
0302
0000
0000
0000
,
0023
0000
0000
0000
,
0130
0000
1000
0000
,
0200
0000
0000
0000
,
2300
0000
0000
0000
,
3020
0000
0000
0000
,
0230
0000
0000
0000
,
0302
0000
0000
0000
,
0023
0000
0000
0000
,
0032
0000
0000
0000
,
0103
0000
0010
0000
,
2000
0000
0000
0000
,
3100
0000
0000
0000
,
0000
0000
0000
0000
,
0010
0000
1000
0100
0000
0100
1000
0000
,
0010
0100
0001
0001
,
0010
0000
0001
0100
0000
0100
0001
0000
,
0010
0100
1000
1000
,
0010
0000
0100
0010
0000
0010
0100
0000
,
0001
0010
0001
1000
,
0010
0000
0001
1000
0000
1000
0001
0000
,
0010
1000
1001
1001
,
0001
0000
0010
0001
0000
0010
0001
0000
,
0100
0010
0000
0010
1000
0000
0100
0000
,
1000
0000
0010
1000
0000
0010
1000
0000
,
0010
0100
0000
0010
0100
0000
0001
0000
,
0010
0000
0100
1000
0000
1000
0010
0000
,
0010
0100
0000
0100
0001
0000
1000
0000
,
0001
0000
0010
0000
0100
1000
0100
0000
,
2002
0000
0000
3003
,
1000
0100
1000
0100
,
0010
0001
0010
0001
,
0100
0010
1000
0001
,
0010
0000
0100
1000
0100
0000
0010
0000
,
0001
0100
0010
1000
,
0010
0100
0010
0000
1001
0000
0000
0000
,
0001
0010
0001
0100
,
0010
1000
0100
1000
,
0010
0100
0001
0100
,
0010
1000
0010
0000
0100
0000
0001
0000
,
0010
0001
0100
0010
,
1000
0001
0010
0000
0100
0000
1000
0000
,
0100
0000
0010
0000
0001
0100
0010
0000
,
0100
0000
0001
0000
0010
0100
1000
0000
,
0100
0000
0010
0000
0001
1000
0001
0000
,
1001
0000
0110
0000
,
2002
0000
0000
0000
,
0000
0000
0000
0000
,
0000
0000
0000
0000
,
0000
0000
3003
0000
;

//---------------dance-single - ----------------
#NOTES:
     dance-single:
     :
     Medium:
     8:
     0.497,0.590,0.183,0.105,0.000:
1001
0000
0000
0000
,
0010
0000
0100
1001
,
1001
0000
0000
0000
,
0001
0000
1000
0000
,
1100
0000
0000
0000
,
0010
0000
1000
1100
,
1001
0000
0101
0000
,
0010
0100
0001
1000
,
0001
0100
0001
0100
,
0010
0000
1000
0000
0010
0000
1000
0010
,
1000
0100
1000
0100
,
1000
0000
0001
0000
1000
0000
0001
1000
,
0001
0100
0001
0100
,
0001
0000
0010
0000
0001
0000
0010
0001
,
0010
0100
0010
0100
,
0010
0200
0000
0000
0000
0000
0300
0000
,
0010
0000
1000
0000
0100
0001
0100
0000
,
0010
0000
1000
0000
0010
0001
0100
0000
,
0010
0000
1000
0000
0001
0010
0100
0000
,
1000
0000
0100
0000
0010
0001
0100
0000
,
0010
0000
1000
0000
0100
0001
0100
0000
,
0010
0000
1000
0000
0100
0001
0010
0000
,
0100
0000
0010
0000
0001
0100
0010
0000
,
1000
0100
0000
0000
1100
0000
0000
0000
,
0001
0000
0100
0000
0010
1000
0010
0000
,
0100
0000
0001
0000
0010
0100
0010
0000
,
0100
0000
0010
0000
0001
0100
0010
0000
,
1000
0000
0001
0000
0010
0100
1000
0000
,
0100
0000
0010
0000
0001
0100
1000
0000
,
0100
0000
0001
0000
0010
1000
0100
0000
,
0010
0000
0100
0000
1000
0001
0100
0000
,
0110
0000
1001
0000
,
2100
0000
0000
0000
,
3020
0000
0000
0000
,
0230
0000
0000
0000
,
0302
0000
0000
0000
,
0023
0001
0001
0001
,
0032
0100
0100
0100
,
0203
0010
0010
0010
,
0320
1000
1000
1000
,
0130
0000
1000
0000
0100
1000
0100
0000
,
0010
0000
0001
0000
0010
0001
0010
0000
,
0100
0000
0010
0000
0100
0010
0100
0000
,
1000
0000
0001
0000
1000
0001
1000
0000
,
0010
0000
1000
0000
0100
0010
0100
0000
,
1000
0000
0001
0000
0100
0010
0100
0000
,
0001
0000
0010
0000
0100
1000
0001
0000
,
1001
0000
0000
0000
,
0000
0000
0000
0000
,
0010
1000
0010
1000
0000
0001
0010
0000
,
0001
0100
0000
0010
0100
0000
0110
0000
,
0001
0010
0100
1000
0000
1000
0100
0000
,
0010
0001
0000
0100
0001
0000
0001
0000
,
0010
0000
1000
0100
0000
0010
0100
0000
,
1000
0001
0000
0100
0001
0000
0001
0000
,
0100
0000
1000
0010
0000
0100
0001
0000
,
0010
0100
0000
1000
0100
0000
0010
0000
,
0001
0100
0001
0010
0000
0100
1000
0100
,
0010
0001
0000
1000
0010
0000
0010
0000
,
1000
0001
0010
0100
0000
0100
0010
0001
,
0100
0010
0000
0010
0100
0000
0101
0000
,
0001
0000
0100
1000
0000
1000
0100
0000
,
0001
1000
0000
1000
0010
0000
0110
0000
,
0100
0001
0100
0010
1000
0001
0010
0100
,
2000
0000
0000
0000
,
3001
0000
0010
0001
0100
0000
0010
1000
,
0100
0000
1000
0010
0100
0000
0001
0010
,
0001
0000
1000
0100
0010
0000
0010
0100
,
1000
0001
0100
0010
1000
0000
0010
0100
,
0001
0000
0010
0001
1000
0000
0100
0010
,
0100
1000
0001
0000
1001
0000
0000
0000
,
0001
0000
0100
0000
0010
1000
0010
0100
,
0001
0010
0100
1000
,
0100
0010
0100
0010
0001
0010
0001
0010
,
0100
1000
0001
0100
0010
0000
1000
0000
,
0001
0010
0001
0100
0010
1000
0001
0010
,
0100
1000
0100
0010
0001
0000
1000
0000
,
0010
1000
0100
0001
0100
0010
1000
0001
,
0010
0100
1000
0100
0010
0000
0001
0000
,
0100
0001
1000
0010
0100
0001
1000
0001
,
1001
1001
0110
0110
,
2002
0000
0000
0000
,
0000
0000
0000
0000
,
0000
0000
0000
0000
,
0000
0000
3003
0000
;

//---------------dance-single - ----------------
#NOTES:
     dance-single:
     :
     Hard:
     9:
     0.587,0.737,0.174,0.174,0.026: // measure 1
1001
0000
0000
0000
,  // measure 2
0010
0000
0100
0110
,  // measure 3
0110
0000
0000
0000
,  // measure 4
0001
0000
1000
0000
,  // measure 5
1001
0000
0000
0000
,  // measure 6
0001
0000
0000
0101
,  // measure 7
1010
0000
0010
0000
,  // measure 8
1000
0100
0010
0001
,  // measure 9
1000
0010
0100
0001
,  // measure 10
0010
0000
0001
0000
1000
0100
0010
0100
,  // measure 11
1000
0001
0100
0010
,  // measure 12
1000
0010
1000
0000
0010
0000
0001
0000
,  // measure 13
0100
0001
0010
0100
,  // measure 14
1000
0000
0100
0000
0010
0001
0010
0001
,  // measure 15
0010
0001
0100
0010
,  // measure 16
2000
0002
0000
0000
3003
0000
0000
0000
,  // measure 17
1000
0010
1000
0001
0010
0100
1000
0100
,  // measure 18
0010
0001
1000
0010
0100
0000
0001
0000
,  // measure 19
0010
0001
0100
0010
1000
0001
0010
0100
,  // measure 20
1000
0100
0010
0001
1000
0000
0001
0000
,  // measure 21
0010
0001
0100
0010
1000
0001
0010
0100
,  // measure 22
1000
0100
0010
0100
1000
0000
0010
0000
,  // measure 23
0100
0001
0100
0010
1000
0001
0010
0100
,  // measure 24
1000
0100
0010
0001
1000
0000
0001
0000
,  // measure 25
0100
0001
0010
0001
0100
0010
1000
0100
,  // measure 26
0010
0100
1000
0001
0100
0000
0010
0000
,  // measure 27
0100
0001
0010
0100
1000
0100
0010
0001
,  // measure 28
1000
0001
0010
0001
0100
0000
0010
0000
,  // measure 29
1000
0100
0001
0100
1000
0010
0100
0001
,  // measure 30
0010
0100
1000
0100
0010
0000
0001
0000
,  // measure 31
0100
0010
1000
0001
0010
0100
1000
0001
,  // measure 32
0200
0020
0000
0000
0000
0000
0330
0000
,  // measure 33
0002
0000
0000
0000
,  // measure 34
0203
0000
0000
0000
,  // measure 35
0320
0000
0000
0000
,  // measure 36
2030
0000
0000
0000
,  // measure 37
3200
0000
0000
0000
,  // measure 38
0320
0000
0032
0000
,  // measure 39
0023
0000
0000
0000
,  // measure 40
0230
0000
0000
0000
0000
0000
0000
0300
,  // measure 41
1000
0000
0100
0000
1000
0001
0100
0000
,  // measure 42
0010
0000
0100
0000
0001
0010
0100
0000
,  // measure 43
1000
0000
0100
0000
0010
0001
1000
0000
,  // measure 44
0001
0000
0100
0000
0010
1000
0010
0000
,  // measure 45
0100
0000
0001
0000
0010
0100
1000
0000
,  // measure 46
0100
0000
0010
0000
0001
1000
0010
0000
,  // measure 47
0100
0000
0001
1000
0010
0100
0001
0010
,  // measure 48
0200
0000
0300
0000
,  // measure 49
0220
0000
0000
0330
,  // measure 50
1000
0001
0100
0010
0000
0010
0100
0001
,  // measure 51
0010
0100
0000
1000
0100
0000
0010
0000
,  // measure 52
0001
1000
0010
0100
0000
0100
0001
0010
,  // measure 53
0100
1000
0000
1000
0100
0000
0110
0000
,  // measure 54
0001
0100
0010
1000
0000
0001
0010
0001
,  // measure 55
0100
0010
0000
1000
0100
0000
1100
0000
,  // measure 56
0001
0100
0010
1000
0000
1000
0010
0100
,  // measure 57
0001
0010
0000
0010
0001
0000
0100
0000
,  // measure 58
0001
0010
0001
0100
0010
1000
0100
0010
,  // measure 59
0100
1000
0000
0001
1001
0000
1001
0000
,  // measure 60
0010
1000
0100
0010
0100
1000
0001
0100
,  // measure 61
0010
0100
0000
0100
0101
0000
0011
0000
,  // measure 62
0100
1000
0001
0010
0100
1000
0001
0100
,  // measure 63
0010
1000
0000
1000
1100
0000
1100
0000
,  // measure 64
0001
0100
0010
1000
0001
0010
0100
1000
,  // measure 65
0002
0000
0000
0003
,  // measure 66
1000
0100
0001
0100
1000
0010
0001
0010
,  // measure 67
1000
0100
0010
0100
1000
0001
0100
0010
,  // measure 68
0100
0001
0010
0100
1000
0001
0100
0010
,  // measure 69
1000
0000
0001
0010
0001
0000
0100
0000
0010
0000
1000
0000
0100
0000
0001
0000
,  // measure 70
0010
0100
1000
0100
0001
0100
1000
0001
,  // measure 71
0100
0000
1000
0010
1000
0000
0100
0000
0002
0000
0000
0000
0000
0000
0003
0000
,  // measure 72
0010
0001
1000
0100
0010
0001
1000
0010
,  // measure 73
0100
0001
1000
0010
0100
0001
0100
0010
,  // measure 74
1000
0100
0001
0100
1000
0010
0001
0100
,  // measure 75
1000
0010
1000
0000
0100
0000
0001
0000
0100
0000
1000
0000
0010
0000
0001
0000
,  // measure 76
0100
0000
1000
0000
0010
0000
0001
0000
0010
0100
0010
0000
1000
0000
0001
0000
,  // measure 77
0010
0100
1000
0100
0010
0001
1000
0010
,  // measure 78
0001
0010
1000
0100
0001
0010
0100
1000
,  // measure 79
0001
0010
0100
0010
0100
1000
0001
0010
,  // measure 80
1000
0000
0010
0000
0001
0000
0100
0000
1000
0010
1000
0010
1000
0000
0001
0000
,  // measure 81
1100
0011
0101
1010
,  // measure 82
2002
0000
0000
0000
,  // measure 83
0000
0000
0000
0000
,  // measure 84
0000
0000
0000
0000
,  // measure 85
0000
0000
3003
0000
;
