#TITLE:20, november;
#SUBTITLE:(club edit);
#ARTIST:cranky;
#TITLETRANSLIT:;
#SUBTITLETRANSLIT:;
#ARTISTTRANSLIT:;
#CREDIT:;
#BANNER:;
#BACKGROUND:;
#LYRICSPATH:;
#CDTITLE:;
#MUSIC:20, November (club edit) -cut- .mp3;
#OFFSET:-12.080;
#SAMPLESTART:47.030;
#SAMPLELENGTH:12.000;
#SELECTABLE:YES;
#BPMS:0.000=165.000;
#STOPS:;
#BGCHANGES:;

//---------------dance-single - ----------------
#NOTES:
     dance-single:
     :
     Beginner:
     1:
     0.084,0.145,0.014,0.000,0.000: // measure 1
1000
0000
0000
0000
,  // measure 2
0010
0000
0000
0000
,  // measure 3
1000
0000
0000
0000
,  // measure 4
0010
0000
0000
0000
,  // measure 5
0100
0000
0000
0000
,  // measure 6
0001
0000
0000
0000
,  // measure 7
0100
0000
0000
0000
,  // measure 8
0001
0000
0000
0000
,  // measure 9
1000
0000
0000
0000
,  // measure 10
0001
0000
0000
0000
,  // measure 11
1000
0000
0000
0000
,  // measure 12
0001
0001
0001
0001
,  // measure 13
0001
0000
0000
0000
,  // measure 14
0001
0000
0000
0000
,  // measure 15
0100
0000
0000
0000
,  // measure 16
0100
0000
0000
0000
,  // measure 17
0010
0000
0000
0000
,  // measure 18
0010
0000
0000
0000
,  // measure 19
1000
0000
0000
0000
,  // measure 20
1000
0000
0000
0000
,  // measure 21
0010
0000
0000
0000
,  // measure 22
0100
0000
0000
0000
,  // measure 23
0010
0000
0000
0000
,  // measure 24
0100
0000
0000
0000
,  // measure 25
0001
0000
0001
0000
,  // measure 26
0001
0000
0000
0000
,  // measure 27
0010
0000
0010
0000
,  // measure 28
0010
0000
0000
0000
,  // measure 29
0100
0000
0100
0000
,  // measure 30
0100
0000
0000
0000
,  // measure 31
1000
0000
1000
0000
,  // measure 32
1000
0000
0000
0000
,  // measure 33
1001
0000
0000
0000
,  // measure 34
0000
0000
0000
0000
,  // measure 35
0010
0000
0000
0000
,  // measure 36
0000
0100
0000
0000
;

//---------------dance-single - ----------------
#NOTES:
     dance-single:
     :
     Easy:
     3:
     0.154,0.193,0.027,0.000,0.000: // measure 1
1000
0000
0100
0000
,  // measure 2
0010
0000
0001
0000
,  // measure 3
1000
0000
0010
0000
,  // measure 4
0100
0000
0001
0000
,  // measure 5
0010
0000
0001
0000
,  // measure 6
0010
0000
0001
0000
,  // measure 7
0010
0000
0100
0000
,  // measure 8
0010
0000
0100
0000
,  // measure 9
1000
0000
0100
0000
,  // measure 10
1000
0000
0100
0000
,  // measure 11
1000
0000
0001
0000
,  // measure 12
1000
0001
1000
0001
,  // measure 13
1000
0000
0001
0000
,  // measure 14
0100
0000
0010
0000
,  // measure 15
0010
0000
0100
0000
,  // measure 16
0001
0000
1000
0000
,  // measure 17
0010
0000
1000
0000
,  // measure 18
0100
0000
0010
0000
,  // measure 19
0001
0000
0010
0000
,  // measure 20
0100
0000
1000
0000
,  // measure 21
0001
0000
1000
0000
,  // measure 22
0001
0000
1000
0000
,  // measure 23
0010
0000
0100
0000
,  // measure 24
0010
0000
0100
0000
,  // measure 25
0001
0100
0001
0000
,  // measure 26
0100
0001
0100
0000
,  // measure 27
0010
1000
0010
0000
,  // measure 28
1000
0010
1000
0000
,  // measure 29
0100
1000
0100
0000
,  // measure 30
1000
0100
1000
0000
,  // measure 31
0001
0100
0001
0000
,  // measure 32
0100
0001
0100
0000
,  // measure 33
1001
0000
0000
0000
,  // measure 34
0000
0000
0000
0000
,  // measure 35
0110
0000
0000
0000
,  // measure 36
0000
0010
0000
0000
;

//---------------dance-single - ----------------
#NOTES:
     dance-single:
     :
     Medium:
     6:
     0.303,0.313,0.096,0.027,0.055: // measure 1
1000
0010
1000
0010
,  // measure 2
0100
0000
0001
0000
0100
0000
0001
0100
,  // measure 3
0001
0010
0001
0010
,  // measure 4
0100
0000
1000
0000
0100
0000
1000
0100
,  // measure 5
1000
0010
1000
0010
,  // measure 6
0100
0001
0100
0000
0001
0000
0010
0000
,  // measure 7
0100
1000
0001
0100
,  // measure 8
0010
1000
0010
0000
0100
0000
0001
1000
,  // measure 9
0010
0100
0001
0010
,  // measure 10
0100
1000
0010
0000
0100
0000
0001
0000
,  // measure 11
0010
0100
1000
0010
,  // measure 12
1001
1001
1001
1001
,  // measure 13
1000
0000
0100
0000
0010
0001
0010
0000
,  // measure 14
0100
0000
1000
0000
0010
0100
0010
0000
,  // measure 15
1000
0000
0001
0000
0010
0100
1000
0000
,  // measure 16
0100
0000
0010
0000
0001
1000
0001
0000
,  // measure 17
0100
0000
0010
0000
1000
0010
0100
0000
,  // measure 18
0001
0000
0010
0000
0100
1000
0010
0000
,  // measure 19
1000
0000
0100
0000
0010
0001
1000
0000
,  // measure 20
0010
0000
0100
0000
0001
1000
0001
0000
,  // measure 21
1001
0000
0010
0000
,  // measure 22
0100
0000
1000
0000
,  // measure 23
0001
0000
0100
0000
,  // measure 24
0010
0000
1000
0000
,  // measure 25
0001
0000
0000
0100
0000
0000
0001
0000
0100
0000
0000
0000
0010
0000
0000
0000
,  // measure 26
1000
0000
0000
0100
0000
0000
1000
0000
0100
0000
0000
0000
1000
0000
0000
0000
,  // measure 27
0010
0000
0000
1000
0000
0000
0010
0000
1000
0000
0000
0000
0001
0000
0000
0000
,  // measure 28
0100
0000
0000
0010
0000
0000
0100
0000
0010
0000
0000
0000
1000
0000
0000
0000
,  // measure 29
0001
0000
0000
0010
0000
0000
0100
0000
1000
0000
0000
0000
0100
0000
0000
0000
,  // measure 30
0010
0000
0000
0001
0000
0000
1000
0000
0010
0000
0000
0000
0100
0000
0000
0000
,  // measure 31
0001
0000
0000
0100
0000
0000
0010
0000
1000
0000
0000
0000
0100
0000
0000
0000
,  // measure 32
1000
0000
0000
0010
0000
0000
0100
0000
0001
0000
0000
0000
0100
0000
0000
0000
,  // measure 33
0220
0000
0000
0000
,  // measure 34
0330
0000
0000
0000
,  // measure 35
0010
0010
0000
0000
0000
0000
0000
0000
,  // measure 36
0000
1001
0000
0000
;

//---------------dance-single - ----------------
#NOTES:
     dance-single:
     :
     Hard:
     7:
     0.416,0.410,0.109,0.109,0.376: // measure 1
0010
0000
0000
1000
0000
0000
0001
0000
0000
0100
0000
0000
0010
0000
1000
0000
,  // measure 2
0010
0000
0000
0100
0000
0000
0001
0000
0000
0010
0000
0000
0100
0000
1000
0000
,  // measure 3
0100
0000
0000
0010
0000
0000
0001
0000
0000
1000
0000
0000
0010
0000
0100
0000
,  // measure 4
0001
0000
0000
0100
0000
0000
0010
0000
0000
0000
1000
0000
0001
0000
0010
0000
,  // measure 5
0100
1000
0010
0100
,  // measure 6
0100
1000
0001
0000
0010
0000
0100
0000
,  // measure 7
1000
0010
0100
0001
,  // measure 8
0100
0010
1000
0000
0010
0000
0100
0001
,  // measure 9
0100
0010
1000
0001
,  // measure 10
0010
0100
1000
0000
0100
0000
0010
0000
,  // measure 11
0001
1000
0001
0000
0100
0000
0010
0000
,  // measure 12
1100
0011
0101
1010
,  // measure 13
1000
0000
0000
0100
0000
0000
0010
0000
0000
0100
0000
0000
1000
0000
0001
0000
,  // measure 14
0100
0000
0000
0010
0000
0000
1000
0000
0000
0010
0000
0000
0100
0000
0001
0000
,  // measure 15
0010
0000
0000
0001
0000
0000
0100
0000
0000
0010
0000
0000
1000
0000
0001
0000
,  // measure 16
0010
0000
0000
0100
0000
0000
1000
0000
0000
0100
0000
0000
0010
0000
0001
0000
,  // measure 17
1000
0000
0000
0010
0000
0000
0100
0000
0000
0001
0000
0000
0100
0000
0010
0000
,  // measure 18
1000
0000
0000
0001
0000
0000
0010
0000
0000
0100
0000
0000
1000
0000
0100
0000
,  // measure 19
0001
0000
0000
0100
0000
0000
0010
0000
0000
1000
0000
0000
0010
0000
0100
0000
,  // measure 20
0001
0000
0000
0010
0000
0000
0100
0000
0000
1000
0000
0000
0001
0000
0100
0000
,  // measure 21
0010
1000
0100
0010
0100
1000
0001
0100
,  // measure 22
0010
1000
0001
0010
0001
0100
0010
1000
,  // measure 23
0100
0010
0100
1000
0001
0100
0010
1000
,  // measure 24
0001
0010
0100
1000
0100
0010
0001
1000
,  // measure 25
0010
1000
0000
0010
0000
0100
0001
0200
0000
0000
0000
0000
0300
0000
0000
0000
,  // measure 26
0001
0010
0000
0001
0000
0100
0010
2000
0000
0000
0000
0000
0000
0000
3100
0000
,  // measure 27
0010
0001
0000
0100
0000
0010
1000
0200
0000
0000
0000
0000
0300
0000
0000
0000
,  // measure 28
0001
0010
0000
0001
0000
0100
0010
2000
0000
0000
0000
0000
3000
0000
0010
0000
,  // measure 29
0100
0001
0000
0010
0000
0100
1000
0020
0000
0000
0000
0000
0030
0000
0000
0000
,  // measure 30
1000
0001
0000
0100
0000
0010
1000
0200
0000
0000
0000
0000
0000
0000
0310
0000
,  // measure 31
0001
1000
0000
0010
0000
0100
0001
0020
0000
0000
0000
0000
0030
0000
0000
0000
,  // measure 32
0001
0010
0000
1000
0000
0010
0100
0002
0000
0000
0000
0000
0000
0000
1003
0000
,  // measure 33
1001
0000
0000
0000
,  // measure 34
0000
0000
0000
0000
,  // measure 35
0110
0110
0000
0000
0000
0000
0000
0000
,  // measure 36
0000
1001
0000
0000
;
