#TITLE:/^o^\;
#SUBTITLE:;
#ARTIST:Yamajet;
#TITLETRANSLIT:;
#SUBTITLETRANSLIT:;
#ARTISTTRANSLIT:;
#CREDIT:;
#BANNER:bn.png;
#BACKGROUND:bg.png;
#LYRICSPATH:;
#CDTITLE:;
#MUSIC:^o^.mp3;
#OFFSET:-3.780;
#SAMPLESTART:10.130;
#SAMPLELENGTH:12.000;
#SELECTABLE:YES;
#BPMS:0.000=190.000;
#STOPS:;
#BGCHANGES:;

//---------------dance-single - ----------------
#NOTES:
     dance-single:
     :
     Easy:
     4:
     0.238,0.360,0.094,0.024,0.000: // measure 1
0000
0000
0000
0000
,  // measure 2
1001
0000
0110
0000
,  // measure 3
1001
0000
0110
0000
,  // measure 4
0001
0001
0001
0001
,  // measure 5
0001
0000
0000
0000
,  // measure 6
1000
1000
1000
0000
,  // measure 7
0001
0001
0001
0000
,  // measure 8
0100
0000
0010
0000
,  // measure 9
0100
0000
0000
0000
,  // measure 10
0010
0010
0010
0000
,  // measure 11
0100
0100
0100
0000
,  // measure 12
0001
0000
1000
0000
,  // measure 13
0001
0000
0000
0000
,  // measure 14
0001
0001
0001
0000
,  // measure 15
1000
1000
1000
0000
,  // measure 16
0001
0000
1000
0000
,  // measure 17
0001
0000
0000
0000
,  // measure 18
0100
0100
0100
0000
,  // measure 19
0010
0010
0010
0000
,  // measure 20
0100
0000
0010
0000
,  // measure 21
0100
0000
0000
0000
,  // measure 22
0001
0000
1000
0000
,  // measure 23
0001
0000
1000
0000
,  // measure 24
0010
0000
0100
0000
,  // measure 25
0010
0000
0100
0000
,  // measure 26
0001
0000
0100
0000
,  // measure 27
1000
0000
0100
0000
,  // measure 28
0001
0000
0010
0000
,  // measure 29
2000
0000
0000
3000
,  // measure 30
0010
0000
0010
0000
,  // measure 31
0100
0000
0100
0000
,  // measure 32
0001
0000
1000
0000
,  // measure 33
0001
0001
0001
0000
,  // measure 34
1000
0000
0100
0000
,  // measure 35
1000
0000
0010
0000
,  // measure 36
0100
0000
0001
0000
,  // measure 37
0100
0100
0100
0100
,  // measure 38
0100
0000
0000
0000
,  // measure 39
0000
0000
0000
0000
,  // measure 40
0000
0000
0000
0000
,  // measure 41
0000
0000
0000
0000
,  // measure 42
0010
0010
0010
0000
,  // measure 43
0000
0000
0000
0000
,  // measure 44
0020
0000
0000
0000
,  // measure 45
0000
0000
0030
0000
,  // measure 46
0001
0001
0001
0000
,  // measure 47
1000
1000
1000
0000
,  // measure 48
0010
0000
0100
0000
,  // measure 49
0010
0010
0010
0000
,  // measure 50
1000
0001
1000
0000
,  // measure 51
0001
1000
0001
0000
,  // measure 52
0100
0000
0100
0000
,  // measure 53
0001
0001
0001
0000
,  // measure 54
0010
0010
0010
0010
,  // measure 55
0100
0100
0100
0100
,  // measure 56
1000
1000
1000
1000
,  // measure 57
0001
0001
0001
0001
,  // measure 58
1001
0000
0110
0000
,  // measure 59
0110
0000
1001
0000
,  // measure 60
0001
0000
1000
0000
,  // measure 61
0010
0000
0100
0000
,  // measure 62
0001
0000
0000
0000
;

//---------------dance-single - ----------------
#NOTES:
     dance-single:
     :
     Beginner:
     2:
     0.201,0.252,0.035,0.035,0.000: // measure 1
0000
0000
0000
0000
,  // measure 2
0010
0000
1000
0000
,  // measure 3
0100
0000
0001
0000
,  // measure 4
0010
0000
0100
0000
,  // measure 5
0110
0000
0000
0000
,  // measure 6
0001
0000
0001
0000
,  // measure 7
1000
0000
1000
0000
,  // measure 8
0010
0000
0100
0000
,  // measure 9
0010
0000
0100
0000
,  // measure 10
0010
0000
0010
0000
,  // measure 11
0100
0000
0100
0000
,  // measure 12
0001
0000
1000
0000
,  // measure 13
0001
0000
1000
0000
,  // measure 14
0001
0000
0001
0000
,  // measure 15
1000
0000
1000
0000
,  // measure 16
0010
0000
0100
0000
,  // measure 17
0010
0000
0100
0000
,  // measure 18
0100
0000
0100
0000
,  // measure 19
0010
0000
0010
0000
,  // measure 20
1000
0000
0100
0000
,  // measure 21
0001
0000
0010
0000
,  // measure 22
1000
0000
0001
0000
,  // measure 23
1000
0000
0001
0000
,  // measure 24
0100
0000
0010
0000
,  // measure 25
0200
0000
0300
0000
,  // measure 26
0010
0000
0100
0000
,  // measure 27
0010
0000
0100
0000
,  // measure 28
0001
0000
1000
0000
,  // measure 29
0002
0000
0000
0003
,  // measure 30
1000
0000
0001
0000
,  // measure 31
1000
0000
0001
0000
,  // measure 32
1000
0000
0000
0000
,  // measure 33
0001
0000
0000
0000
,  // measure 34
0100
0000
0010
0000
,  // measure 35
0100
0000
0010
0000
,  // measure 36
0100
0000
0100
0000
,  // measure 37
0010
0000
0010
0000
,  // measure 38
1001
0000
0000
0000
,  // measure 39
0000
0000
0000
0000
,  // measure 40
0000
0000
0000
0000
,  // measure 41
0000
0000
0000
0000
,  // measure 42
1000
1000
1000
0000
,  // measure 43
0000
0000
0000
0000
,  // measure 44
0002
0000
0000
0000
,  // measure 45
0000
0000
0003
0000
,  // measure 46
1000
0000
0001
0000
,  // measure 47
1000
0000
0001
0000
,  // measure 48
1000
0000
0001
0000
,  // measure 49
1000
1000
1000
0000
,  // measure 50
0001
0000
1000
0000
,  // measure 51
0001
0000
1000
0000
,  // measure 52
0001
0000
1000
0000
,  // measure 53
0001
0001
0001
0000
,  // measure 54
0100
0100
0100
0000
,  // measure 55
0010
0010
0010
0000
,  // measure 56
0100
0000
0010
0000
,  // measure 57
0100
0100
0100
0000
,  // measure 58
0010
0010
0010
0000
,  // measure 59
0100
0100
0100
0000
,  // measure 60
0010
0000
0100
0000
,  // measure 61
0010
0010
0010
0000
,  // measure 62
1001
0000
0000
0000
;

//---------------dance-single - ----------------
#NOTES:
     dance-single:
     :
     Medium:
     7:
     0.518,0.540,0.744,0.059,0.006: // measure 1
0000
0000
0000
0000
,  // measure 2
1000
0001
0000
1000
0001
1000
0000
0001
,  // measure 3
1000
0001
0000
1000
0001
0000
1000
0001
,  // measure 4
1000
0000
0010
0000
0100
0001
1000
0100
,  // measure 5
0020
0000
0000
0030
,  // measure 6
1100
0011
0101
0000
,  // measure 7
0101
0011
1100
0000
,  // measure 8
0010
1000
0000
0010
0100
0001
0000
0010
,  // measure 9
0100
1000
0001
0000
,  // measure 10
0101
1010
1100
0000
,  // measure 11
1100
1010
0101
0000
,  // measure 12
0001
0010
0000
0100
1000
0001
0000
0100
,  // measure 13
0010
1000
0001
0000
,  // measure 14
1010
0011
0101
0000
,  // measure 15
0101
0011
1010
0000
,  // measure 16
0010
1000
0000
0100
0010
0001
0000
0100
,  // measure 17
0001
1000
0100
0000
,  // measure 18
1100
0101
0110
0000
,  // measure 19
0101
1100
0110
0000
,  // measure 20
0001
0100
0000
1000
0100
0001
0000
0010
,  // measure 21
0100
1000
0001
0000
,  // measure 22
1000
0000
0001
0000
0100
0010
0000
1000
,  // measure 23
0001
0000
0010
0000
0100
1000
0000
0001
,  // measure 24
0100
0000
0010
0000
1000
0010
0000
0100
,  // measure 25
0001
0000
0010
0000
0100
1000
0001
0000
,  // measure 26
0110
0000
1000
0000
0001
0010
0000
0001
,  // measure 27
0100
0000
0010
0000
1000
0100
0000
0010
,  // measure 28
0100
0000
1000
0000
0001
0100
0000
0010
,  // measure 29
1000
0000
0000
0000
0001
0000
0000
0000
0010
0000
0000
1000
0000
0000
0001
0000
,  // measure 30
0101
1010
1100
0000
,  // measure 31
1100
1010
0101
0000
,  // measure 32
0001
0010
0000
0001
0100
0000
1000
0010
,  // measure 33
0100
0010
1100
0000
,  // measure 34
0011
0101
1010
0000
,  // measure 35
1010
0101
0011
0000
,  // measure 36
0001
0010
0000
0100
1000
0010
0000
0100
,  // measure 37
0001
1000
0100
0010
0001
1000
0010
0100
,  // measure 38
0001
0000
0000
0000
,  // measure 39
0000
0000
0000
0000
,  // measure 40
0000
0000
0000
0000
,  // measure 41
0000
0000
0000
0000
,  // measure 42
1100
0101
0220
0000
,  // measure 43
0330
0000
0000
0000
,  // measure 44
2002
0000
0000
0000
,  // measure 45
0000
0000
3003
0000
,  // measure 46
1010
0011
0101
1100
,  // measure 47
0101
0011
1010
0000
,  // measure 48
0010
1000
0000
0100
0010
0001
0000
1000
,  // measure 49
0010
0100
0001
0000
,  // measure 50
0011
0101
1100
1010
,  // measure 51
1100
0101
0011
0000
,  // measure 52
0001
0100
0000
0010
1000
0010
0000
0100
,  // measure 53
0001
0010
0100
0000
,  // measure 54
1000
0010
0100
0001
0010
0001
0100
0010
,  // measure 55
1000
0100
0010
0100
1000
0010
0100
0001
,  // measure 56
0010
0100
0000
1000
0001
0100
0000
0010
,  // measure 57
1000
0000
0001
0000
0010
0100
1000
0001
,  // measure 58
0101
0011
1100
0000
,  // measure 59
1100
0011
0101
0000
,  // measure 60
0001
0010
0000
0100
1000
0010
0000
0100
,  // measure 61
0001
1000
0010
0100
0001
0010
0100
0000
,  // measure 62
1001
0000
0000
0000
;

//---------------dance-single - ----------------
#NOTES:
     dance-single:
     :
     Challenge:
     10:
     0.972,0.999,0.803,0.236,0.685: // measure 1
0000
0000
0000
0000
0000
0000
0000
0000
0000
0000
0000
0000
0001
1000
0001
1000
,  // measure 2
0001
0000
1001
0000
0010
1000
0001
0000
0010
0000
1100
0000
0010
0001
0100
0000
,  // measure 3
0010
0000
1001
0000
0100
0001
1000
0000
0100
0000
1100
0000
1000
0001
0100
0000
,  // measure 4
0010
0000
1000
0100
1000
0000
0001
0010
0001
0000
0100
0010
0100
0000
0110
0000
,  // measure 5
0220
0000
0330
0000
,  // measure 6
1000
0000
0001
0000
0100
0000
0010
0000
1000
0000
0010
0100
0000
0001
1000
0000
,  // measure 7
0010
0000
0100
0000
0001
0000
0010
0000
0100
0000
1000
0010
0000
0100
0001
0000
,  // measure 8
0010
0011
0000
0001
0100
0110
0000
0010
,  // measure 9
1010
0000
0000
0000
1100
0000
0000
0000
1000
0000
0001
0100
0000
0010
1000
0000
,  // measure 10
0010
0000
0100
0000
0001
0000
1000
0000
0010
0000
1000
0001
0000
0100
0010
0000
,  // measure 11
1000
0000
0001
0000
0100
0000
1000
0000
0001
0000
0010
1000
0000
0001
0100
0000
,  // measure 12
1000
1100
0000
0100
0001
1001
0000
1000
,  // measure 13
1010
0000
0000
0000
0011
0000
0000
0000
0010
0000
0100
0001
0000
1000
0010
0000
,  // measure 14
0100
0000
1000
0000
0010
0000
0001
0000
0100
0000
0001
0010
0000
1000
0100
0000
,  // measure 15
0001
0000
0010
0000
1000
0000
0001
0000
0010
0000
0100
0001
0000
0010
1000
0000
,  // measure 16
0001
1001
0000
1000
0010
0011
0000
0001
,  // measure 17
0101
0000
0000
0000
0110
0000
0000
0000
0100
0000
1000
0010
0000
0001
0100
0000
,  // measure 18
0001
0000
0010
0000
1000
0000
0100
0000
0001
0000
0100
1000
0000
0010
0001
0000
,  // measure 19
0100
0000
1000
0000
0010
0000
0100
0000
1000
0000
0001
0100
0000
1000
0010
0000
,  // measure 20
0100
0110
0000
0010
1000
1100
0000
0100
,  // measure 21
0101
0000
0000
0000
1001
0000
0000
0000
0001
0000
0010
1000
0000
0100
0001
0000
,  // measure 22
0010
0000
1000
0000
0001
0000
0100
0000
0010
0000
1000
0100
0000
0100
1000
0000
,  // measure 23
0010
0000
0100
0000
0001
0000
0010
0000
0100
0000
1000
0010
0000
0100
0001
0000
,  // measure 24
0010
0000
0001
0000
0100
0000
0010
0000
1000
0000
0100
1000
0000
0010
0100
0000
,  // measure 25
0001
0000
0100
0010
0100
0000
1000
0001
1000
0000
0010
0100
0000
0001
1000
0000
,  // measure 26
1000
0000
0010
0000
0100
0000
0001
0000
1000
0000
0010
0001
0000
0001
0010
0000
,  // measure 27
1000
0000
0001
0000
0100
0000
1000
0000
0001
0000
0010
1000
0000
0001
0100
0000
,  // measure 28
1000
0000
0100
0000
0001
0000
1000
0000
0010
0000
0001
0010
0000
1000
0001
0000
,  // measure 29
0010
0000
1000
0000
0100
0000
0010
0000
0001
0000
1000
0010
0100
0001
1000
0000
,  // measure 30
1001
0110
2002
3003
,  // measure 31
0110
1001
0220
0330
,  // measure 32
0001
0011
0000
1000
0010
1010
0000
1000
,  // measure 33
0011
0101
2020
3030
,  // measure 34
1100
0011
0202
0303
,  // measure 35
0011
1100
2020
3030
,  // measure 36
1000
0000
0001
0100
0001
0000
0100
0000
0010
0000
1000
0010
1000
0000
0010
0000
,  // measure 37
1000
0010
1000
0001
1000
0010
1000
0001
0100
0010
1000
0001
0100
0010
1000
0001
,  // measure 38
0100
0000
1000
0001
1000
0000
0010
0100
0000
0100
0010
0000
1000
0000
0100
0000
,  // measure 39
0001
0000
0010
0100
0010
0000
1000
0001
0000
0001
1000
0000
0010
0000
0001
0000
,  // measure 40
1000
0000
0001
0010
0001
0000
0100
1000
0000
1000
0100
0000
0001
0000
1000
0000
,  // measure 41
0010
0000
0100
1000
0100
0000
0001
0010
0000
0010
0001
0000
0100
0000
0010
0000
,  // measure 42
1010
0000
0100
0000
0011
0000
0100
0000
0110
0000
1000
0001
0000
0100
0010
0000
,  // measure 43
1000
0000
0010
0000
0100
0000
0001
0100
0000
0010
1000
0000
0010
0000
0100
0000
,  // measure 44
0001
0000
0010
0001
1000
0100
1000
0010
0000
0100
0001
0000
0010
0000
1000
0000
,  // measure 45
0001
0000
1000
0001
1000
0000
0001
1000
0001
0000
0100
0010
0000
1000
0001
0000
,  // measure 46
1100
0000
0000
0000
0011
0000
0000
0010
0000
0100
0000
0000
0001
0000
1000
0000
,  // measure 47
1100
0000
0000
0000
0011
0000
0000
1000
0000
0001
0000
0000
0100
0000
0010
0000
,  // measure 48
1000
1100
0000
0011
1000
1100
0000
0010
,  // measure 49
1010
0011
2002
3003
,  // measure 50
0011
0000
0000
0000
1100
0000
0000
1000
0000
0001
0000
0000
0100
0000
0010
0000
,  // measure 51
0011
0000
0000
0000
1100
0000
0000
0010
0000
0100
0000
0000
0001
0000
1000
0000
,  // measure 52
0010
0011
0000
1100
0010
0011
0000
1000
,  // measure 53
1010
1100
0220
0330
,  // measure 54
1000
0000
0001
0100
0001
0000
1000
0010
0000
0010
1000
0000
0010
0000
0100
0000
,  // measure 55
0001
0000
1000
0010
0100
0000
0001
0010
0000
0100
1000
0000
0010
0000
0100
0000
,  // measure 56
0001
0010
0001
0100
0000
0000
0010
1000
0000
0001
0100
0000
0010
0000
1000
0000
,  // measure 57
0001
0000
0010
1000
0001
0000
0100
0010
0000
1000
0001
0000
0100
0000
0010
0000
,  // measure 58
1010
0011
2002
3003
,  // measure 59
0011
1010
0220
0330
,  // measure 60
0001
0000
0100
0000
0010
1000
0001
0100
0010
0000
0100
0000
0001
1000
0010
0100
,  // measure 61
0001
0000
1000
0010
0100
0000
0001
0010
0000
0100
1000
0000
0010
0000
0100
0000
,  // measure 62
0001
0000
0100
0000
0010
0000
1000
0000
0001
0000
1000
0001
0000
0001
1000
0000
,  // measure 63
0010
0000
0100
0000
0001
0000
0010
0000
0100
0000
1000
0010
0000
0000
0000
0000
;

//---------------dance-single - ----------------
#NOTES:
     dance-single:
     :
     Hard:
     9:
     0.747,0.777,1.000,0.531,0.189: // measure 1
0000
0000
0000
0000
,  // measure 2
0010
1010
0000
0000
1000
1100
0000
0000
,  // measure 3
0100
0101
0000
0000
0001
0011
0000
0000
,  // measure 4
0001
0000
0010
0000
0100
0000
1000
0000
0010
0000
0100
0000
0001
1000
0001
1000
,  // measure 5
0002
0000
0000
0003
,  // measure 6
1010
0011
0202
0303
,  // measure 7
0011
1100
2020
3030
,  // measure 8
1000
1010
0000
0010
0100
0110
0000
0100
,  // measure 9
0101
1010
2200
3300
,  // measure 10
1010
1100
0202
0303
,  // measure 11
1100
0011
2020
3030
,  // measure 12
0010
1010
0000
1000
0001
1001
0000
0001
,  // measure 13
0101
1010
0022
0033
,  // measure 14
0101
0110
2020
3030
,  // measure 15
0110
1001
0202
0303
,  // measure 16
0001
0101
0000
0100
1000
1100
0000
1000
,  // measure 17
1010
0101
2002
3003
,  // measure 18
0101
1001
2020
3030
,  // measure 19
1001
0110
0202
0303
,  // measure 20
0100
0101
0000
0001
0010
0011
0000
0010
,  // measure 21
1010
0101
0220
0330
,  // measure 22
0010
0000
1000
0000
0100
0000
1000
0000
0010
0000
0100
0001
0000
0100
0001
0000
,  // measure 23
0010
0000
0100
0000
1000
0000
0010
0000
0100
0000
0001
0100
0000
0010
1000
0000
,  // measure 24
0001
0000
0100
0000
0010
0000
1000
0000
0100
0000
0010
0001
0000
0001
0100
0000
,  // measure 25
1000
0010
0100
0001
0010
0001
1000
0010
,  // measure 26
0100
0000
0001
0000
0010
0000
0100
0000
1000
0000
0010
1000
0000
1000
0010
0000
,  // measure 27
0100
0000
0001
0000
0010
0000
0100
0000
1000
0000
0001
0100
0000
0010
1000
0000
,  // measure 28
0001
0000
1000
0000
0100
0000
0010
0000
0100
0000
1000
0010
0000
0100
0001
0000
,  // measure 29
0100
0000
0010
0000
1000
0000
0001
0000
0100
0000
0010
0100
0000
0001
1000
0000
,  // measure 30
1010
0101
0011
0000
,  // measure 31
0011
0101
1010
0000
,  // measure 32
0010
0110
0000
0001
1000
1001
0000
0001
,  // measure 33
0011
1001
2200
3300
,  // measure 34
1001
1100
0022
0033
,  // measure 35
0101
1010
0220
0330
,  // measure 36
0001
0000
1000
0100
1000
0000
0010
0000
0100
0000
0001
0100
0001
0000
0100
0000
,  // measure 37
0010
1000
0100
0001
0010
0001
1000
0010
,  // measure 38
0110
0000
0000
0000
,  // measure 39
0000
0000
0000
0000
,  // measure 40
0000
0000
0000
0000
,  // measure 41
0000
0000
0000
0000
,  // measure 42
0110
1010
0022
0000
,  // measure 43
0033
0000
0000
0000
,  // measure 44
2200
0000
0000
0000
,  // measure 45
0000
0000
3300
0000
,  // measure 46
1000
0100
0001
0100
1000
0100
0010
0001
,  // measure 47
1000
0010
0100
0001
0010
0100
1000
0010
,  // measure 48
0100
0101
0000
0001
0010
0110
0000
0100
,  // measure 49
1100
1010
0202
0303
,  // measure 50
0001
1000
0010
1000
0001
1000
0100
0010
,  // measure 51
0001
0100
1000
0010
0100
1000
0001
0100
,  // measure 52
1000
1010
0000
0010
0100
1100
0000
1000
,  // measure 53
1001
0101
2020
3030
,  // measure 54
1000
0000
0010
1000
0010
0000
0100
0000
0001
0000
0100
0001
0010
0000
0100
0000
,  // measure 55
1000
0000
0001
0100
0001
0000
0010
0000
0100
0000
1000
0100
1000
0000
0010
0000
,  // measure 56
0100
0101
0000
1000
0001
0101
0000
0100
,  // measure 57
0010
0000
1000
0001
0100
0000
0010
1000
0000
1000
0010
0000
0100
0000
0001
0000
,  // measure 58
0011
1100
0220
0330
,  // measure 59
0101
1010
2002
3003
,  // measure 60
1000
0000
0010
0000
0100
0001
0100
0001
0100
0000
0010
0000
1000
0100
1000
0100
,  // measure 61
1000
0000
0001
0010
0001
0000
0100
0010
0000
0100
0010
0000
1000
0000
0001
0000
,  // measure 62
2002
0000
0000
0000
,  // measure 63
0000
0000
0000
0000
0000
0000
0000
0000
0000
0000
0000
3003
0000
0000
0000
0000
;
