#TITLE:duty;
#SUBTITLE:;
#ARTIST:Hate;
#TITLETRANSLIT:;
#SUBTITLETRANSLIT:;
#ARTISTTRANSLIT:;
#CREDIT:;
#BANNER:dutybanner.png;
#BACKGROUND:bgblack.PNG;
#LYRICSPATH:;
#CDTITLE:;
#MUSIC:duty - Hate.mp3;
#OFFSET:-13.800;
#SAMPLESTART:27.450;
#SAMPLELENGTH:13.700;
#SELECTABLE:YES;
#BPMS:0.000=139.000;
#STOPS:;
#BGCHANGES:;

//---------------dance-single - ----------------
#NOTES:
     dance-single:
     :
     Beginner:
     2:
     0.122,0.151,0.000,0.063,0.000: // measure 1
1000
0000
0000
0000
,  // measure 2
1000
0000
0000
0000
,  // measure 3
0001
0000
0000
0000
,  // measure 4
0001
0000
0000
0000
,  // measure 5
0100
0000
0000
0000
,  // measure 6
0100
0000
0000
0000
,  // measure 7
0010
0000
0000
0000
,  // measure 8
0010
0000
0000
0000
,  // measure 9
0010
0000
0010
0000
,  // measure 10
0010
0000
0000
0000
,  // measure 11
0020
0000
0000
0000
,  // measure 12
0030
0000
0000
0000
,  // measure 13
0001
0000
0001
0000
,  // measure 14
0001
0000
0000
0000
,  // measure 15
0002
0000
0000
0000
,  // measure 16
0003
0000
0000
0000
,  // measure 17
1000
0000
1000
0000
,  // measure 18
1000
0000
1000
0000
,  // measure 19
2000
0000
0000
0000
,  // measure 20
3000
0000
0000
0000
,  // measure 21
0100
0000
0100
0000
,  // measure 22
0100
0000
0100
0000
,  // measure 23
0200
0000
0000
0000
,  // measure 24
0300
0000
0000
0000
,  // measure 25
0010
0010
0010
0000
,  // measure 26
0010
0000
0010
0000
,  // measure 27
1000
1000
1000
0000
,  // measure 28
1000
0000
1000
0000
,  // measure 29
0001
0001
0001
0000
,  // measure 30
0001
0000
0001
0000
,  // measure 31
0100
0100
0100
0000
,  // measure 32
0100
0000
0100
0000
,  // measure 33
0010
0010
0010
0000
,  // measure 34
0010
0000
0010
0000
,  // measure 35
0020
0000
0000
0000
,  // measure 36
0030
0000
0000
0000
,  // measure 37
1000
1000
1000
0000
,  // measure 38
1000
0000
1000
0000
,  // measure 39
2000
0000
0000
0000
,  // measure 40
3000
0000
0000
0000
,  // measure 41
0001
0000
0001
0000
,  // measure 42
0001
0000
0001
0000
,  // measure 43
0100
0000
0100
0000
,  // measure 44
0100
0000
0100
0000
,  // measure 45
0010
0000
0010
0000
,  // measure 46
0010
0000
0010
0000
,  // measure 47
1000
0000
1000
0000
,  // measure 48
1000
0000
1000
0000
,  // measure 49
0001
0000
1000
0000
,  // measure 50
0001
0000
1000
0000
,  // measure 51
0001
0000
1000
0000
,  // measure 52
0001
0000
1000
0000
,  // measure 53
0010
0000
0100
0000
,  // measure 54
0010
0000
0100
0000
,  // measure 55
0010
0000
0000
0000
,  // measure 56
0200
0000
0000
0300
;

//---------------dance-single - ----------------
#NOTES:
     dance-single:
     :
     Easy:
     4:
     0.202,0.226,0.126,0.036,0.000: // measure 1
1000
1000
1000
0000
,  // measure 2
0001
0000
0001
0000
,  // measure 3
0100
0100
0100
0000
,  // measure 4
0010
0000
0010
0000
,  // measure 5
1000
0000
0100
0000
,  // measure 6
0010
0010
0010
0000
,  // measure 7
0001
0000
0010
0000
,  // measure 8
0100
0100
0100
0000
,  // measure 9
1000
0000
0100
0000
,  // measure 10
1000
0100
1000
0000
,  // measure 11
0200
0000
0000
0000
,  // measure 12
1300
0000
0000
0000
,  // measure 13
0001
0000
0010
0000
,  // measure 14
0001
0010
0001
0000
,  // measure 15
0020
0000
0000
0000
,  // measure 16
0031
0000
0000
0000
,  // measure 17
0100
0010
0100
0010
,  // measure 18
0100
0000
0010
0000
,  // measure 19
0200
0000
0000
0000
,  // measure 20
0310
0000
0000
0000
,  // measure 21
0001
1000
0001
1000
,  // measure 22
0001
0000
1000
0000
,  // measure 23
0002
0000
0000
0000
,  // measure 24
1003
0000
0000
0000
,  // measure 25
0010
0010
0010
0010
,  // measure 26
1000
1000
1000
1000
,  // measure 27
0100
0100
0100
0100
,  // measure 28
0001
0001
0001
0001
,  // measure 29
0010
0000
0001
0000
,  // measure 30
0100
0000
0010
0000
,  // measure 31
1000
0000
0100
0000
,  // measure 32
0010
0000
0001
0000
,  // measure 33
1000
1000
0001
0001
,  // measure 34
1000
0001
1000
0000
,  // measure 35
1001
0000
0110
0000
,  // measure 36
1001
0000
0000
0000
,  // measure 37
0010
0010
0100
0100
,  // measure 38
0010
0100
0010
0000
,  // measure 39
0110
0000
1001
0000
,  // measure 40
0110
0000
0000
0000
,  // measure 41
1000
0100
1000
0000
,  // measure 42
0100
1000
0100
0000
,  // measure 43
0010
0001
0010
0000
,  // measure 44
0001
0010
0001
0000
,  // measure 45
0100
0001
0100
0000
,  // measure 46
0001
0100
0001
0000
,  // measure 47
1000
0010
1000
0000
,  // measure 48
0010
1000
0010
0000
,  // measure 49
1001
0000
0110
0000
,  // measure 50
0110
0000
1001
0000
,  // measure 51
1000
0100
0010
0000
,  // measure 52
0001
0010
0100
0000
,  // measure 53
0110
0000
1001
0000
,  // measure 54
0110
0000
1001
0000
,  // measure 55
1000
0001
0100
0000
,  // measure 56
0010
1000
0001
0100
;

//---------------dance-single - ----------------
#NOTES:
     dance-single:
     :
     Medium:
     7:
     0.338,0.377,0.099,0.027,0.000: // measure 1
0010
1001
0100
1001
,  // measure 2
0010
0101
0010
1100
,  // measure 3
0010
1000
0100
0000
0010
0001
0100
0000
,  // measure 4
1000
0100
0001
0000
0001
0100
1000
0000
,  // measure 5
0010
1000
0100
0000
0010
0001
0100
0000
,  // measure 6
0010
0100
0001
0000
0010
0100
1000
0000
,  // measure 7
0010
0100
0001
0000
1000
0100
0010
0000
,  // measure 8
1001
1001
2002
0003
,  // measure 9
3001
0000
0100
0000
0010
1000
0010
0000
,  // measure 10
0100
0001
0010
0000
,  // measure 11
0001
0000
0000
0100
0000
0010
0000
1000
,  // measure 12
0000
0000
1000
0000
0000
0000
1000
0010
,  // measure 13
1000
0100
0010
0000
0100
1000
0001
0000
,  // measure 14
0100
0010
0100
0000
,  // measure 15
0001
0000
0000
0010
0000
0000
0000
0001
,  // measure 16
0000
0100
0000
0010
0000
0000
1000
0000
,  // measure 17
0100
0000
0010
0000
0100
0001
0010
0000
,  // measure 18
0001
0100
0010
0000
,  // measure 19
1000
0000
0000
0001
0000
1000
0000
0001
,  // measure 20
0000
0000
0000
0000
0000
0000
0100
0010
,  // measure 21
1000
0000
0100
0000
1000
0001
1000
0000
,  // measure 22
0010
0100
0001
0000
,  // measure 23
0010
0000
0000
0001
0000
1000
0000
0200
,  // measure 24
0000
0000
0000
0300
,  // measure 25
0010
1100
0010
0101
,  // measure 26
0001
0011
1000
1100
,  // measure 27
0010
0100
0001
0000
0100
0010
1000
0000
,  // measure 28
0001
0010
0100
0000
1000
0010
0100
0000
,  // measure 29
0001
0000
0100
0000
0010
1000
0100
0000
,  // measure 30
0010
0000
0100
0000
1000
0001
0100
0000
,  // measure 31
0010
0000
0100
0000
0001
0010
0001
0000
,  // measure 32
1000
0000
0010
0000
0100
0001
0100
0000
,  // measure 33
0010
0000
1000
0000
0010
1000
0010
0000
,  // measure 34
0100
0000
0001
0000
0100
0001
0100
0000
,  // measure 35
0001
0010
0001
0000
,  // measure 36
1000
0100
1000
0000
,  // measure 37
0010
0000
0100
0000
0010
0100
0010
0000
,  // measure 38
1000
0000
0001
0000
1000
0001
1000
0000
,  // measure 39
0001
0100
0001
0000
,  // measure 40
1000
0010
1000
0010
,  // measure 41
1000
0000
0100
0000
0010
0001
0010
0000
,  // measure 42
0100
0000
1000
0000
0001
1000
0100
0000
,  // measure 43
1000
0000
0010
0000
0100
0001
0100
0000
,  // measure 44
0010
1000
0001
0000
0010
0001
1000
0000
,  // measure 45
0010
0000
0001
0000
0100
0010
1000
0000
,  // measure 46
0100
0000
0010
0000
0100
1000
0001
0000
,  // measure 47
0100
0000
0010
0000
1000
0001
0010
0000
,  // measure 48
0001
0100
0010
0000
1000
0100
0010
0000
,  // measure 49
0001
0000
0100
0000
0010
1000
0001
0000
,  // measure 50
0010
0000
0100
0000
1000
0100
0010
0000
,  // measure 51
0001
0000
0100
0000
0010
1000
0001
0000
,  // measure 52
1000
0000
0010
0000
0100
0001
0100
0000
,  // measure 53
0010
1000
0100
0010
,  // measure 54
0100
1000
0001
0000
,  // measure 55
0100
0010
0100
0001
,  // measure 56
1000
0000
0100
0000
0010
0001
0010
0001
;

//---------------dance-single - ----------------
#NOTES:
     dance-single:
     :
     Hard:
     10:
     0.449,0.428,0.072,0.063,0.027: // measure 1
0010
1000
0100
0000
0010
0001
0100
0000
,  // measure 2
0100
0001
0010
0000
0100
1000
0010
0000
,  // measure 3
0100
0000
0001
0010
0100
0000
1000
0010
,  // measure 4
0100
0000
0010
1000
0002
0000
0103
0000
,  // measure 5
0010
0000
1000
0100
0010
0000
0010
0100
,  // measure 6
1000
0000
0001
0100
0010
0000
0010
0100
,  // measure 7
0001
0000
0010
0100
1000
0000
0001
0100
,  // measure 8
0020
0000
0000
0000
1030
0000
0100
0000
0010
0000
0100
0000
1000
0000
0001
0010
,  // measure 9
0001
0100
0010
1000
0001
0010
0100
1000
,  // measure 10
0010
0100
0001
0010
0000
0010
0001
0100
,  // measure 11
0010
0000
1000
0100
0000
0100
0000
2100
,  // measure 12
0000
0000
0000
0000
0010
0000
0000
0000
0000
0000
0000
0000
3000
0000
0010
1000
,  // measure 13
0010
1000
0100
0010
0001
1000
0010
0100
,  // measure 14
0001
0010
0100
1000
0000
1000
0010
0100
,  // measure 15
0001
0000
0010
0001
0000
0100
0000
0210
,  // measure 16
0000
0000
0010
0000
0000
0000
0310
0010
,  // measure 17
1000
0100
0010
0001
1000
0010
0100
0010
,  // measure 18
1000
0001
0010
0100
1000
0010
0100
0001
,  // measure 19
0010
0000
0010
0001
0000
0100
0000
0210
,  // measure 20
0000
0000
0010
0000
0000
0000
0310
0010
,  // measure 21
1000
0001
0010
0100
0010
0001
0100
1000
,  // measure 22
0100
0001
0010
0100
0000
1000
0010
0100
,  // measure 23
0001
0000
0010
0100
0000
1000
0000
2002
,  // measure 24
0000
0000
0000
3003
,  // measure 25
1000
0100
0010
0000
0001
0100
0010
0000
,  // measure 26
1000
0001
0010
0000
0100
1000
0001
0000
,  // measure 27
0100
0010
1000
0001
0010
0100
1000
0100
,  // measure 28
0010
0001
1000
0010
0100
0001
0010
0000
,  // measure 29
0010
0001
0100
0000
0100
0010
1000
0000
,  // measure 30
1000
0001
0010
0000
0010
0100
1000
0000
,  // measure 31
1000
0001
0100
0010
1000
0001
0010
0100
,  // measure 32
1000
0000
0000
0000
0010
0000
0100
0000
0001
0000
0000
0000
0010
0000
0100
1000
,  // measure 33
0100
1000
0100
0000
0010
0001
0010
0000
,  // measure 34
0100
1000
0100
0000
0010
0001
0010
0000
,  // measure 35
0100
1000
0010
0000
0100
0001
0010
0000
,  // measure 36
0100
1000
0001
0000
0001
1000
0100
0000
,  // measure 37
0010
0001
0100
0000
0010
1000
0100
0000
,  // measure 38
0010
0100
1000
0000
0001
0100
0010
0000
,  // measure 39
1000
0100
0010
0001
1000
0010
0100
0000
,  // measure 40
0101
1010
1100
0011
,  // measure 41
0010
0001
0100
1000
0100
0001
0010
0000
,  // measure 42
0010
0100
1000
0001
0100
0010
1000
0000
,  // measure 43
0010
0100
0001
0010
0100
1000
0010
0000
,  // measure 44
1000
0100
0010
0001
1000
0100
0001
0000
,  // measure 45
0100
0010
1000
0001
0010
0100
1000
0000
,  // measure 46
0010
1000
0100
0001
0100
0010
1000
0000
,  // measure 47
0001
0010
0100
1000
0010
0100
0001
0000
,  // measure 48
0010
0000
0100
0000
1000
0001
0100
0000
,  // measure 49
0010
0000
1000
0000
0100
0010
0001
0000
,  // measure 50
0100
0000
0010
0000
1000
0001
0010
0000
,  // measure 51
0100
0000
1000
0000
0001
1000
0100
0000
,  // measure 52
0010
0000
0001
0000
0100
0010
1000
0000
,  // measure 53
0010
0100
0001
0100
,  // measure 54
0010
1000
0001
0010
,  // measure 55
0100
1000
0010
0100
,  // measure 56
0001
0000
0000
0001
0100
0000
0000
0100
0010
0000
0000
0010
1000
0000
0001
0000
;
