#TITLE:Warlords of Atlantis;
#SUBTITLE:;
#ARTIST:sakuzyo;
#TITLETRANSLIT:;
#SUBTITLETRANSLIT:;
#ARTISTTRANSLIT:;
#CREDIT:;
#BANNER:;
#BACKGROUND:;
#LYRICSPATH:;
#CDTITLE:;
#MUSIC:Warlords of Atlantis.mp3;
#OFFSET:-7.760;
#SAMPLESTART:14.580;
#SAMPLELENGTH:12.000;
#SELECTABLE:YES;
#BPMS:0.000=140.000;
#STOPS:;
#BGCHANGES:;

//---------------dance-single - ----------------
#NOTES:
     dance-single:
     :
     Beginner:
     1:
     0.069,0.094,0.000,0.025,0.000:
1000
0000
0000
0000
,
0001
0000
0000
0000
,
0100
0000
0000
0000
,
0020
0000
0030
0000
,
0010
0000
0000
0000
,
0100
0000
0000
0000
,
0001
0000
0000
0000
,
0000
0000
0000
0000
,
1000
0000
0000
0000
,
0100
0000
0000
0000
,
0010
0000
0000
0000
,
0000
0000
0000
0000
,
0001
0000
0000
0000
,
1000
0000
0000
0000
,
0100
0000
0000
0000
,
0000
0000
0000
0000
,
1000
0000
0000
0000
,
0001
0000
0000
0000
,
0010
0000
0000
0000
,
0000
0000
0000
0000
,
1000
0000
0100
0000
,
1000
0000
0000
0000
,
0001
0000
0010
0000
,
0001
0000
0000
0000
,
0100
0000
0000
0000
,
0010
0000
0000
0000
,
0100
0000
0000
0000
,
0010
0000
0000
0000
,
1000
0000
0010
0000
,
1000
0000
0000
0000
,
0001
0000
0100
0000
,
0001
0000
0000
0000
,
0010
0000
0000
0000
,
0001
0000
0000
0000
,
0100
0000
0000
0000
,
1000
0000
0000
0000
,
0020
0000
0000
0000
,
0000
0000
0000
0000
,
0030
0000
0000
0000
;

//---------------dance-single - ----------------
#NOTES:
     dance-single:
     :
     Easy:
     3:
     0.157,0.211,0.000,0.037,0.000:
1000
0000
0000
0000
,
0001
0000
0000
0000
,
0100
0000
0000
0000
,
0020
0000
0030
0000
,
0010
0000
1000
0000
,
0010
0000
0000
0000
,
0100
0000
0001
0000
,
0100
0000
0000
0000
,
0010
0000
1000
0000
,
0100
0000
0000
0000
,
0010
0000
0001
0000
,
0100
0000
0000
0000
,
0010
0000
1000
0000
,
0001
0000
0000
0000
,
0001
0000
1000
0000
,
0100
0000
0000
0000
,
0100
0000
1000
0000
,
0010
0000
0000
0000
,
0100
0000
0001
0000
,
0010
0000
0000
0000
,
0001
0010
0001
0010
,
0001
0001
0010
0010
,
0100
1000
0100
0100
,
1000
1000
0100
0000
,
1000
0001
1000
1000
,
0001
0001
1000
1000
,
0010
0100
0010
0010
,
0100
0100
0010
0000
,
0010
1000
0100
0100
,
0010
0010
0001
0001
,
1000
0010
0001
0001
,
0100
0100
1000
1000
,
0010
0100
0001
0001
,
1000
1000
0001
0001
,
0010
0000
0100
0000
,
2000
0000
0000
0000
,
3002
0000
0000
0000
,
0000
0000
0000
0000
,
0003
0000
0000
0000
;

//---------------dance-single - ----------------
#NOTES:
     dance-single:
     :
     Medium:
     6:
     0.252,0.264,0.000,0.037,0.000:
1000
0000
0100
0000
,
0010
0000
0001
0000
,
0100
0000
0010
0000
,
2000
0000
3000
0000
,
0001
0100
0010
1000
,
0100
0000
1000
0000
0001
0100
0010
0000
,
0100
0001
0010
0100
,
1000
0000
0001
0000
0100
0010
0100
0000
,
0001
0010
0100
1000
,
0001
0000
0100
0000
0010
1000
0010
0000
,
0100
0001
0010
0100
,
1000
0000
0001
0000
0000
0001
0100
0000
,
0010
1000
0100
1000
,
0001
0000
0100
0000
0010
1000
0010
0000
,
0100
0001
0010
0100
,
1000
0000
0100
0000
0010
0001
0100
0000
,
0010
1000
0001
0010
,
0100
0000
1000
0000
0001
0010
0100
0000
,
1000
0010
0100
0001
,
0010
0000
0000
0000
,
0001
0000
0010
0000
0001
0010
0001
0000
,
0100
0010
1000
0000
,
1000
0000
0010
0000
0100
0001
0100
0000
,
0010
1000
0001
0000
,
0010
0000
0100
0000
1000
0001
0100
0000
,
0010
0100
0001
0000
,
0010
0000
0100
0000
1000
0100
1000
0000
,
0010
0100
0001
0000
,
0010
0000
0001
0000
0100
0010
0100
0000
,
0001
0010
0100
1000
,
0010
0000
1000
0000
0100
0001
0100
0000
,
0010
1000
0001
0010
,
0100
0000
1000
0000
0100
0010
0100
0000
,
1000
0000
0001
0000
0100
0010
0100
0000
,
0001
0010
0100
1000
,
0020
0000
0000
0000
,
0200
0000
0000
0000
,
0000
0000
0000
0000
,
0030
0000
0000
0000
,
0300
0000
0000
0000
;

//---------------dance-single - ----------------
#NOTES:
     dance-single:
     :
     Hard:
     11:
     0.446,0.518,0.025,0.049,0.173: // measure 1
1000
0000
0010
0100
0000
0100
0010
0000
,  // measure 2
1000
0000
0001
1000
0000
1000
0001
0000
,  // measure 3
0010
0000
0100
1000
0000
0001
0100
0000
,  // measure 4
0120
0000
0000
0000
,  // measure 5
1030
0000
0100
0000
1000
0001
0100
0000
,  // measure 6
0010
0000
0100
0000
0001
1000
0100
0000
,  // measure 7
0010
0000
0100
0000
1000
0001
0100
0000
,  // measure 8
0010
1000
0001
0010
0100
1000
0100
0000
,  // measure 9
0010
0000
0001
0000
0100
0010
0100
0000
,  // measure 10
0001
0000
1000
0000
0100
0010
0001
0000
,  // measure 11
0100
0000
0010
0000
1000
0001
0010
0000
,  // measure 12
0010
0001
0100
0010
1000
0001
0010
0000
,  // measure 13
0010
0001
0100
0000
0010
1000
0100
0000
,  // measure 14
1000
0001
0100
0010
1000
0001
0010
0000
,  // measure 15
0001
0100
0010
0000
1000
0100
0010
0000
,  // measure 16
0010
0001
0100
0010
1000
0001
0010
0000
,  // measure 17
0010
0001
0100
0000
0100
0010
1000
0000
,  // measure 18
1000
0001
0100
0010
0100
0001
0010
0000
,  // measure 19
0100
1000
0010
0100
0001
0100
1000
0100
,  // measure 20
0020
0000
0000
0000
,  // measure 21
0031
0000
0000
0100
0000
0000
0010
0000
1000
0100
1000
0000
0010
0000
0100
0000
,  // measure 22
0001
0000
0010
0000
0100
0000
1000
0000
0001
0100
0001
0000
0100
0000
0010
0000
,  // measure 23
1000
0010
0000
0000
1000
0000
0100
0010
0000
0000
0100
0000
1000
0000
0001
0000
,  // measure 24
0100
0000
0000
0000
0010
0000
0000
0000
0100
0000
0000
0000
0010
0000
0000
0000
0000
0000
1000
0000
0000
0000
0000
0000
0001
0000
0000
0100
0000
0000
0001
0000
0000
0000
0000
0000
0010
0000
0000
0000
0000
0000
0100
0000
0000
0000
0000
0000
,  // measure 25
1000
0000
0001
0000
0100
0000
0010
0000
1000
0010
1000
0000
0010
0000
0100
0000
,  // measure 26
0001
0000
0010
0000
0100
0000
1000
0001
0100
0000
0010
0000
1000
0000
0001
0000
,  // measure 27
0010
0000
0100
0000
1000
0000
0100
0000
0010
0001
0010
0000
0001
0000
0100
0000
,  // measure 28
0010
1000
0010
1000
0010
0000
0100
0001
0100
0000
0010
0000
1000
0000
0100
0000
,  // measure 29
0001
0000
0000
0100
0000
0000
1000
0000
0010
0000
0100
0000
0001
0000
0010
0000
,  // measure 30
0100
1000
0100
0000
0010
0000
0001
0000
1000
0010
1000
0000
0010
0000
0100
0000
,  // measure 31
0001
0010
0000
0000
0001
0000
0100
0010
0000
0000
1000
0000
0100
0000
1000
0000
,  // measure 32
0001
0010
0000
0010
0001
0000
0100
0000
0010
1000
0000
1000
0010
0000
0100
0000
,  // measure 33
0001
0100
0001
0000
0010
0000
0100
0000
1000
0000
0001
0000
0100
0000
0010
1000
,  // measure 34
0010
0000
1000
0000
0001
0000
0010
0000
0100
1000
0100
0000
0010
0000
0001
0000
,  // measure 35
1000
0000
0010
0100
0010
0000
1000
0001
1000
0000
0001
0000
0100
0000
0010
0000
,  // measure 36
1000
0000
0000
0000
,  // measure 37
2002
0000
0000
0000
,  // measure 38
0000
0000
0000
0000
,  // measure 39
0000
0000
0000
0000
,  // measure 40
0000
0000
0000
0000
,  // measure 41
3003
0000
0000
0000
;
