#TITLE:Rip a CHANCE;
#SUBTITLE:;
#ARTIST:Ym1024;
#TITLETRANSLIT:;
#SUBTITLETRANSLIT:;
#ARTISTTRANSLIT:;
#CREDIT:;
#BANNER:banner.png;
#BACKGROUND:background.png;
#LYRICSPATH:;
#CDTITLE:;
#MUSIC:Rip a CHANCE.mp3;
#OFFSET:-13.600;
#SAMPLESTART:33.840;
#SAMPLELENGTH:12.000;
#SELECTABLE:YES;
#BPMS:0.000=142.000,48.000=142.260;
#STOPS:;
#BGCHANGES:;

//---------------dance-single - ----------------
#NOTES:
     dance-single:
     :
     Hard:
     10:
     0.386,0.393,0.012,0.049,0.085: // measure 1
0010
1000
0010
1000
0001
0100
0001
0000
,  // measure 2
0100
0001
0100
0001
1000
0010
1000
0000
,  // measure 3
0010
0100
0010
0100
0001
1000
0001
0000
,  // measure 4
0001
1000
0001
1000
0010
0100
0010
0000
,  // measure 5
0010
1000
0100
0000
0010
0001
0100
0000
,  // measure 6
0100
0001
0010
0000
0100
1000
0010
0000
,  // measure 7
1000
0001
1000
0001
,  // measure 8
1000
0001
1000
0001
0100
0010
1000
0001
,  // measure 9
0020
0000
0000
0000
,  // measure 10
0130
0000
1000
0000
0001
0000
0000
0010
0000
0001
0000
0000
0100
0000
0010
0000
,  // measure 11
2002
0000
0000
0000
,  // measure 12
0000
0000
0000
3003
,  // measure 13
1000
0100
0010
0000
0010
0100
1000
0000
,  // measure 14
1000
0001
0100
0010
1000
0001
0010
0000
,  // measure 15
0010
0001
0100
0010
1000
0001
0010
0000
,  // measure 16
0100
0000
0000
1000
0000
0000
0010
0000
0000
0100
0000
0000
0001
0000
0010
0000
,  // measure 17
0001
0100
0010
0000
1000
0100
0010
0000
,  // measure 18
0010
0100
1000
0001
0100
0010
1000
0000
,  // measure 19
0010
0100
0001
0000
0010
0100
1000
0000
,  // measure 20
0001
0000
0000
1000
0000
0000
0100
0000
0000
0001
0000
0000
0010
0000
1000
0000
,  // measure 21
0100
1000
0010
0100
0001
0010
0100
0000
,  // measure 22
0010
0001
0100
1000
0100
0001
0010
0000
,  // measure 23
0010
1000
0100
0001
0100
1000
0010
0000
,  // measure 24
0100
0000
0000
0001
0000
0000
1000
0000
0000
0001
0000
0000
0010
0000
0100
0000
,  // measure 25
0001
0100
0010
1000
0100
0010
0100
0000
,  // measure 26
1000
0001
0100
0010
1000
0001
0010
0000
,  // measure 27
0001
0100
0010
1000
0001
0010
0100
0000
,  // measure 28
1000
0000
0000
0100
0000
0000
0010
0000
0000
0001
0000
0000
0100
0000
0010
0000
,  // measure 29
0000
1000
0000
0001
,  // measure 30
0000
0000
0001
0100
1000
0100
0001
0000
,  // measure 31
0001
0010
1000
0010
0001
0100
0010
0000
,  // measure 32
1000
0000
0000
0010
0000
0000
0100
0000
0000
0001
0000
0000
1000
0000
0010
0000
,  // measure 33
0100
0001
0010
0100
1000
0100
0010
0001
,  // measure 34
1000
0010
0001
0010
1000
0100
0010
0001
,  // measure 35
0100
0010
1000
0001
0010
0100
1000
0001
,  // measure 36
0100
0000
0000
0001
0000
0000
0010
0000
0000
0100
0000
0000
1000
0000
0001
0000
,  // measure 37
0020
0000
0000
0000
,  // measure 38
0000
0000
0000
0000
,  // measure 39
0030
0000
0000
0000
;

//---------------dance-single - ----------------
#NOTES:
     dance-single:
     :
     Beginner:
     1:
     0.064,0.109,0.024,0.000,0.000:
1000
0000
0000
0000
,
0001
0000
0000
0000
,
1000
0000
0000
0000
,
0001
0000
0000
0000
,
0100
0000
0000
0000
,
0010
0000
0000
0000
,
0100
0000
0000
0000
,
0010
0000
0000
0000
,
1001
0000
0000
0000
,
1001
0000
0000
0000
,
0100
0000
0000
0000
,
0000
0000
0000
0000
,
1000
0000
0000
0000
,
0001
0000
0000
0000
,
0100
0000
0000
0000
,
0010
0000
0000
0000
,
0010
0000
0000
0000
,
0100
0000
0000
0000
,
0001
0000
0000
0000
,
1000
0000
0000
0000
,
1000
0000
0000
0000
,
0100
0000
0000
0000
,
0010
0000
0000
0000
,
0001
0000
0000
0000
,
0100
0000
0000
0000
,
0001
0000
0000
0000
,
0010
0000
0000
0000
,
0100
0000
0000
0000
,
1000
0000
0000
0000
,
0000
0000
0000
0000
,
0001
0000
0000
0000
,
0100
0000
0000
0000
,
0001
0000
0000
0000
,
1000
0000
0000
0000
,
0100
0000
0000
0000
,
0010
0000
0000
0000
,
0001
0000
0000
0000
;

//---------------dance-single - ----------------
#NOTES:
     dance-single:
     :
     Medium:
     7:
     0.290,0.285,0.061,0.049,0.000:
1000
0000
0100
0000
1000
0100
1000
0000
,
0001
0000
0010
0000
0001
0010
0001
0000
,
0100
0000
0010
0000
0100
0010
0100
0000
,
0001
0000
1000
0000
0001
1000
0001
0000
,
0100
0001
0100
0000
0010
1000
0010
0000
,
0100
0010
0100
0000
0001
1000
0001
0000
,
1000
0100
0010
0001
,
1000
0001
1000
0001
1000
0001
1000
0001
,
2000
0000
0000
0000
,
3001
0000
0001
0000
1000
0001
1000
0000
,
2002
0000
0000
0000
,
0000
0000
0000
3003
,
1000
0000
0100
0000
0010
0001
0100
0000
,
0010
1000
1100
0000
,
0100
0000
1000
0000
0010
0100
0001
0000
,
0010
0100
0110
0000
,
0010
0000
0001
0000
0100
1000
0100
0000
,
0010
0001
0101
0000
,
0100
0000
0010
0000
1000
0001
0010
0000
,
0100
1000
1010
0000
,
0010
0000
1000
0000
0100
0010
0100
0000
,
1000
0001
1000
0000
0001
0000
0100
0000
,
0010
0000
1000
0000
0100
0010
0100
0000
,
1000
0001
1000
0000
0010
0000
0100
0000
,
0001
0010
0001
0000
1000
0100
1000
0000
,
0001
0100
0010
1000
,
0001
0010
0100
0000
0100
0010
0001
0000
,
0100
0010
0000
0000
1000
0000
0001
0000
,
0020
0000
0100
0000
,
0000
0130
1000
0001
,
0100
0000
0010
0000
1000
0100
0010
0000
,
0001
0100
0010
0000
0100
0000
0001
0000
,
0010
0000
0100
0000
1000
0001
0100
0000
,
0010
0000
0100
0001
0010
0000
0100
0000
,
1000
0000
0010
0100
0001
0000
0010
0000
,
0100
1000
0001
0100
,
0010
0000
0000
0000
;

//---------------dance-single - ----------------
#NOTES:
     dance-single:
     :
     Easy:
     4:
     0.184,0.197,0.024,0.000,0.000:
1000
0000
0001
0000
,
1000
0000
0001
0000
,
0100
0000
0010
0000
,
0100
0000
0010
0000
,
1000
1000
0001
0001
,
1000
1000
0001
0001
,
0100
0010
0100
0010
,
1000
0100
0010
0001
,
1000
0000
0000
0000
,
0010
0000
0100
0000
,
1001
0000
0000
0000
,
0000
0000
0000
0000
,
0001
0100
0001
0000
,
0100
0010
0100
0000
,
0010
1000
0010
0000
,
1000
0100
1000
0000
,
0001
0010
0001
0000
,
0100
0010
0100
0000
,
0001
1000
0001
0000
,
1000
0100
1000
0000
,
0010
0100
0010
0100
,
0010
0100
0010
0000
,
1000
0001
1000
0001
,
1000
0001
1000
0000
,
0001
0100
0001
0100
,
0001
0100
0001
0000
,
1000
0010
1000
0010
,
1000
0010
1000
0000
,
0100
0000
0000
0000
,
1000
0010
1000
0010
,
0100
0000
0001
0010
,
0100
0010
0001
0000
,
0100
0000
0010
0000
,
1000
0100
0010
0001
,
1000
0010
0100
0001
,
1000
0000
0001
0000
,
1001
0000
0000
0000
;
