#TITLE:RUSTWATER;
#SUBTITLE:;
#ARTIST:zio;
#TITLETRANSLIT:;
#SUBTITLETRANSLIT:;
#ARTISTTRANSLIT:;
#CREDIT:;
#BANNER:;
#BACKGROUND:;
#LYRICSPATH:;
#CDTITLE:;
#MUSIC:RUSTWATER.mp3;
#OFFSET:-11.040;
#SAMPLESTART:65.900;
#SAMPLELENGTH:12.000;
#SELECTABLE:YES;
#BPMS:0.000=175.000,128.000=87.500,144.000=175.000,176.000=87.500;
#STOPS:;
#BGCHANGES:;

//---------------dance-single - ----------------
#NOTES:
     dance-single:
     :
     Hard:
     11:
     0.470,0.502,0.106,0.070,0.023: // measure 1
0010
0000
1001
0000
0000
0100
0001
0000
,  // measure 2
0010
0000
0011
0000
0000
0010
0100
0000
,  // measure 3
1000
0000
1010
0000
0000
0010
0100
0000
,  // measure 4
0001
0000
0011
0000
0000
0010
0001
0000
,  // measure 5
0100
0000
0110
0000
0000
0010
1000
0000
,  // measure 6
0100
0000
1100
0000
0000
1000
0010
0000
,  // measure 7
0100
0000
0101
0000
0000
0001
0010
0000
,  // measure 8
0100
0000
0110
0000
0000
0100
1000
0000
,  // measure 9
1000
0010
0100
0000
0001
0010
0100
0010
,  // measure 10
0001
0100
0010
0000
1000
0100
1000
0000
,  // measure 11
0010
0100
0001
0000
0100
0010
1000
0001
,  // measure 12
0010
0100
1000
0000
0000
0010
0100
0000
,  // measure 13
0001
0010
0001
0000
0100
0010
1000
0001
,  // measure 14
0010
0100
1000
0000
0000
0100
0010
0000
,  // measure 15
0001
0100
0010
0000
1000
0010
0100
0001
,  // measure 16
0010
0100
1000
0000
0000
0001
0100
0000
,  // measure 17
0010
0000
1000
0100
0000
0100
1000
0010
,  // measure 18
0100
0001
0010
0000
0000
0010
0001
0000
,  // measure 19
0100
0000
0010
1000
0000
0001
0010
0100
,  // measure 20
0010
0001
0100
0000
0010
1000
0100
0000
,  // measure 21
1000
0000
0010
0100
0000
0100
0010
1000
,  // measure 22
0001
0010
0100
0000
0000
1000
0100
0000
,  // measure 23
0010
0000
0001
0100
0000
0100
0001
0010
,  // measure 24
0100
1000
0010
0000
0100
0001
0100
0000
,  // measure 25
0010
1000
0100
0001
0100
1000
0010
0100
,  // measure 26
0001
0010
0100
1000
0010
0001
0010
1000
,  // measure 27
0100
0001
0100
1000
0010
0100
0001
0010
,  // measure 28
0100
1000
0010
0001
0010
1000
0100
0001
,  // measure 29
0010
0100
1000
0010
0100
0001
0010
0100
,  // measure 30
1000
0010
0100
0010
1000
0001
0010
0100
,  // measure 31
1000
0001
0100
1000
0100
0001
0010
1000
,  // measure 32
0010
0100
0001
0010
0100
1000
0010
0100
,  // measure 33
0002
0000
0203
0000
,  // measure 34
0000
0000
0320
0000
,  // measure 35
0000
0000
2030
0000
,  // measure 36
0000
0000
3001
0000
,  // measure 37
0001
0100
0010
1000
0001
0010
0100
1000
,  // measure 38
0100
0000
0010
0000
0001
0000
1000
0000
0010
0000
0100
0000
0001
0100
0001
0000
,  // measure 39
0010
0100
1000
0010
0100
0010
1000
0001
,  // measure 40
0010
0000
0100
0000
1000
0000
0001
0000
0100
0000
0010
0000
1000
0010
1000
0000
,  // measure 41
0010
0100
0001
0010
0100
1000
0010
0100
,  // measure 42
0001
0000
0010
0000
0001
0000
0100
0000
0010
0000
1000
0000
0100
1000
0100
0000
,  // measure 43
0010
0100
1000
0001
0100
0010
1000
0001
,  // measure 44
0010
0000
0100
0000
1000
0000
0010
0000
0100
0000
0001
0000
0010
0100
0010
0000
,  // measure 45
2002
0000
0000
0000
,  // measure 46
3003
0000
0000
0000
;

//---------------dance-single - ----------------
#NOTES:
     dance-single:
     :
     Beginner:
     3:
     0.138,0.233,0.012,0.000,0.000: // measure 1
0000
1000
0000
1000
,  // measure 2
0000
0001
0000
0001
,  // measure 3
0000
0100
0000
0100
,  // measure 4
0000
0010
0000
0010
,  // measure 5
0000
0100
0000
0100
,  // measure 6
0000
0001
0000
0001
,  // measure 7
0000
1000
0000
1000
,  // measure 8
0000
0010
0000
0010
,  // measure 9
0010
0000
0010
0000
,  // measure 10
0010
0000
0000
0000
,  // measure 11
0100
0000
0100
0000
,  // measure 12
0100
0000
0000
0000
,  // measure 13
0001
0000
0001
0000
,  // measure 14
0001
0000
0000
0000
,  // measure 15
1000
0000
1000
0000
,  // measure 16
1000
0000
0000
0000
,  // measure 17
0010
0000
0000
0000
,  // measure 18
0100
0000
0000
0000
,  // measure 19
0001
0000
0000
0000
,  // measure 20
1000
0000
0000
0000
,  // measure 21
0010
0000
0000
0000
,  // measure 22
1000
0000
0000
0000
,  // measure 23
0100
0000
0000
0000
,  // measure 24
0001
0000
0000
0000
,  // measure 25
0001
0000
0001
0000
,  // measure 26
0001
0000
0000
0000
,  // measure 27
0100
0000
0100
0000
,  // measure 28
0100
0000
0000
0000
,  // measure 29
0010
0000
0010
0000
,  // measure 30
0010
0000
0000
0000
,  // measure 31
1000
0000
1000
0000
,  // measure 32
1000
0000
0000
0000
,  // measure 33
0000
0000
0010
0000
,  // measure 34
0000
0000
1000
0000
,  // measure 35
0000
0000
0100
0000
,  // measure 36
0000
0000
0001
0000
,  // measure 37
0010
0010
0010
0010
,  // measure 38
0010
0010
0010
0000
,  // measure 39
0100
0100
0100
0100
,  // measure 40
0100
0100
0100
0000
,  // measure 41
0001
0001
0001
0001
,  // measure 42
0001
0001
0001
0000
,  // measure 43
1000
1000
1000
1000
,  // measure 44
1000
1000
1000
0000
,  // measure 45
1001
0000
0000
0000
;

//---------------dance-single - ----------------
#NOTES:
     dance-single:
     :
     Medium:
     7:
     0.334,0.344,0.012,0.023,0.000: // measure 1
1000
0000
0100
0000
0000
0100
1000
0000
,  // measure 2
0001
0000
0010
0000
0000
0010
0001
0000
,  // measure 3
0100
0000
0010
0000
0000
0010
0100
0000
,  // measure 4
1000
0000
0100
0000
0000
0010
0001
0000
,  // measure 5
0100
0000
0010
0000
0000
1000
0100
0000
,  // measure 6
0010
0000
0100
0000
0000
1000
0010
0000
,  // measure 7
0100
0000
0001
0000
0000
0010
0100
0000
,  // measure 8
0010
0000
0001
0000
0000
0100
0010
0000
,  // measure 9
1000
0100
1000
0000
0001
0010
0001
0000
,  // measure 10
0100
0000
0010
0000
0000
0010
0100
0000
,  // measure 11
0001
0010
0001
0000
1000
0010
1000
0000
,  // measure 12
0001
0000
0100
0000
0000
0100
0001
0000
,  // measure 13
0010
0001
0010
0000
0100
1000
0100
0000
,  // measure 14
1000
0000
0010
0000
0000
0010
1000
0000
,  // measure 15
0100
0010
0100
0000
1000
0001
1000
0001
,  // measure 16
1000
0000
0010
0000
0000
0100
0010
0000
,  // measure 17
0100
0000
0010
1000
0000
1000
0010
0000
,  // measure 18
0100
0000
0001
0000
0000
0001
0100
0000
,  // measure 19
0010
0000
1000
0100
0000
0100
1000
0000
,  // measure 20
0001
0000
0010
0000
0000
0010
0001
0000
,  // measure 21
0100
0000
0010
1000
0000
1000
0010
0000
,  // measure 22
0100
0000
0001
0000
0000
0010
0001
0000
,  // measure 23
0100
0000
0010
1000
0000
1000
0001
0000
,  // measure 24
0010
0000
0100
0000
0000
0100
0010
0000
,  // measure 25
0001
0000
0100
0000
0010
1000
0100
0000
,  // measure 26
1000
0000
0010
0000
0100
0001
0010
0000
,  // measure 27
0100
0000
0010
0000
0001
1000
0010
0000
,  // measure 28
0100
0000
0001
0000
0010
0100
0010
0000
,  // measure 29
0001
0000
1000
0000
0010
0100
0001
0000
,  // measure 30
0010
0000
0100
0000
1000
0100
0010
0000
,  // measure 31
0001
0000
1000
0000
0010
0100
0001
0000
,  // measure 32
0100
0000
0010
0000
1000
0001
0010
0000
,  // measure 33
0000
0000
0100
0000
,  // measure 34
0000
0000
1000
0000
,  // measure 35
0000
0000
0010
0000
,  // measure 36
0000
0000
0001
0000
,  // measure 37
0010
0000
0001
0000
0100
0010
1000
0000
,  // measure 38
0100
0000
0010
0000
0100
1000
0001
0000
,  // measure 39
0100
0000
0010
0000
0100
0001
0010
0000
,  // measure 40
0100
0000
1000
0000
0010
0100
0001
0010
,  // measure 41
0001
0000
0100
0000
0010
1000
0001
0000
,  // measure 42
0010
0000
0100
0000
1000
0001
0100
0000
,  // measure 43
0010
0000
0100
0000
0001
0010
0100
0000
,  // measure 44
1000
0000
0010
0100
0001
0010
0100
0000
,  // measure 45
2002
0000
0000
0000
,  // measure 46
3003
0000
0000
0000
;

//---------------dance-single - ----------------
#NOTES:
     dance-single:
     :
     Easy:
     5:
     0.240,0.238,0.000,0.012,0.000: // measure 1
1000
0010
0000
0010
,  // measure 2
1000
0100
0000
0100
,  // measure 3
1000
0001
0000
0001
,  // measure 4
0100
0010
0000
0010
,  // measure 5
0100
0001
0000
0001
,  // measure 6
0010
0100
0000
0100
,  // measure 7
1000
0001
0000
0001
,  // measure 8
0100
0010
0000
0010
,  // measure 9
1000
0100
1000
0100
,  // measure 10
0010
0001
0000
0001
,  // measure 11
0010
0001
1000
0100
,  // measure 12
1000
0100
0000
1000
,  // measure 13
0010
1000
0001
0100
,  // measure 14
0001
0010
0000
0100
,  // measure 15
1000
0100
0010
0001
,  // measure 16
0010
0001
0000
0100
,  // measure 17
0010
0100
0010
0100
,  // measure 18
0001
1000
0000
1000
,  // measure 19
0001
0100
0001
0100
,  // measure 20
0010
1000
0000
1000
,  // measure 21
0010
0100
0010
0100
,  // measure 22
0001
1000
0000
1000
,  // measure 23
0001
1000
0001
0100
,  // measure 24
0010
0100
0000
0100
,  // measure 25
0010
0000
1000
0000
,  // measure 26
0100
0010
0100
1000
,  // measure 27
0001
0000
0100
0000
,  // measure 28
0010
0100
0001
0010
,  // measure 29
0100
0000
1000
0000
,  // measure 30
0001
0100
0010
1000
,  // measure 31
0001
0000
0010
0000
,  // measure 32
0001
0100
0010
1000
,  // measure 33
0001
0000
0001
0000
,  // measure 34
0000
0000
0010
0000
,  // measure 35
0000
0000
0100
0000
,  // measure 36
0000
0000
1000
0000
,  // measure 37
1000
0010
0100
0001
,  // measure 38
1000
0010
0100
0001
,  // measure 39
1000
0100
0010
0001
,  // measure 40
1000
0100
0010
0001
,  // measure 41
1000
0010
1000
0010
,  // measure 42
0100
0001
0100
0001
,  // measure 43
0010
0100
1000
0001
,  // measure 44
0100
0010
1000
0001
,  // measure 45
0020
0000
0000
0000
,  // measure 46
0030
0000
0000
0000
;
