#TITLE:Poppin' Shower;
#SUBTITLE:;
#ARTIST:P*Light;
#TITLETRANSLIT:;
#SUBTITLETRANSLIT:;
#ARTISTTRANSLIT:;
#CREDIT:;
#BANNER:;
#BACKGROUND:;
#LYRICSPATH:;
#CDTITLE:;
#MUSIC:Poppin' Shower.ogg;
#OFFSET:-5.500;
#SAMPLESTART:21.940;
#SAMPLELENGTH:10.980;
#SELECTABLE:YES;
#BPMS:0.000=175.000;
#STOPS:;
#BGCHANGES:;

//---------------dance-single - ----------------
#NOTES:
     dance-single:
     :
     Hard:
     12:
     0.619,0.560,0.199,0.112,0.019: // measure 1
1010
0000
0101
0000
,  // measure 2
0011
0000
1100
0000
,  // measure 3
1010
0011
0101
1100
,  // measure 4
2002
0000
0000
3003
,  // measure 5
1000
0100
0010
0001
0100
0010
1000
0001
,  // measure 6
0010
0000
0100
1000
0001
0100
0010
1000
,  // measure 7
0001
0000
0010
0001
0100
0010
1000
0001
,  // measure 8
0010
0000
0100
0010
0001
0100
0010
1000
,  // measure 9
0001
0000
0010
0100
1000
0010
0100
0001
,  // measure 10
0010
0000
0010
0100
1000
0010
0100
0001
,  // measure 11
0010
0000
1000
0100
0010
0001
1000
0010
,  // measure 12
0100
0100
0001
1000
0020
0000
0030
0000
,  // measure 13
1000
0100
1000
0100
0010
0001
0010
0001
,  // measure 14
0100
0010
1000
0001
0010
0100
1000
0010
,  // measure 15
0100
0001
0100
0001
1000
0010
1000
0010
,  // measure 16
0100
0001
0010
0100
1000
0100
0010
0001
,  // measure 17
0100
0010
0100
0010
1000
0001
1000
0001
,  // measure 18
0010
0001
0100
0010
1000
0001
0010
0100
,  // measure 19
1000
0010
1000
0010
0100
0001
0100
0001
,  // measure 20
0100
0000
0000
0010
0000
0000
2002
0000
0000
0000
0000
0000
3003
0000
0000
0000
,  // measure 21
1000
0000
0010
1000
0000
1000
0010
0000
,  // measure 22
0100
0000
0001
0100
0000
0100
0001
0000
,  // measure 23
0010
1000
0100
0010
0001
0100
0010
1000
,  // measure 24
0100
0010
0000
1001
0000
0000
0010
0000
,  // measure 25
1000
0000
0100
1000
0000
1000
0100
0000
,  // measure 26
0010
0000
0001
0100
0000
0100
0001
0000
,  // measure 27
0010
0001
0100
0010
1000
0001
0010
0100
,  // measure 28
1000
0010
0100
0001
,  // measure 29
0010
0001
0010
0000
1000
0100
1000
0000
,  // measure 30
0001
0100
0001
0000
1000
0010
1000
0000
,  // measure 31
0010
0100
0010
0100
0001
0010
0100
1000
,  // measure 32
0010
0000
0100
0001
0000
0001
1000
0000
,  // measure 33
1001
0010
0110
1000
,  // measure 34
1100
0001
0011
0010
,  // measure 35
0100
1000
0010
0100
0001
0010
0001
0100
,  // measure 36
0020
0000
0000
0000
,  // measure 37
1030
0100
1000
0100
0010
0001
0010
0001
,  // measure 38
1000
0010
0100
0001
0010
0100
1000
0010
,  // measure 39
0100
0001
0100
0001
1000
0010
1000
0010
,  // measure 40
1000
0001
0010
0100
1000
0100
0010
0001
,  // measure 41
1000
0001
1000
0001
0100
0010
0100
0010
,  // measure 42
1000
0100
0010
0001
1000
0010
0100
0001
,  // measure 43
0010
0001
0010
0001
1000
0100
1000
0100
,  // measure 44
1000
0000
0000
0001
0000
0000
2002
0000
0000
0000
0000
0000
3003
0000
0000
0000
,  // measure 45
1000
0010
0100
0001
0000
0001
0100
0010
,  // measure 46
1000
0001
0010
0100
1000
0100
0010
0001
,  // measure 47
1000
0010
0100
0001
0000
0001
0100
0010
,  // measure 48
1000
0001
0010
0100
1000
0010
0100
0001
,  // measure 49
0010
0000
0001
0100
0010
0000
1000
0100
,  // measure 50
0010
0000
0010
0100
1000
0000
1000
0001
,  // measure 51
0100
0010
1000
0100
0010
0001
1000
0010
,  // measure 52
0100
0000
0000
0001
0000
0000
0010
0000
0000
0000
0000
0000
0100
0000
1000
0000
,  // measure 53
0002
0000
0000
0000
,  // measure 54
0003
0000
0000
0000
;

//---------------dance-single - ----------------
#NOTES:
     dance-single:
     :
     Beginner:
     3:
     0.138,0.162,0.012,0.000,0.000: // measure 1
1000
0000
0000
0000
,  // measure 2
0001
0000
0000
0000
,  // measure 3
0100
0000
0010
0000
,  // measure 4
0110
0000
0000
0000
,  // measure 5
0010
0000
0010
0000
,  // measure 6
0010
0000
0010
0000
,  // measure 7
0100
0000
0100
0000
,  // measure 8
0100
0000
0100
0000
,  // measure 9
0001
0000
0001
0000
,  // measure 10
0001
0000
0001
0000
,  // measure 11
1000
0000
1000
0000
,  // measure 12
1000
0000
0000
0000
,  // measure 13
1000
0000
1000
0000
,  // measure 14
1000
0000
0000
0000
,  // measure 15
0010
0000
0010
0000
,  // measure 16
0010
0000
0000
0000
,  // measure 17
0100
0000
0100
0000
,  // measure 18
0100
0000
0000
0000
,  // measure 19
0001
0000
0001
0000
,  // measure 20
0001
0000
0000
0000
,  // measure 21
0001
0000
0000
0000
,  // measure 22
0100
0000
0000
0000
,  // measure 23
0010
0000
0000
0000
,  // measure 24
0010
0000
0000
0000
,  // measure 25
1000
0000
0000
0000
,  // measure 26
0100
0000
0000
0000
,  // measure 27
0010
0000
0000
0000
,  // measure 28
0010
0000
0000
0000
,  // measure 29
0001
0000
0000
0000
,  // measure 30
0100
0000
0000
0000
,  // measure 31
0010
0000
0010
0000
,  // measure 32
0010
0000
0000
0000
,  // measure 33
1000
0000
0000
0000
,  // measure 34
0100
0000
0000
0000
,  // measure 35
0010
0000
0000
0000
,  // measure 36
0001
0000
0000
0000
,  // measure 37
0010
0000
0010
0000
,  // measure 38
0010
0000
0000
0000
,  // measure 39
0100
0000
0100
0000
,  // measure 40
0100
0000
0000
0000
,  // measure 41
0001
0000
0001
0000
,  // measure 42
0001
0000
0000
0000
,  // measure 43
1000
0000
1000
0000
,  // measure 44
1000
0000
0000
0000
,  // measure 45
0010
0000
0010
0000
,  // measure 46
0010
0000
0010
0000
,  // measure 47
0100
0000
0100
0000
,  // measure 48
0100
0000
0100
0000
,  // measure 49
0001
0000
0001
0000
,  // measure 50
0001
0000
0001
0000
,  // measure 51
1000
0000
1000
0000
,  // measure 52
1000
0000
0000
0000
,  // measure 53
0010
0000
0000
0000
;

//---------------dance-single - ----------------
#NOTES:
     dance-single:
     :
     Medium:
     9:
     0.477,0.428,0.211,0.087,0.012: // measure 1
1001
0000
0110
0000
,  // measure 2
1100
0000
0011
0000
,  // measure 3
1001
1001
1001
1001
,  // measure 4
2002
0000
0000
3003
,  // measure 5
0010
0000
1000
0000
0100
0010
0100
0000
,  // measure 6
1000
0000
0001
0000
0100
0010
0100
0000
,  // measure 7
0001
0000
0010
0000
0100
1000
0100
0000
,  // measure 8
0010
0000
0001
0000
0010
0001
0010
0000
,  // measure 9
0100
0000
1000
0000
0001
0100
0010
0000
,  // measure 10
1000
0000
0001
0000
0010
0100
1000
0000
,  // measure 11
0001
0000
0100
0000
0010
1000
0001
0000
,  // measure 12
0010
0010
0100
0100
0020
0000
0000
0000
,  // measure 13
1030
0000
0100
0000
0010
0001
0100
0000
,  // measure 14
0010
1000
0100
0000
1001
0000
0000
0000
,  // measure 15
0010
0000
1000
0000
0100
0010
0100
0000
,  // measure 16
1000
0001
1000
0000
1001
0000
0000
0000
,  // measure 17
0010
0000
1000
0000
0100
0010
0001
0000
,  // measure 18
0010
0100
1000
0000
1010
0000
0000
0000
,  // measure 19
0010
0000
0100
0000
0001
0010
0100
0000
,  // measure 20
1000
0000
0000
0001
0000
0000
0100
0000
0000
0000
0000
0000
0010
0000
0000
0000
,  // measure 21
1000
0000
0100
0000
1000
0001
0100
0000
,  // measure 22
0010
0000
0100
0000
0001
1000
0100
0000
,  // measure 23
0010
0000
0001
0100
0000
0100
0001
0000
,  // measure 24
0010
0100
0000
1100
0000
0000
1000
0000
,  // measure 25
0010
0000
0100
0000
0001
0010
0100
0000
,  // measure 26
1000
0000
0010
0000
0100
0010
1000
0000
,  // measure 27
0001
0000
0010
0000
0001
0100
0001
0100
,  // measure 28
0001
0010
0100
1000
,  // measure 29
0010
0000
0100
0000
0010
1000
0001
0000
,  // measure 30
0010
0000
0100
0000
1000
0001
0100
0000
,  // measure 31
0010
0100
0010
0100
0001
1000
0001
1000
,  // measure 32
0001
1000
0001
0100
,  // measure 33
0010
1000
0100
0000
0010
0001
0100
0000
,  // measure 34
0010
0100
0001
0000
0010
0100
1000
0000
,  // measure 35
0010
0100
0001
1000
0010
0100
0001
1000
,  // measure 36
0020
0000
0000
0030
,  // measure 37
1000
0100
0010
0000
0010
0100
1000
0000
,  // measure 38
1000
0001
0100
0000
0110
0000
0000
0000
,  // measure 39
0010
1000
0001
0000
0010
0100
1000
0000
,  // measure 40
0010
0100
0001
0000
0101
0000
0000
0000
,  // measure 41
0010
0001
0100
0000
0010
1000
0100
0000
,  // measure 42
0010
0100
1000
0000
1010
0000
0000
0000
,  // measure 43
0010
0100
0001
0000
0010
0100
1000
0000
,  // measure 44
0001
0000
0000
1000
0000
0000
0010
0000
0000
0000
0000
0000
0100
0000
0000
0000
,  // measure 45
0001
0000
0100
0001
0000
0001
0100
0000
,  // measure 46
0010
1000
0000
1000
0010
0000
0100
0000
,  // measure 47
0001
0000
0010
0100
0000
0100
0010
0000
,  // measure 48
0001
1000
0000
1000
0001
0000
0100
0000
,  // measure 49
0010
0000
1000
0100
1000
0000
0001
0010
,  // measure 50
0001
0000
0100
0010
0100
0000
0001
1000
,  // measure 51
0001
0010
0100
1000
,  // measure 52
0020
0000
0000
0030
,  // measure 53
2002
0000
0000
0000
,  // measure 54
3003
0000
0000
0000
;

//---------------dance-single - ----------------
#NOTES:
     dance-single:
     :
     Easy:
     5:
     0.302,0.291,0.137,0.062,0.000: // measure 1
1001
0000
0010
0000
,  // measure 2
0110
0000
0100
0000
,  // measure 3
1100
0000
0011
0000
,  // measure 4
1001
0000
0000
0000
,  // measure 5
0001
0100
0010
0100
,  // measure 6
0001
0100
0010
0100
,  // measure 7
0001
1000
0100
1000
,  // measure 8
0001
1000
0100
1000
,  // measure 9
0010
0100
0010
1000
,  // measure 10
0010
0100
0010
1000
,  // measure 11
0100
0010
0001
0010
,  // measure 12
0110
0000
1001
0000
,  // measure 13
0001
0100
0010
1000
,  // measure 14
0001
0010
0100
0000
,  // measure 15
0100
0010
0001
1000
,  // measure 16
0010
0100
0001
0000
,  // measure 17
1000
0100
0010
0001
,  // measure 18
0100
0010
1000
0000
,  // measure 19
0010
0100
0001
1000
,  // measure 20
0200
0000
0000
0300
,  // measure 21
0010
0000
0001
0000
,  // measure 22
0010
0001
0010
0000
,  // measure 23
0100
1000
0100
1000
,  // measure 24
0100
0000
1000
0000
,  // measure 25
0010
0000
1000
0000
,  // measure 26
0100
0000
1000
0000
,  // measure 27
0010
0100
0001
0100
,  // measure 28
0020
0000
0030
0000
,  // measure 29
0100
0000
0001
0000
,  // measure 30
0010
0000
0001
0000
,  // measure 31
0100
0010
0100
0001
,  // measure 32
1000
0000
0001
0000
,  // measure 33
1000
0000
1100
0000
,  // measure 34
0001
0000
0011
0000
,  // measure 35
0010
0100
0010
0100
,  // measure 36
2002
0000
0000
3003
,  // measure 37
0010
1000
0100
1000
,  // measure 38
0010
0100
0001
0000
,  // measure 39
0010
0001
0100
0010
,  // measure 40
1000
0001
0010
0000
,  // measure 41
0010
0001
0100
1000
,  // measure 42
0100
0001
0010
0000
,  // measure 43
0010
0100
1000
0001
,  // measure 44
0100
0000
0000
0000
,  // measure 45
0010
0100
0010
0100
,  // measure 46
0001
1000
0001
1000
,  // measure 47
0010
0100
0001
0010
,  // measure 48
0100
1000
0010
0100
,  // measure 49
0001
0010
1000
0000
,  // measure 50
1000
0010
0001
0000
,  // measure 51
0001
0000
0100
0000
,  // measure 52
0020
0000
0000
0030
,  // measure 53
1001
0000
0000
0000
;
