#TITLE:Imperishable Night 2006;
#SUBTITLE:;
#ARTIST:Xiao luo you na feat. Diaono xiaogu;
#TITLETRANSLIT:;
#SUBTITLETRANSLIT:;
#ARTISTTRANSLIT:;
#CREDIT:;
#BANNER:;
#BACKGROUND:bgblack.PNG;
#LYRICSPATH:;
#CDTITLE:;
#MUSIC:Imperishable Night 2006.mp3;
#OFFSET:-12.060;
#SAMPLESTART:23.930;
#SAMPLELENGTH:12.000;
#SELECTABLE:YES;
#BPMS:0.000=161.000;
#STOPS:;
#BGCHANGES:;

//---------------dance-single - ----------------
#NOTES:
     dance-single:
     :
     Beginner:
     2:
     0.124,0.140,0.000,0.010,0.000: // measure 1
1000
0000
0100
0000
,  // measure 2
0010
0000
0001
0000
,  // measure 3
0001
0000
0010
0000
,  // measure 4
0100
0000
1000
0000
,  // measure 5
0010
0000
0000
0000
,  // measure 6
0100
0000
0000
0000
,  // measure 7
0001
0000
0000
0000
,  // measure 8
1000
0000
0000
0000
,  // measure 9
1000
0000
1000
0000
,  // measure 10
1000
0000
0000
0000
,  // measure 11
0010
0000
0010
0000
,  // measure 12
0010
0000
0000
0000
,  // measure 13
0100
0000
0100
0000
,  // measure 14
0100
0000
0000
0000
,  // measure 15
0001
0000
0001
0000
,  // measure 16
0001
0000
0000
0000
,  // measure 17
0010
0000
0010
0000
,  // measure 18
0010
0000
0000
0000
,  // measure 19
0001
0000
0001
0000
,  // measure 20
0001
0000
0000
0000
,  // measure 21
0100
0000
0100
0000
,  // measure 22
0100
0000
0000
0000
,  // measure 23
1000
0000
1000
0000
,  // measure 24
1000
0000
0000
0000
,  // measure 25
0010
0000
0010
0000
,  // measure 26
0010
0000
0010
0000
,  // measure 27
0100
0000
0100
0000
,  // measure 28
0100
0000
0100
0000
,  // measure 29
0001
0000
0001
0000
,  // measure 30
0001
0000
0001
0000
,  // measure 31
1000
0000
1000
0000
,  // measure 32
1000
0000
0000
0000
,  // measure 33
0010
0000
0000
0000
,  // measure 34
0100
0000
0000
0000
,  // measure 35
0001
0000
0000
0000
,  // measure 36
0010
0000
0000
0000
,  // measure 37
0100
0000
0000
0000
,  // measure 38
1000
0000
0000
0000
,  // measure 39
0002
0000
0003
0000
,  // measure 40
0001
0000
0001
0000
,  // measure 41
0001
0000
0000
0000
,  // measure 42
0100
0000
0100
0000
,  // measure 43
0100
0000
0000
0000
,  // measure 44
0010
0000
0010
0000
,  // measure 45
0010
0000
0000
0000
,  // measure 46
1000
0000
1000
0000
,  // measure 47
1000
0000
0000
0000
,  // measure 48
0010
0000
0010
0000
,  // measure 49
0010
0000
0000
0000
,  // measure 50
0100
0000
0100
0000
,  // measure 51
0100
0000
0000
0000
,  // measure 52
0001
0000
0001
0000
,  // measure 53
0001
0000
0000
0000
,  // measure 54
1000
0000
1000
0000
,  // measure 55
1000
1000
1000
0000
;

//---------------dance-single - ----------------
#NOTES:
     dance-single:
     :
     Easy:
     6:
     0.285,0.251,0.082,0.020,0.000: // measure 1
1000
0010
0100
0001
,  // measure 2
0010
0001
0100
0100
,  // measure 3
0010
1000
0100
1000
,  // measure 4
0010
0100
0001
0001
,  // measure 5
0010
0000
0001
0000
,  // measure 6
0100
0000
0010
0000
,  // measure 7
1001
0000
0110
0000
,  // measure 8
2002
0000
3003
0000
,  // measure 9
0001
0100
0010
1000
,  // measure 10
0001
0010
0001
0100
,  // measure 11
0010
1000
0100
0010
,  // measure 12
0001
0100
0010
1000
,  // measure 13
0010
1000
0001
0010
,  // measure 14
0100
1000
0100
0010
,  // measure 15
0001
0100
1000
0100
,  // measure 16
0001
0010
1000
0010
,  // measure 17
0100
0001
0010
0100
,  // measure 18
0010
0001
0100
0010
,  // measure 19
0100
0001
0010
0100
,  // measure 20
1000
0100
0010
0010
,  // measure 21
0001
0100
0010
1000
,  // measure 22
0010
0100
0001
0001
,  // measure 23
0010
0100
1000
0010
,  // measure 24
0100
0000
1001
0000
,  // measure 25
1000
0000
0110
0000
,  // measure 26
0001
0010
0001
0000
,  // measure 27
0100
0000
0010
0000
,  // measure 28
1000
0100
1000
0000
,  // measure 29
0001
0000
0100
0000
,  // measure 30
0001
0010
0001
0000
,  // measure 31
1000
0100
1000
0100
,  // measure 32
1000
0000
0010
0000
,  // measure 33
0100
0001
0100
0000
,  // measure 34
0001
0000
0010
0000
,  // measure 35
0100
1000
0010
0000
,  // measure 36
0100
0000
0001
0000
,  // measure 37
0010
0001
0100
0000
,  // measure 38
0010
0100
0010
0100
,  // measure 39
0001
0000
1000
0000
,  // measure 40
0001
0100
0010
1000
,  // measure 41
0100
0010
0100
0100
,  // measure 42
1000
0010
0100
0001
,  // measure 43
0010
0100
0010
0010
,  // measure 44
0001
0100
0010
1000
,  // measure 45
0100
0010
0001
0001
,  // measure 46
1000
0010
0100
0001
,  // measure 47
0010
0100
1000
1000
,  // measure 48
0010
1000
0001
0010
,  // measure 49
0001
0100
0010
0000
,  // measure 50
0010
1000
0100
0010
,  // measure 51
0100
1000
0001
0000
,  // measure 52
0001
0100
0010
1000
,  // measure 53
0001
0010
0100
0000
,  // measure 54
1000
0010
0100
0001
,  // measure 55
1001
1001
1001
0000
;

//---------------dance-single - ----------------
#NOTES:
     dance-single:
     :
     Medium:
     9:
     0.405,0.398,0.082,0.051,0.005: // measure 1
1000
0000
0100
0000
0010
0001
0010
0000
,  // measure 2
0100
0000
1000
0000
0010
0100
0010
0000
,  // measure 3
1000
0000
0100
0000
0010
0001
1000
0000
,  // measure 4
0010
0000
0100
0000
0001
0100
0010
1000
,  // measure 5
0001
0010
0100
1000
,  // measure 6
0010
0100
0001
0010
,  // measure 7
0110
0000
1100
0000
,  // measure 8
2002
0000
0000
3003
,  // measure 9
1000
0000
0100
0000
0010
0001
0100
0000
,  // measure 10
0010
0000
0100
0000
0001
0010
0100
0000
,  // measure 11
1000
0000
0001
0000
0100
0010
1000
0000
,  // measure 12
0010
0000
0100
0000
0001
0010
0001
0000
,  // measure 13
0010
0000
0100
0000
1000
0001
0100
0000
,  // measure 14
0010
0000
0100
0000
0001
0010
0100
0000
,  // measure 15
1000
0000
0100
0000
0010
0001
1000
0000
,  // measure 16
0010
0000
0100
0000
0001
0100
0001
0000
,  // measure 17
0010
0100
1000
0100
,  // measure 18
0010
0000
0001
0000
1000
0010
1000
0010
,  // measure 19
1000
0100
0010
0001
,  // measure 20
0100
0000
0010
0000
1000
0001
1000
0001
,  // measure 21
1000
0010
0100
0001
,  // measure 22
0010
0000
0100
0000
0010
0001
0010
0001
,  // measure 23
0010
0000
0100
0000
1000
0001
0100
0000
,  // measure 24
1001
0110
2002
3003
,  // measure 25
1000
0000
0100
1000
0001
0000
0001
1000
,  // measure 26
0100
1000
0010
0100
,  // measure 27
0001
0000
0010
0100
0010
0000
0001
0100
,  // measure 28
0010
0000
1000
0001
0010
0000
0100
0000
,  // measure 29
1000
0000
0100
0010
0100
0000
1000
0000
,  // measure 30
1001
0000
0010
0100
0010
0000
1000
0000
,  // measure 31
0100
0010
0001
1000
,  // measure 32
0010
0000
0100
0001
0100
0000
0010
0000
,  // measure 33
1000
0000
0001
0010
0001
0000
0100
0000
,  // measure 34
0010
0000
1000
0100
0010
0000
0010
0100
,  // measure 35
1000
0000
1000
0001
0100
0000
0010
0000
,  // measure 36
0100
0000
0001
0010
0001
0000
0010
0000
,  // measure 37
0100
0000
1000
0001
0100
0000
0010
0000
,  // measure 38
1000
0100
0010
0001
1000
0010
0100
0001
,  // measure 39
0010
0001
0100
0110
,  // measure 40
0010
1000
0100
1000
,  // measure 41
0001
0000
0100
0000
0010
1000
0001
0000
,  // measure 42
0010
0100
1000
0100
,  // measure 43
0010
0000
0001
0000
1000
0010
0100
0000
,  // measure 44
0010
1000
0100
0010
,  // measure 45
0001
0000
0100
0000
0010
1000
0010
0000
,  // measure 46
0100
0001
0010
0100
,  // measure 47
1000
0000
0100
0000
0010
0001
0010
0001
,  // measure 48
0010
0000
0100
0000
1000
0001
0100
0000
,  // measure 49
0010
0000
1000
0000
0100
0010
0100
1000
,  // measure 50
0001
0000
0100
0000
0010
1000
0001
0000
,  // measure 51
0010
0000
0100
0000
0010
0001
1000
0010
,  // measure 52
0100
0000
0010
0000
1000
0100
0010
0000
,  // measure 53
0100
0000
1000
0000
0001
0100
0010
0000
,  // measure 54
0100
0001
0010
0100
,  // measure 55
1000
0000
0000
0001
0000
0000
0020
0000
0000
0000
0000
0000
0000
0000
0000
0000
,  // measure 56
0000
0000
0030
0000
;

//---------------dance-single - ----------------
#NOTES:
     dance-single:
     :
     Hard:
     12:
     0.572,0.516,0.031,0.031,0.118: // measure 1
1000
0100
1000
0010
0100
0001
0010
0000
,  // measure 2
0010
0001
0100
0010
1000
0001
0010
0000
,  // measure 3
0100
0010
0001
1000
0010
0100
0010
0000
,  // measure 4
1000
0001
0010
0100
1000
1000
0001
0001
,  // measure 5
0100
0010
0100
0010
0100
0010
0100
0010
,  // measure 6
1000
0001
1000
0001
1000
0001
1000
0001
,  // measure 7
0010
0100
1000
0100
0010
0001
1000
0010
,  // measure 8
0200
0000
0000
0000
,  // measure 9
0301
0010
0001
0100
0010
1000
0100
0010
,  // measure 10
0001
1000
0010
1000
0100
0010
0001
0100
,  // measure 11
0000
0100
0001
0010
0100
1000
0100
0010
,  // measure 12
0001
1000
0010
0100
0001
0010
0001
0100
,  // measure 13
0000
0100
0001
0010
0100
1000
0010
0001
,  // measure 14
0100
1000
0100
0010
0001
0100
0010
1000
,  // measure 15
0000
1000
0010
0100
0001
0010
0100
1000
,  // measure 16
0100
0010
0001
1000
0010
0100
0001
0010
,  // measure 17
0001
0100
0010
1000
0100
0010
0001
1000
,  // measure 18
0010
0100
0001
0010
0100
1000
0100
0010
,  // measure 19
0000
0010
0100
1000
0001
0100
0010
1000
,  // measure 20
0001
0010
0001
0100
0010
1000
0001
0010
,  // measure 21
0000
0010
0001
0100
1000
0010
0100
0001
,  // measure 22
0010
0100
1000
0100
0010
0001
1000
0010
,  // measure 23
0100
0001
0010
0100
1000
0100
0010
0001
,  // measure 24
1000
0001
0000
1000
0001
0000
1000
0001
0000
0000
1000
0000
0010
0000
0100
0000
,  // measure 25
0001
0000
0000
0010
0000
0000
0001
0000
0100
0000
0010
0000
0000
0000
1000
0000
,  // measure 26
0100
0000
0000
1000
0000
0000
0001
0000
0100
0000
0000
0000
0001
0000
0010
0000
,  // measure 27
0100
0000
0000
1000
0000
0000
0100
0000
0010
0000
0000
0001
0000
0000
0100
0000
,  // measure 28
0010
0000
0000
0100
0000
0000
0001
0000
0010
0000
0000
0000
0100
0000
1000
0000
,  // measure 29
0001
0000
0000
0100
0000
0000
0001
0000
0010
0000
0000
0000
0100
0000
1000
0000
,  // measure 30
0001
0000
0000
0100
0000
0000
0010
0000
1000
0000
0000
0010
0000
0000
0100
0000
,  // measure 31
0001
0000
0000
0010
0000
0000
0001
0000
0100
0000
0000
0010
0000
0000
1000
0000
,  // measure 32
0100
0000
0000
0010
0000
0000
0100
0000
1000
0000
0000
0001
0000
0000
0100
0000
,  // measure 33
0010
0000
0000
0100
0000
0000
0001
0000
0010
0000
0000
0000
0001
0000
0100
0000
,  // measure 34
0010
0000
0000
1000
0000
0000
0010
0000
1000
0000
0000
0100
0000
0000
0001
0000
,  // measure 35
0010
0000
0000
0001
0000
0000
0100
0000
0010
0000
0000
0000
1000
0000
0100
0000
,  // measure 36
0010
0000
0000
0100
0000
0000
1000
0000
0001
0000
0000
0000
0100
0000
0000
0010
,  // measure 37
0000
0000
0100
0000
0000
0000
0001
0000
0010
0000
0000
0100
0000
0000
1000
0000
,  // measure 38
0001
0100
0001
0100
0010
1000
0010
1000
,  // measure 39
0010
0100
0001
1000
,  // measure 40
0001
0010
0001
0100
0010
1000
0100
0010
,  // measure 41
0100
1000
0001
0100
0010
1000
0001
0010
,  // measure 42
0000
0010
0001
0100
0010
1000
0100
0010
,  // measure 43
0001
0100
0010
0100
0001
0010
0100
1000
,  // measure 44
0000
1000
0010
0100
0001
0010
0001
0100
,  // measure 45
0010
1000
0001
0010
0100
1000
0001
0100
,  // measure 46
0000
0010
1000
0100
0010
0100
1000
0001
,  // measure 47
0100
0010
1000
0001
0010
0100
1000
0010
,  // measure 48
0100
0001
0010
0001
0100
0010
1000
0001
,  // measure 49
0010
0100
1000
0100
0010
0001
1000
0010
,  // measure 50
0000
0010
1000
0100
0010
0001
0100
0010
,  // measure 51
1000
0001
0010
0100
1000
0100
0010
0001
,  // measure 52
0000
0001
0100
0010
1000
0001
0010
0001
,  // measure 53
0100
0010
1000
0100
0010
0001
1000
0010
,  // measure 54
0100
0001
0010
0100
1000
0010
0100
0001
,  // measure 55
0011
0000
0000
1100
0000
0000
2002
0000
0000
0000
0000
0000
0000
0000
0000
0000
,  // measure 56
0000
0000
0000
0000
,  // measure 57
3003
0000
0000
0000
;
