#TITLE:G403;
#SUBTITLE:(bms version);
#ARTIST:P.E. remixed by gmtn.;
#TITLETRANSLIT:;
#SUBTITLETRANSLIT:;
#ARTISTTRANSLIT:;
#GENRE:;
#CREDIT:;
#BANNER:bn.png;
#BACKGROUND:bg.png;
#LYRICSPATH:;
#CDTITLE:cdtitle.png;
#MUSIC:G403 (bms version).ogg;
#OFFSET:-5.480;
#SAMPLESTART:12.560;
#SAMPLELENGTH:12.000;
#SELECTABLE:YES;
#BPMS:0.000=153.000
;
#STOPS:15.000=1.180
;
#BGCHANGES:;
#KEYSOUNDS:;
#ATTACKS:;

//---------------dance-single - ----------------
#NOTES:
     dance-single:
     :
     Beginner:
     2:
     0.088,0.143,0.032,0.011,0.000,54.000,3.000,1.000,0.000,0.000,0.000,0.088,0.143,0.032,0.011,0.000,54.000,3.000,1.000,0.000,0.000,0.000: // measure 0
0000
0000
0000
1001
,  // measure 1
0000
0000
0000
0100
,  // measure 2
0000
0000
0000
0010
,  // measure 3
0000
0010
0000
0010
,  // measure 4
0010
0000
0000
0000
,  // measure 5
0100
0000
0000
0000
,  // measure 6
0001
0000
0000
0000
,  // measure 7
1000
0000
0000
0000
,  // measure 8
0001
0000
0000
0000
,  // measure 9
0010
0000
0000
0000
,  // measure 10
0100
0000
0000
0000
,  // measure 11
1000
0000
0000
0010
,  // measure 12
0010
0000
0000
0000
,  // measure 13
0100
0000
0000
0000
,  // measure 14
0001
0000
0000
0000
,  // measure 15
1000
0000
0000
0000
,  // measure 16
0001
0000
0000
0000
,  // measure 17
0010
0000
0000
0000
,  // measure 18
0100
0000
0100
0000
,  // measure 19
0200
0000
0300
0000
,  // measure 20
0100
0000
0000
0000
,  // measure 21
1001
0000
0000
0000
,  // measure 22
0000
0000
0000
0000
,  // measure 23
1000
0000
0000
0000
,  // measure 24
0000
0000
0000
0000
,  // measure 25
0010
0000
0000
0000
,  // measure 26
0000
0000
0000
0000
,  // measure 27
0100
0000
0000
0000
,  // measure 28
0000
0000
0000
0000
,  // measure 29
0001
0000
0000
0000
,  // measure 30
1000
0000
0000
0000
,  // measure 31
0001
0000
0000
0000
,  // measure 32
1000
0000
0000
0000
,  // measure 33
0010
0000
0000
0000
,  // measure 34
0100
0000
0000
0000
,  // measure 35
0010
0000
0000
0000
,  // measure 36
0100
0000
0000
0000
,  // measure 37
0001
0000
0001
0000
,  // measure 38
0001
0000
0000
0000
,  // measure 39
1000
0000
1000
0000
,  // measure 40
1000
0000
0000
0000
,  // measure 41
0010
0010
0010
0000
,  // measure 42
0010
0000
0010
0000
,  // measure 43
0100
0100
0100
0100
,  // measure 44
0100
0000
0100
0000
,  // measure 45
0110
0000
0000
0000
;

//---------------dance-single - ----------------
#NOTES:
     dance-single:
     :
     Easy:
     5:
     0.216,0.336,0.106,0.106,0.000,123.000,10.000,10.000,0.000,0.000,0.000,0.216,0.336,0.106,0.106,0.000,123.000,10.000,10.000,0.000,0.000,0.000: // measure 0
0000
0000
1001
1001
,  // measure 1
0000
0000
0000
0010
,  // measure 2
0000
0000
0000
0100
,  // measure 3
0000
1000
0000
0001
,  // measure 4
0010
0001
0010
0001
,  // measure 5
1000
0100
1000
0100
,  // measure 6
0010
0001
0010
0001
,  // measure 7
0100
0001
0100
0001
,  // measure 8
1000
0010
0100
0001
,  // measure 9
1000
0100
0010
0001
,  // measure 10
0010
0100
1000
0001
,  // measure 11
0100
0010
1000
0001
,  // measure 12
0010
0001
0010
0000
,  // measure 13
0100
1000
0100
0100
,  // measure 14
1000
0100
1000
0000
,  // measure 15
0010
1000
0010
0010
,  // measure 16
1000
0010
1000
0000
,  // measure 17
0001
0100
0001
0000
,  // measure 18
0010
0000
0100
0000
,  // measure 19
1000
0000
0001
0000
,  // measure 20
1001
0000
0000
0000
,  // measure 21
0020
0000
0000
0000
,  // measure 22
2030
0000
0000
0000
,  // measure 23
3200
0000
0000
0000
,  // measure 24
0320
0000
0000
0000
,  // measure 25
0032
0000
0000
0000
,  // measure 26
0203
0000
0000
0000
,  // measure 27
0320
0000
0000
0000
,  // measure 28
2030
0000
0000
0000
,  // measure 29
3001
1000
0000
0001
,  // measure 30
0000
1000
0000
0010
,  // measure 31
0000
0100
0000
0001
,  // measure 32
0000
0010
0000
0100
,  // measure 33
1000
0010
0000
0100
,  // measure 34
0001
0010
0000
0001
,  // measure 35
1001
0000
0110
0000
,  // measure 36
0100
1000
0010
0100
,  // measure 37
0001
0100
0001
0100
,  // measure 38
0010
1000
0010
1000
,  // measure 39
0100
1000
0100
0000
,  // measure 40
0010
0001
0010
0000
,  // measure 41
0001
0100
1000
0010
,  // measure 42
0100
0001
0010
0100
,  // measure 43
1001
1001
0110
0110
,  // measure 44
1000
0100
0010
0001
,  // measure 45
2002
0000
0000
0000
,  // measure 46
0000
0000
0000
0000
,  // measure 47
0000
0000
0000
0000
,  // measure 48
0000
0000
0000
0000
,  // measure 49
0000
0000
0000
0000
,  // measure 50
0000
0000
0000
0000
,  // measure 51
0000
0000
0000
0000
,  // measure 52
0000
0000
0000
0000
,  // measure 53
3003
0000
0000
0000
;

//---------------dance-single - ----------------
#NOTES:
     dance-single:
     :
     Medium:
     8:
     0.290,0.420,0.116,0.106,0.021,171.000,11.000,10.000,0.000,0.000,0.000,0.290,0.420,0.116,0.106,0.021,171.000,11.000,10.000,0.000,0.000,0.000: // measure 0
0000
0000
1001
1001
,  // measure 1
0000
0010
0000
1100
,  // measure 2
0000
0010
0000
0101
,  // measure 3
0000
1001
0000
0010
,  // measure 4
1000
0000
0100
0000
1000
0001
0100
0000
,  // measure 5
0010
0000
0100
0000
0001
1000
0100
0000
,  // measure 6
0010
0000
0001
0000
1000
0010
0100
0000
,  // measure 7
0010
0000
1000
0000
0001
0010
0100
0000
,  // measure 8
0010
0000
0001
0000
1000
0010
0100
0000
,  // measure 9
0001
0000
0010
0000
0001
1000
0100
0000
,  // measure 10
1000
0000
0010
0000
0100
0001
0010
0000
,  // measure 11
0100
0000
1000
0000
0001
0100
0010
0000
,  // measure 12
1000
0000
0010
0000
1000
0010
1000
0000
,  // measure 13
0010
0000
1000
0000
0010
1000
0010
0000
,  // measure 14
0100
0000
0001
0000
0100
0001
0100
0000
,  // measure 15
0001
0000
0100
0000
0001
0100
0001
0000
,  // measure 16
1000
0000
0100
0000
1000
0100
1000
0000
,  // measure 17
0001
0000
0010
0000
0001
0010
0001
0000
,  // measure 18
1000
0010
0100
0001
,  // measure 19
0010
0000
0001
0000
0010
0000
0100
0000
1000
0000
0100
0000
,  // measure 20
1000
0000
0000
0000
,  // measure 21
2001
0000
0000
0000
,  // measure 22
3002
0000
0000
0000
,  // measure 23
0203
0000
0000
0000
,  // measure 24
0320
0000
0000
0000
,  // measure 25
0230
0000
0000
0000
,  // measure 26
0302
0000
0000
0000
0000
0000
0000
2000
,  // measure 27
0003
0000
0000
0000
,  // measure 28
3200
0000
0000
0000
,  // measure 29
0310
0001
0010
0001
,  // measure 30
1000
0100
1000
0100
,  // measure 31
1000
0010
1000
0010
,  // measure 32
0100
0001
0100
0001
,  // measure 33
1001
0000
0000
0000
,  // measure 34
0110
0000
0000
0000
,  // measure 35
0101
0000
1010
0000
,  // measure 36
0010
1000
0100
0010
,  // measure 37
0001
0000
0100
0001
0010
0100
1000
0000
,  // measure 38
0010
0000
0100
0001
1000
0100
0010
0000
,  // measure 39
0100
0000
1000
0001
0100
0000
0010
1000
,  // measure 40
0001
0000
0010
0100
1000
0000
0001
0000
,  // measure 41
0100
0001
0100
0001
0100
0001
0100
0000
,  // measure 42
0010
1000
0010
1000
0010
1000
0010
0000
,  // measure 43
0010
1000
0100
0010
0001
1000
0010
0100
,  // measure 44
0001
0010
0100
1000
,  // measure 45
2002
0000
0000
0000
,  // measure 46
0000
0000
0000
0000
,  // measure 47
0000
0000
0000
0000
,  // measure 48
0000
0000
0000
0000
,  // measure 49
0000
0000
0000
0000
,  // measure 50
0000
0000
0000
0000
,  // measure 51
0000
0000
0000
0000
,  // measure 52
0000
0000
0000
0000
,  // measure 53
3003
0000
0000
0000
;

//---------------dance-single - ----------------
#NOTES:
     dance-single:
     :
     Hard:
     10:
     0.408,0.560,0.148,0.201,0.058,237.000,14.000,19.000,0.000,0.000,0.000,0.408,0.560,0.148,0.201,0.058,237.000,14.000,19.000,0.000,0.000,0.000: // measure 0
0000
0000
1001
1001
,  // measure 1
0001
0100
0000
1010
,  // measure 2
0000
1000
0000
1100
,  // measure 3
0000
0011
0000
1001
,  // measure 4
0001
0100
0010
1000
0001
0010
0100
0000
,  // measure 5
0100
0010
0001
1000
0010
0100
0001
0000
,  // measure 6
0010
0001
0100
0010
1000
0001
0010
0000
,  // measure 7
0010
0001
0100
0010
1000
0001
0010
0010
,  // measure 8
0001
0100
0010
1000
0001
0010
0100
0000
,  // measure 9
0100
1000
0010
0100
0010
1000
0001
0000
,  // measure 10
0010
0001
0100
0010
1000
0001
0010
0000
,  // measure 11
0010
0001
0100
0010
1000
0001
0010
0100
,  // measure 12
1000
0001
0100
0010
1000
0001
0010
0000
,  // measure 13
0010
0001
0100
0010
1000
0001
0010
0100
,  // measure 14
1000
0001
0100
0010
1000
0001
0010
0000
,  // measure 15
0010
0001
1000
0010
0100
0001
0010
0100
,  // measure 16
1000
0001
0100
0010
1000
0001
0010
0000
,  // measure 17
0010
0001
0100
0010
1000
0001
0010
0000
,  // measure 18
2100
3100
0012
0013
,  // measure 19
1000
0001
1000
0010
0100
0010
1000
0010
1000
0001
0100
0001
,  // measure 20
2000
0000
3000
0000
,  // measure 21
1002
0000
0000
0000
,  // measure 22
2003
0000
0000
0000
,  // measure 23
3020
0000
0000
0000
,  // measure 24
0230
0000
0000
0000
,  // measure 25
0302
0000
0000
0000
,  // measure 26
0023
0000
0000
0000
,  // measure 27
0230
0000
0000
0000
,  // measure 28
2300
0000
0000
0000
,  // measure 29
3010
0000
0100
0000
0010
0100
0010
0000
,  // measure 30
1000
0000
0001
0000
1000
0001
1000
0000
,  // measure 31
0001
0000
0100
0000
0001
0100
0001
0000
,  // measure 32
0010
0000
0001
0000
0010
0001
0010
0000
,  // measure 33
0011
0000
0100
0000
,  // measure 34
1100
0000
1000
0000
,  // measure 35
1010
0000
0101
0000
,  // measure 36
0001
0000
0000
0000
1000
0000
0000
0000
0010
0000
0000
0100
0000
0000
0001
0000
,  // measure 37
1000
0100
1000
0010
1000
0100
1000
0010
,  // measure 38
0100
0001
0100
0010
0100
0001
0100
0010
,  // measure 39
1000
0100
0010
0100
1000
0001
0100
0010
,  // measure 40
1000
0001
0010
0100
1000
0010
0100
0001
,  // measure 41
0010
0001
0100
0010
1000
0100
0010
0100
,  // measure 42
1000
0001
0100
0010
0001
0100
0010
1000
,  // measure 43
0010
0010
1000
1000
0001
0001
0100
0100
,  // measure 44
0001
0000
0000
0010
0000
0000
0100
0000
0000
1000
0000
0000
0010
0000
0100
0000
,  // measure 45
2001
0000
0000
0000
,  // measure 46
3020
0000
0000
0000
,  // measure 47
0230
0000
0000
0000
,  // measure 48
0302
0000
0000
0000
,  // measure 49
0023
0000
0000
0000
,  // measure 50
0230
0000
0000
0000
,  // measure 51
2300
0000
0000
0000
,  // measure 52
0002
0000
0000
0000
,  // measure 53
3003
0000
0000
0000
;
