#TITLE:DESIRE DRIVE;
#SUBTITLE:(LLS HARDCORE REMIX);
#ARTIST:taqumi;
#TITLETRANSLIT:;
#SUBTITLETRANSLIT:;
#ARTISTTRANSLIT:;
#CREDIT:;
#BANNER:;
#BACKGROUND:;
#LYRICSPATH:;
#CDTITLE:;
#MUSIC:DESIRE DRIVE (LLS HARDCORE REMIX).ogg;
#OFFSET:-10.820;
#SAMPLESTART:53.960;
#SAMPLELENGTH:12.000;
#SELECTABLE:YES;
#BPMS:0.000=178.000;
#STOPS:;
#BGCHANGES:;

//---------------dance-single - ----------------
#NOTES:
     dance-single:
     :
     Beginner:
     4:
     0.126,0.280,0.000,0.011,0.000:
1000
0000
0000
0000
,
0001
0000
0000
0000
,
1000
0000
1000
0000
,
1000
0000
0000
0000
,
0010
0000
0000
0000
,
0100
0000
0000
0000
,
0010
0000
0010
0000
,
0010
0000
0000
0000
,
1000
0000
1000
0000
,
1000
0000
0000
0000
,
0001
0000
0001
0000
,
0001
0000
0000
0000
,
0100
0000
0100
0000
,
0100
0000
0000
0000
,
0010
0000
0010
0000
,
0010
0000
0000
0000
,
1000
0000
1000
0000
,
1000
0000
0000
0000
,
0001
0000
0001
0000
,
0001
0000
0000
0000
,
0010
0000
0010
0000
,
0010
0000
0000
0000
,
0100
0000
0100
0000
,
0100
0000
0000
0000
,
1000
0000
0000
0000
,
0010
0000
0000
0000
,
0100
0000
0000
0000
,
0001
0000
0000
0000
,
0010
0000
0010
0000
,
0010
0000
0010
0000
,
0100
0100
0100
0100
,
0100
0100
0100
0100
,
0100
0000
0000
0000
,
0100
0000
0000
0000
,
0010
0000
0000
0000
,
0010
0000
0000
0000
,
0001
0000
0000
0000
,
0001
0000
0000
0000
,
1000
0000
0000
0000
,
1000
0000
0000
0000
,
0001
0000
1000
0000
,
0001
0000
0000
0000
,
1000
0000
0000
0000
,
0001
0000
0000
0000
,
0100
0000
0010
0000
,
0100
0000
0000
0000
,
0010
0000
0000
0000
,
0100
0000
0000
0000
,
0010
0000
0000
0000
,
1000
0000
0000
0000
,
0010
0000
0010
0000
,
0010
0000
0000
0000
,
0100
0000
0000
0000
,
0001
0000
0000
0000
,
0100
0000
0100
0000
,
0200
0000
0000
0300
;

//---------------dance-single - ----------------
#NOTES:
     dance-single:
     :
     Easy:
     6:
     0.279,0.280,0.056,0.022,0.000:
1000
0000
0100
0000
,
1000
0000
0100
0000
,
0010
0001
0010
0000
,
0001
0010
0001
0000
,
0100
0000
0010
0000
,
0100
0000
0010
0000
,
1000
0001
1000
0000
,
0001
1000
0001
0000
,
0010
0001
0010
0001
,
0010
0010
0001
0000
,
1000
0100
1000
0100
,
1000
1000
0100
0000
,
0010
0001
0100
0001
,
0010
0010
0001
0000
,
0100
0010
1000
0010
,
0100
0100
0010
0000
,
0010
1000
0100
0001
,
0010
0010
0001
0000
,
0001
0100
1000
0010
,
1000
1000
0100
0000
,
0010
0001
1000
0100
,
1000
1000
0010
0000
,
0100
0001
0010
0100
,
1000
1000
0001
0000
,
0010
0000
0001
0000
,
0010
0000
0001
0000
,
1000
0000
0100
0000
,
1000
0000
0100
0000
,
1001
0000
0010
0000
,
0110
0000
1000
0000
,
1100
0000
0011
0000
,
2002
0000
3003
0000
,
0001
0000
1000
0000
,
0001
0100
0001
0010
,
0100
0000
1000
0000
,
0010
0100
0001
0100
,
0010
0000
1000
0000
,
0001
0010
0001
0100
,
0010
0000
1000
0000
,
0100
0010
0100
1000
,
0001
1000
0001
1000
,
0010
0100
0010
0100
,
0001
0010
0100
0010
,
0001
0100
0010
1000
,
0001
1000
0001
1000
,
0010
0100
0010
0100
,
0010
1000
0100
0010
,
0100
1000
0010
0100
,
0001
0000
1000
0000
,
0001
0000
1000
0000
,
0010
0010
0010
0000
,
0100
0100
0100
0000
,
0001
0000
0010
0000
,
0001
0000
0010
0000
,
0100
0100
0100
0000
,
1000
1000
1000
1000
;

//---------------dance-single - ----------------
#NOTES:
     dance-single:
     :
     Medium:
     9:
     0.427,0.405,0.056,0.000,0.000:
1000
0000
0100
0000
0010
0001
0100
0000
,
0010
0000
1000
0000
0100
1000
0001
0000
,
0100
0000
0010
0000
0100
0010
0000
0000
,
1000
0000
0001
0000
1000
0001
0000
0000
,
0100
0000
0010
0000
1000
0100
0010
0000
,
0001
0000
1000
0000
0010
0100
0001
0000
,
0010
0000
0001
0000
1000
0100
0000
0000
,
1000
0000
0010
0000
0100
0001
0000
0000
,
0100
0000
0001
0000
0010
0100
0010
0000
,
0001
0000
0100
0000
0010
1000
0010
0000
,
0100
0000
0001
0000
0010
0001
0010
0000
,
0100
0000
1000
0000
0001
1000
0000
1000
,
0001
0000
0100
0000
0010
1000
0100
0000
,
1000
0000
0010
0000
0100
0001
0010
0000
,
0001
0000
0100
0000
0010
1000
0001
0000
,
0010
0000
0100
0000
1000
0001
0000
0001
,
1000
0000
0010
0000
0100
0001
0100
0001
,
0000
0010
0100
0000
1000
0100
1000
0100
,
0000
0010
0001
0000
1000
0001
1000
0001
,
0000
0100
0010
0000
0100
0000
0001
0000
,
0010
0000
0001
0000
1000
0100
1000
0100
,
0000
1000
0010
0000
0100
0001
0010
0001
,
0000
0100
0010
0000
1000
0001
0010
0100
,
1000
0000
0100
0000
0010
0001
0000
0001
,
0100
0010
0100
0010
,
1000
0001
1000
0001
,
1000
0100
1000
0100
,
0010
0001
0010
0001
,
1001
0000
0110
0000
,
1100
0000
0011
0000
,
1000
0001
1000
0001
,
1000
0001
1000
0001
1000
0001
1000
0001
,
1000
0000
0001
0000
1000
0001
0000
0001
,
1000
0000
0010
0000
0100
0001
0000
0001
,
0100
0000
0010
0000
1000
0100
0000
0100
,
1000
0000
0010
0000
0100
0001
1000
0000
,
0001
0000
0010
0000
0100
1000
0000
1000
,
0100
0000
0010
0000
0001
0100
0000
0100
,
0001
0000
0010
0000
0100
1000
0000
1000
,
0010
0000
0100
0000
0001
0000
0010
0001
,
0100
0010
1000
0100
,
1000
0000
0010
0000
0100
0001
0100
0000
,
0001
0010
0100
1000
,
0001
0000
0100
0000
0010
1000
0001
0000
,
0010
0100
1000
0100
,
0010
0000
0001
0000
1000
0010
1000
0000
,
0010
0100
0001
0010
,
0100
0000
1000
0000
0001
0100
0010
0000
,
0110
0000
1000
0100
0000
0000
1000
0000
,
0010
0000
0100
0001
0000
0000
0010
0000
,
0001
0000
1000
0000
0001
1000
0000
0000
,
0010
0000
0100
0000
0010
0100
0000
0000
,
0001
0000
0010
0000
0100
1000
0000
0000
,
0010
0000
0100
0000
0001
0010
0000
0000
,
0001
0000
0100
0000
0010
1000
0000
0000
,
0100
0000
0010
0000
0001
0100
0010
1000
;

//---------------dance-single - ----------------
#NOTES:
     dance-single:
     :
     Hard:
     12:
     0.580,0.655,0.201,0.000,0.022:
0010
0000
1000
0000
0100
1000
0001
0000
,
0100
0000
0010
0000
1000
0001
0010
0000
,
1001
0000
1001
0000
0001
1000
0001
0000
,
0101
0000
0101
0000
0100
0010
0100
0000
,
0010
0000
1000
0000
0100
0010
0100
0000
,
1000
0000
0001
0000
0100
0010
1000
0000
,
1010
0000
1010
0000
0001
0100
0001
0000
,
0010
0100
1000
0001
,
0010
0001
0100
0010
1000
0100
0010
0001
,
0000
0100
0001
0010
0100
1000
0001
0100
,
0000
0010
1000
0100
0010
0100
1000
0001
,
0100
0000
0010
0000
1000
0100
0000
0100
,
1000
0010
0100
0001
0010
0100
1000
0001
,
0000
0100
0010
1000
0001
0010
0100
1000
,
0000
1000
0100
0010
0001
1000
0010
0100
,
0001
0000
0010
0000
0100
1000
0000
1000
,
0010
1000
0100
0010
0001
0100
0010
0100
,
0000
0001
0010
0001
0100
0010
1000
0001
,
0000
0010
0001
1000
0100
1000
0001
0100
,
0010
0000
1000
0000
0100
0010
0000
0100
,
1000
0100
0010
0001
1000
0010
0100
0001
,
0000
0010
0001
0010
0100
1000
0100
0010
,
0000
0001
0100
0010
1000
0010
0100
0001
,
0010
0000
0100
0000
1000
0001
0000
0001
,
0100
0010
0100
0001
,
1000
0001
0010
0001
,
0010
0100
1000
0100
,
1000
0010
1000
0010
,
1010
0000
0101
0000
,
0011
0000
1100
0000
,
0011
1100
1010
0101
,
0001
0000
0010
0000
0100
0000
1000
0000
0001
1000
0001
1000
0001
1000
0001
1000
,
0001
0010
0100
1000
0100
0010
0000
0010
,
0001
0100
0010
1000
0100
0010
0000
0010
,
0100
1000
0001
0100
0010
1000
0000
1000
,
0001
0010
0001
0100
0010
1000
0001
0010
,
0100
1000
0100
0010
0001
1000
0000
1000
,
0010
0100
0001
0010
0001
0100
0000
0010
,
1000
0100
1000
0001
0100
0010
0000
0010
,
1000
0001
0010
0100
1000
0100
0010
0001
,
0100
0010
0100
0010
1000
0001
1000
0001
,
0100
0001
0100
0001
1000
0010
1000
0010
,
1000
0001
1000
0001
0010
0001
0010
0001
,
0100
0010
1000
0001
0010
0100
1000
0001
,
0010
0001
0010
0001
1000
0100
1000
0100
,
1000
0010
1000
0010
0100
0001
0100
0001
,
1000
0001
1000
0001
0010
0100
1000
0100
,
0010
0001
1000
0010
0100
0001
0010
0100
,
1000
0000
0001
0000
0100
0010
0100
0000
,
0001
0000
0010
0000
0100
1000
0100
0000
,
1001
0000
1001
0000
0010
1000
0100
0000
,
0011
0000
0011
0000
0001
0100
0010
0000
,
1000
0000
0100
0000
0010
0001
1000
0000
,
0010
0000
0100
0000
0001
0010
0100
0000
,
1000
0000
1000
0000
0001
0100
0001
0000
,
0010
0000
0010
0000
0100
1000
0100
1000
;

//---------------dance-single - ----------------
#NOTES:
     dance-single:
     :
     Challenge:
     13:
     0.612,0.655,0.290,0.000,0.095: // measure 1
0010
1000
0001
0010
0100
1000
0100
0000
,  // measure 2
0010
0001
0100
0010
1000
0001
0010
0000
,  // measure 3
0011
0000
1100
0000
0001
0100
0010
1000
,  // measure 4
1100
0000
1100
0000
0001
0010
0001
0100
,  // measure 5
0010
1000
0001
0010
0100
1000
0100
0000
,  // measure 6
0010
0001
0100
0010
1000
0001
0010
0000
,  // measure 7
0011
0000
0011
0000
0001
0100
0010
0000
,  // measure 8
0010
1000
0100
0010
0001
1000
0010
0100
,  // measure 9
0001
0100
0010
1000
0001
0010
0100
1000
,  // measure 10
0100
0010
0001
1000
0010
0100
0010
1000
,  // measure 11
0001
0010
0100
1000
0100
0010
0001
1000
,  // measure 12
0010
0000
0000
0000
0110
0000
0000
0000
0100
0000
0001
0000
0000
MMMM
0000
0000
,  // measure 13
0100
0010
1000
0001
0010
0100
1000
0100
,  // measure 14
0010
0001
1000
0010
0100
0001
0010
0001
,  // measure 15
0100
0010
1000
0001
0010
0100
1000
0001
,  // measure 16
0100
0000
0000
0000
0101
0000
0000
0000
0001
0000
0010
0000
0000
MMMM
0000
0000
,  // measure 17
0001
1000
0010
0100
0001
0010
0100
1000
,  // measure 18
0100
0010
0001
1000
0010
0100
0001
0010
,  // measure 19
0100
1000
0010
0100
0001
0010
0100
1000
,  // measure 20
0001
0000
0000
0000
0101
0000
0000
0000
1000
0000
0100
0000
0000
MMMM
0000
0000
,  // measure 21
0100
1000
0010
0100
0001
0010
0100
1000
,  // measure 22
0100
0010
0001
1000
0010
0100
0001
0010
,  // measure 23
0001
0100
0010
1000
0001
0010
0100
1000
,  // measure 24
0001
0000
0000
0000
0101
0000
0000
0000
0001
0000
0010
0000
0000
MMMM
0000
0000
,  // measure 25
0001
0010
0001
0010
,  // measure 26
0100
1000
0100
1000
,  // measure 27
0010
0100
0010
0100
,  // measure 28
0001
0010
0001
1000
,  // measure 29
1001
MMMM
1001
MMMM
,  // measure 30
0110
MMMM
1001
MMMM
,  // measure 31
1100
0011
0101
1010
,  // measure 32
0001
0000
0010
0000
0100
0000
1000
0000
0001
0010
0100
1000
0001
0100
0010
1000
,  // measure 33
0001
0000
0100
0000
0010
0000
1000
0000
0001
0000
0010
0000
0000
MMMM
0000
0000
,  // measure 34
0010
0000
0001
0000
0100
0000
0010
0000
1000
0000
0001
0000
0000
MMMM
0000
0000
,  // measure 35
0010
0000
0100
0000
1000
0000
0001
0000
0010
0000
0100
0000
0000
MMMM
0000
0000
,  // measure 36
0010
0001
1000
0010
0100
0001
0010
0100
,  // measure 37
1000
0000
0100
0000
0010
0000
0001
0000
1000
0000
0010
0000
0000
MMMM
0000
0000
,  // measure 38
0100
0000
0010
0000
1000
0000
0001
0000
0010
0000
0100
0000
0000
MMMM
0000
0000
,  // measure 39
1000
0000
0100
0000
0010
0000
0001
0000
1000
0000
0010
0000
0000
MMMM
0000
0000
,  // measure 40
0010
1000
0001
0010
0100
1000
0100
0010
,  // measure 41
0001
0100
1000
0100
0001
0010
1000
0010
,  // measure 42
0001
0100
0010
1000
0001
0010
0100
1000
,  // measure 43
0001
0100
0010
1000
0001
0010
0100
1000
,  // measure 44
0100
0010
0001
1000
0010
0100
0001
0010
,  // measure 45
1000
0010
0100
0001
0010
0100
1000
0100
,  // measure 46
0010
0001
1000
0010
0100
0001
0010
0100
,  // measure 47
1100
MMMM
1001
MMMM
,  // measure 48
1000
0001
0010
0100
1000
0100
0010
0001
,  // measure 49
1000
0100
0010
0001
1000
0010
0100
0000
,  // measure 50
0010
1000
0001
0010
0100
1000
0100
0000
,  // measure 51
0011
0000
0000
0000
0011
0000
0000
0000
0001
0000
0100
0000
0000
MMMM
0000
0000
,  // measure 52
0110
0000
0000
0000
0110
0000
0000
0000
0010
0000
1000
0000
0000
MMMM
0000
0000
,  // measure 53
1000
0100
0010
0100
1000
0001
0100
0010
,  // measure 54
1000
0001
0010
0100
1000
0100
0010
0000
,  // measure 55
0011
0000
0000
0000
0011
0000
0000
0000
0001
0000
0100
0000
0000
MMMM
0000
0000
,  // measure 56
0010
0000
1000
0000
0100
1000
0001
0010
;
