
//----- song ID: tbea -----//
#TITLE:the beat;
#ARTIST:Sparky;
#BANNER:the beat.png;
#BACKGROUND:the beat-bg.png;
#CDTITLE:./CDTitles/DDR HOTTEST PARTY.png;
#MUSIC:the beat.ogg;
#SAMPLESTART:46.324;
#SAMPLELENGTH:15;
#BPMS:0=139.896;
#STAGE:17;
#NOTES:
     dance-single:
     :
     Beginner:
     4:
     :
0000
0000
0000
0000
,
0000
0000
0000
0000
,
0000
0000
0000
0000
,
0000
0000
0000
0000
,
0000
0000
0000
0000
,
0000
0000
0000
0000
,
1000
0000
1000
0000
,
0100
0000
0000
0000
,
1000
0000
1000
0000
,
0010
0000
0000
0000
,
0001
0001
0100
0000
,
0010
0010
0100
0000
,
1001
0000
0000
0000
,
0000
0000
0000
0000
,
1000
1000
0010
0000
,
1000
1000
0100
0000
,
1001
0000
0000
0000
,
0000
0000
0000
0000
,
0001
0000
0010
0000
,
0100
0100
0001
0000
,
0010
0000
1000
0000
,
1000
0000
0000
0000
,
1000
0000
0010
0000
,
0100
0100
1000
0000
,
0010
0000
0001
0000
,
0001
0000
0000
0000
,
1001
0000
0000
0000
,
0001
0100
0001
0000
,
0010
0010
0100
0000
,
0001
0000
0010
0000
,
1000
0000
0000
0000
,
1000
0100
1000
0000
,
0010
0010
0100
0000
,
1000
0000
0010
0000
,
0001
0000
0000
0000
,
0002
0000
0000
0000
,
0003
0000
0000
0000
,
0200
0000
0000
0000
,
0300
0000
0000
0000
,
1000
0010
1000
0000
,
1000
1000
0100
0000
,
1001
0000
0000
0000
,
0000
0000
0000
0000
,
0001
0010
0001
0000
,
0001
0001
0100
0000
,
1001
0000
0000
0000
,
0000
0000
0000
0000
,
1001
0000
0000
0000
,
1000
0000
0100
0000
,
1000
1000
0100
0000
,
0001
0000
0010
0000
,
0001
0000
0000
0000
,
0001
0000
0100
0000
,
0001
0001
0100
0000
,
1000
0000
0010
0000
,
1000
0000
0000
0000
,
2000
0000
0000
0000
,
3000
0000
0000
0000
,
0002
0000
0000
0000
,
0003
0000
1001
0000
,
0000
0000
0000
0000
;
#NOTES:
     dance-single:
     :
     Easy:
     8:
     :
0000
0000
0000
0000
,
0000
0000
0000
0000
,
0000
0000
0000
0000
,
0000
0000
0000
0000
,
0000
0000
0000
0000
,
0000
0000
0000
0000
,
0002
0000
0000
0003
,
0200
0000
0000
0300
,
0020
0000
0000
0030
,
2000
0000
3001
0000
,
1000
1000
0100
0000
,
0010
0010
0001
0000
,
0100
0001
0100
0001
,
1000
0001
1000
0000
,
0001
0001
0010
0000
,
0100
0100
1000
0000
,
0010
1000
0010
1000
,
0001
1000
0001
0000
,
1000
0100
1000
0000
0010
0000
1000
0000
,
0100
0010
0100
0010
0000
0000
0000
0000
,
0001
0100
0001
0000
1000
0000
0010
0000
,
0100
0100
0110
0000
,
0001
0100
0001
0000
0010
0000
0001
0000
,
0100
0010
0100
0010
0000
0000
0000
0000
,
1000
0100
1000
0000
0001
0010
0001
0000
,
0100
0100
0110
0000
,
2002
0000
0000
3003
,
1000
0000
0010
0000
0100
0001
0100
0000
,
0010
1000
0001
1000
0001
0000
0000
0000
,
1000
0000
0001
0000
0100
0010
0100
0000
,
0001
0010
0100
0010
0100
0000
1001
0000
,
0001
0000
0100
0000
0010
1000
0010
0000
,
0100
0001
1000
0001
1000
0000
0000
0000
,
0001
0000
1000
0000
0010
0100
0010
0000
,
1000
0100
0010
0100
0010
0000
1001
0000
,
0001
0100
0001
0010
,
0001
0100
0001
0001
,
1000
0010
1000
0100
,
1000
0010
1000
1000
,
0001
0100
0010
0000
1000
0000
1000
0000
,
0001
0000
0010
0200
0000
0000
0300
0000
,
1000
0100
0010
0000
0001
0000
0001
0000
,
0101
1000
1001
0000
,
1000
0010
0100
0000
0001
0000
0001
0000
,
1000
0000
0100
0020
0000
0000
0030
0000
,
0001
0010
0100
0000
1000
0010
1000
0000
,
0100
0000
0000
0001
1000
0000
0000
0000
,
2002
0000
0000
3003
,
0001
0000
0100
0000
0010
1000
0100
0000
,
0110
0001
1001
0000
,
1000
0000
0100
0000
0010
0001
0100
0000
,
0110
1000
1001
0000
,
0001
0000
1000
0000
0100
0010
0100
0000
,
1100
0010
0011
0000
,
1000
0000
0001
0000
0100
0010
0100
0000
,
0101
0010
1010
0000
,
2000
0000
3100
0000
,
0010
0010
0010
0000
,
0002
0000
0103
0000
,
0010
0010
1001
0000
,
0000
0000
0000
0000
;
#NOTES:
     dance-single:
     :
     Medium:
     11:
     :
0000
0000
0000
0000
,
0000
0000
0000
0000
,
0000
0000
0000
0000
,
0000
0000
0000
0000
,
0000
0000
0000
0000
,
0000
0000
0000
0000
,
0000
1000
0000
1000
0000
0001
0000
0001
,
0000
0100
0010
0000
1010
0000
0011
0000
,
0000
0001
0000
0001
0000
1000
0000
1000
,
0000
0010
0100
0000
1001
0000
0000
0000
,
1000
0100
1000
0100
0000
0010
0001
0010
,
0000
0001
0100
0001
0000
0000
0001
0100
,
0020
2030
3200
0302
,
0103
0000
1000
0001
0100
0000
0110
0000
,
0001
0010
0001
0010
0000
0100
1000
0100
,
1000
0010
1000
0100
0000
0000
1000
0010
,
0100
0100
0001
0010
0000
0010
0100
0010
,
0001
0000
0001
1000
0010
0000
0110
0000
,
1000
0010
0100
0001
0000
1000
0010
0100
,
0001
0100
1000
0100
0000
0000
0101
0000
,
0001
0010
0001
1000
0000
0001
0010
1000
,
0020
0032
1003
1001
,
0001
0100
0010
1000
0000
0001
0100
0010
,
1000
0010
0001
0010
0000
0000
1010
0000
,
2000
0000
3100
0020
0000
0031
2000
0000
,
3100
0000
0010
0100
0220
0000
0330
0000
,
2002
0000
3003
0001
1000
0000
0000
0000
,
0001
0010
0100
1000
0001
0010
0100
0000
,
1000
0100
0001
0100
2000
0000
3000
0000
,
1000
0010
0100
0001
1000
0010
0100
0000
,
0001
0100
1000
0100
0002
0000
0003
0000
,
1000
0100
0010
0001
1000
0100
0010
0000
,
0001
0010
1000
0010
0002
0000
0003
0000
,
0001
0100
0010
1000
0001
0100
0010
0000
,
1000
0010
0001
0010
2000
0000
3000
0000
,
0001
0010
0001
0000
0001
0100
0001
0000
,
0001
1000
0010
0100
0001
1000
0001
0000
,
1000
0010
1000
0000
1000
0100
1000
0000
,
1000
0001
0010
0100
1000
0001
1000
0000
,
0001
0010
0001
0010
0000
0001
0100
1000
,
0100
0001
0010
0002
0000
1000
1003
0000
,
0100
1000
0010
1000
0000
0100
0010
0001
,
0101
1010
2002
3003
,
1000
0010
1000
0010
0000
1000
0100
0001
,
0100
1000
0010
2000
0000
0001
3001
0000
,
0100
0001
0010
0001
0000
0100
0010
1000
,
1100
0000
0010
0001
2002
0000
3003
0000
,
0220
0000
0000
0000
0330
0000
0100
0010
0100
0000
0000
0000
0000
0000
0000
0000
,
0001
0010
0100
1000
0001
0100
0010
0000
,
0001
0010
1000
0100
0001
0000
0110
0000
,
1000
0100
0010
0001
0100
0010
0100
0000
,
1000
0100
0001
0010
1000
0000
0110
0000
,
1000
0010
0100
0001
1000
0100
0010
0000
,
1000
0010
0001
0100
1000
0000
0110
0000
,
0001
0100
0010
1000
0100
0010
0100
0000
,
0001
0100
1000
0010
0001
0000
0110
0000
,
2000
0000
3020
0000
,
0230
0302
2003
3000
,
0002
0000
0023
0000
,
0230
1300
1001
0000
,
0000
0000
0000
0000
;
#NOTES:
     dance-single:
     :
     Hard:
     14:
     :
0000
0000
0000
0000
,
0000
0000
0000
0000
,
0000
0000
0000
0000
,
0000
0000
0000
0000
,
0000
0000
0000
0000
,
0000
0000
0000
0000
,
0000
1000
0010
1000
0000
0001
0100
0001
,
0000
1000
0100
0001
0100
1000
0001
1000
,
0000
0001
0010
0001
0000
1000
0100
1000
,
0000
0001
0100
0010
0110
0000
0000
0000
,
1000
0000
0100
0010
0001
0000
1000
0000
0000
0000
0001
0010
0100
0000
1000
0000
,
0000
0000
0001
0100
0010
0000
1000
0000
0000
0000
0001
0010
0001
0000
0100
0000
,
0020
1000
2030
0100
3200
0010
0320
0001
,
0031
0000
0100
0010
1000
0000
0100
0010
0001
0000
1000
0001
1000
0000
0000
0000
,
0001
0000
0010
0100
1000
0000
0001
0000
0000
0000
1000
0100
0010
0000
0001
0000
,
1001
0000
1000
0010
0100
0000
0001
0000
0000
0000
1000
0100
1000
0000
0010
0000
,
0100
0000
0001
0010
0001
0000
0100
0000
0000
0000
0110
0000
0110
0000
0000
0000
,
1000
0000
0010
0100
0001
0000
2000
0000
0000
0000
0001
0000
3001
0000
0000
0000
,
1000
0010
0100
0010
1000
0000
0001
0000
0000
0000
0001
0010
0100
0000
1000
0000
,
0100
0001
0100
2000
0000
0001
3001
0000
,
0001
0100
0001
0100
0001
0000
0010
0000
0000
0000
0010
0100
1000
0000
0010
0000
,
1010
0110
0202
0303
,
0001
0100
0010
0100
0001
0000
1000
0000
0000
0000
1000
0100
0010
0000
0001
0000
,
0010
1000
0010
0002
0000
1000
1003
0000
,
1000
0010
1000
0010
1000
0000
0100
0000
0010
0001
0010
0001
0010
0000
0100
0000
,
2200
0000
3300
0001
0022
0000
0033
0000
,
2002
0000
0000
0000
3003
0000
0001
1000
0002
0000
0000
0000
0003
0000
0000
0000
,
1000
0000
0010
0100
0010
0000
1000
0000
0100
0010
0001
1000
0001
0000
0000
0000
,
1010
0000
1000
0000
1001
0000
0001
0000
0101
0000
1000
0001
1000
0000
0000
0000
,
1000
0000
0100
0010
0100
0000
1000
0000
0001
0100
0010
1000
0010
0000
0000
0000
,
1010
1000
0011
0001
2002
0000
3003
0000
,
0001
0000
0100
0010
0100
0000
0001
0000
0010
0100
1000
0001
1000
0000
0000
0000
,
0101
0000
0001
0000
1001
0000
1000
0000
1010
0000
0001
1000
0001
0000
0000
0000
,
0001
0000
0010
0100
0010
0000
0001
0000
1000
0010
0100
0001
0100
0000
0000
0000
,
0101
0001
1100
1000
2002
0000
3003
0000
,
1000
0100
1000
0100
0010
0001
0010
0001
,
0100
0001
0100
0001
1000
0010
1000
0010
,
1000
0100
0010
0001
1000
0010
0100
0001
,
1000
0100
1000
0000
0001
0100
0001
0000
1000
0001
1000
0001
1000
0000
0000
0000
,
0001
0000
0100
0010
1000
0000
0001
0000
1000
0100
1000
0100
0010
0000
0001
0000
,
0011
0000
0010
0000
1100
0000
0100
0000
0000
0000
1000
0001
1000
0000
0000
0000
,
0001
0000
0100
0010
0100
0000
0010
0000
1000
0001
0010
0001
1000
0000
0100
0000
,
1100
0000
1000
0000
1001
0000
0001
0000
0011
0000
1000
0001
1000
0000
0000
0000
,
1000
0000
0010
0100
0001
0000
1000
0000
0001
0010
0001
0010
0100
0000
1000
0000
,
1100
0000
0100
0000
0011
0000
0010
0000
0000
0000
0001
1000
0001
0000
0000
0000
,
1000
0010
1000
0010
1000
0000
1000
0000
0001
0010
0001
0000
0010
0001
0010
0000
,
0011
0000
0001
0000
0101
0000
0100
0010
2000
0000
0001
0000
3001
0000
0000
0000
,
2002
0000
0000
0000
3003
0000
1000
0001
2000
0000
0000
0000
3000
0000
0000
0000
,
1000
0100
0010
0000
0001
0100
0010
0000
1000
0001
1000
0001
1000
0000
0000
0000
,
0011
0000
0100
0000
1010
0000
0100
0000
0011
0000
0001
1000
0001
0000
0000
0000
,
1000
0010
0100
0000
0001
0010
0100
0000
1000
0001
0100
0001
1000
0010
1000
0000
,
1010
0100
0011
0100
2002
0000
3003
0000
,
0001
0010
0100
0000
1000
0010
0100
0000
0001
1000
0001
1000
0001
0000
0000
0000
,
1100
0000
0010
0000
0101
0000
0010
0000
1100
0000
1000
0001
1000
0000
0000
0000
,
0001
0100
0010
0000
1000
0100
0010
0000
0001
1000
0010
1000
0001
0100
0001
0000
,
0101
0010
1100
0010
2002
0000
3003
0000
,
0002
0000
0103
0010
2000
0000
3100
0010
,
0002
0000
0023
0000
1030
0010
0001
0000
,
2000
0000
3010
0100
0002
0000
0013
0100
,
2000
3100
1001
0000
,
0000
0000
0000
0000
;
#NOTES:
     dance-double:
     :
     Easy:
     8:
     :
00000000
00000000
00000000
00000000
,
00000000
00000000
00000000
00000000
,
00000000
00000000
00000000
00000000
,
00000000
00000000
00000000
00000000
,
00000000
00000000
00000000
00000000
,
00000000
00000000
00000000
00000000
,
00002000
00000000
00000000
00003000
,
00020000
00000000
00000000
00030000
,
00000200
00000000
00000000
00000300
,
00002000
00000000
00003001
00000000
,
00000001
00000100
00000001
00000100
,
00000010
00001000
00000010
00000000
,
00000110
00000000
00000000
00000000
,
00011000
00000000
00000000
00000000
,
00001000
00100000
00001000
00100000
,
00010000
01000000
00010000
00000000
,
01100000
00000000
00000000
00000000
,
10010000
00000000
00000000
00000000
,
10000000
01000000
10000000
00000000
00010000
00000000
01000000
00000000
,
00100000
00100000
00100000
00000000
,
10000000
01000000
00010000
00001000
,
00000010
00000100
00000110
00000000
,
00000001
00000100
00000001
00000000
00001000
00000000
00000100
00000000
,
00000010
00000010
00000010
00000000
,
00000001
00000100
00001000
00010000
,
00100000
10000000
00010000
00000000
,
20020000
00000000
00000000
30030000
,
10000000
01000000
00100000
00000000
01000000
00100000
00010000
00000000
,
01000000
00001000
00010000
00001000
00100000
00000000
00000000
00000000
,
00001000
00010000
00000100
00000000
00001000
00000100
00000010
00000000
,
00000001
00001000
00000100
00001000
00000010
00000000
00000000
00000000
,
00001000
00000001
00001000
00000000
00000010
00000100
00001000
00000000
,
00010000
00001000
01000000
00001000
00010000
00000000
00000000
00000000
,
00001000
00100000
00001000
00000000
01000000
00010000
00100000
00000000
,
01000000
10000000
00100000
10000000
00010000
00000000
00000000
00000000
,
10000000
01000000
10000000
01000000
,
00100000
00010000
00100000
00100000
,
00001000
00010000
00000100
00001000
,
00000100
00000010
00000001
00000000
,
00000001
00001000
00000001
00000000
00000100
00000000
00000010
00000000
,
00000100
00001000
00020000
00030000
,
00001000
00010000
00001000
00000000
01000000
00000000
00100000
00000000
,
01000000
01000000
01100000
00000000
,
10000000
00010000
10000000
00000000
01000000
00000000
00100000
00000000
,
01000000
00010000
00002000
00003000
,
00010000
00001000
00010000
00000000
00000010
00000000
00001000
00000000
,
00000100
00000000
00000000
00000100
00000010
00000000
00000000
00000000
,
00002002
00000000
00000000
00003003
,
00000001
00000010
00001000
00010000
,
00000010
00000100
00001000
00010000
,
00000100
00001000
00010000
00100000
,
01100000
00000000
10010000
00000000
,
10000000
00100000
00010000
00001000
,
00100000
01000000
00010000
00001000
,
01000000
00010000
00001000
00000010
,
00000110
00000000
00001001
00000000
,
00000002
00000000
00001003
00000000
,
00000100
00000100
00000100
00000000
,
00020000
00000000
00031000
00000000
,
01000000
01000000
01100000
00000000
,
00000000
00000000
00000000
00000000
;
#NOTES:
     dance-double:
     :
     Medium:
     11:
     :
00000000
00000000
00000000
00000000
,
00000000
00000000
00000000
00000000
,
00000000
00000000
00000000
00000000
,
00000000
00000000
00000000
00000000
,
00000000
00000000
00000000
00000000
,
00000000
00000000
00000000
00000000
,
00000000
00001000
00000000
00001000
00000000
00010000
00000000
00010000
,
00000000
00001000
00010000
00001000
00100000
00010000
00100000
01000000
,
00000000
10000000
00000000
10000000
00000000
00100000
00000000
00100000
,
00000000
10000000
01000000
00100000
00010000
00000000
00000000
00000000
,
10000000
01000000
00100000
00010000
00000000
00100000
00001000
00010000
,
00000000
00001000
00010000
00001000
00000000
00000000
00001000
00000010
,
00000002
00002003
00003200
00000320
,
00000031
00000100
00001000
00011000
,
00010000
00001000
00100000
00010000
00000000
01000000
00010000
00100000
,
01000000
10000000
00010000
10000000
00000000
00000000
00000000
10000000
,
01000000
01000000
00100000
00002000
00000000
00000000
00003000
00001000
,
00010000
00000010
00001000
00000010
00000100
00000000
00000110
00000000
,
00000001
00000100
00000001
00000100
00000000
00000010
00001000
00000100
,
00001000
00000010
00010000
00001000
00000000
00000000
00011000
00000000
,
00010000
00001000
01000000
00010000
00000000
00100000
00010000
01000000
,
20000000
32000000
03010000
10010000
,
10000000
01000000
10000000
01000000
00000000
00100000
00010000
01000000
,
00010000
00100000
00001000
00010000
00000000
00000000
00011000
00000000
,
00001000
00000000
00010000
00000100
00000000
00001000
00000010
00000000
,
00000100
00000000
00000001
00000100
00002000
00000000
00003000
00000000
,
00000220
00000000
00000330
00000000
,
00000001
00000100
00000010
00001000
00000001
00000100
00000010
00000000
,
00001000
00000100
00010000
00001000
00020000
00000000
00030000
00000000
,
00001000
00100000
00010000
01000000
00001000
00100000
00010000
00000000
,
01000000
10000000
01000000
00010000
20000000
00000000
30000000
00000000
,
10000000
01000000
00100000
00010000
10000000
01000000
00100000
00000000
,
00010000
01000000
00001000
00010000
00002000
00000000
00003000
00000000
,
00010000
00000010
00001000
00000100
00010000
00000010
00001000
00000000
,
00000100
00000001
00000100
00001000
00000002
00000000
00000003
00000000
,
00001000
00000010
00001000
00000000
00001000
00000100
00001000
00000000
,
00001000
00000100
00010000
00001000
00100000
00001000
00100000
00000000
,
00010000
00100000
00010000
00000000
00010000
01000000
00010000
00000000
,
00010000
00100000
00001000
00010000
00000100
00001000
00000100
00000000
,
00001000
00000100
00000010
00000001
00000000
00000001
00000100
00001000
,
00000100
00001000
00010000
00002000
00000000
00010000
00013000
00000000
,
00001000
00010000
00100000
10000000
00000000
00100000
10000000
00010000
,
01010000
01100000
20020000
30030000
,
00010000
00100000
01000000
10000000
00000000
10000000
00100000
00010000
,
00100000
00010000
00001000
00020000
00000000
00001000
00031000
00000000
,
00010000
00001000
00000100
00000001
00001000
00000100
00000010
00000001
,
00002000
00000000
00000000
00000010
00003010
00000000
00000000
00000000
,
00002002
00000000
00000000
00000000
00003003
00000000
00000001
00001000
00000001
00000000
00000000
00000000
00000000
00000000
00000000
00000000
,
00000001
00000100
00000010
00010000
00001000
00000010
00000100
00010000
,
00001000
00010000
00100000
00010000
00001000
00000000
00011000
00000000
,
00010000
00000010
00000100
00001000
00010000
00100000
01000000
00001000
,
00010000
01000000
00010000
00001000
00010000
00100000
10000000
00000000
,
10000000
01000000
00100000
00001000
00010000
00100000
01000000
00001000
,
00010000
00001000
00000010
00001000
00010000
00000000
00011000
00000000
,
00001000
00100000
01000000
00010000
00001000
00000010
00000100
00010000
,
00001000
00000100
00001000
00010000
00001000
00000010
00000001
00000000
,
00000002
00000000
00000203
00000000
,
00002300
00013000
00011000
00000000
,
00002000
00000000
00023000
00000000
,
00130000
10000000
10010000
00000000
,
00000000
00000000
00000000
00000000
;
#NOTES:
     dance-double:
     :
     Hard:
     14:
     :
00000000
00000000
00000000
00000000
,
00000000
00000000
00000000
00000000
,
00000000
00000000
00000000
00000000
,
00000000
00000000
00000000
00000000
,
00000000
00000000
00000000
00000000
,
00000000
00000000
00000000
00000000
,
00000000
00001000
00010000
00001000
00000000
00010000
00001000
00010000
,
00000000
00001000
00010000
00000010
00000100
00000010
00010000
00001000
,
00000000
00010000
00001000
00010000
00000000
00001000
00010000
00001000
,
00000000
00010000
00001000
01000000
00100000
00000000
00000000
00000000
,
10000000
00000000
00100000
10000000
00100000
00000000
10000000
00000000
01000000
00000000
00100000
00010000
00100000
00000000
00010000
00000000
,
10000000
01000000
00010000
00001000
00010000
00001000
00000010
00000001
,
00001000
00000010
00001010
00000000
00000001
00000100
00000101
00000000
,
00000001
00000000
00000100
00000010
00000100
00000000
00000010
00001000
00000010
00000000
00001000
00000001
00001000
00000000
00000000
00000000
,
00000001
00000000
00000100
00000001
00000100
00000000
00000001
00000000
00000010
00000000
00000100
00001000
00000100
00000000
00001000
00000000
,
00000001
00000010
00001000
00010000
00001000
00010000
01000000
10000000
,
00010000
01000000
00010000
01010000
00000000
10000000
10100000
00000000
,
10000000
00000000
00100000
01000000
00100000
00000000
02000000
00000000
00000000
00000000
00010000
00000000
03010000
00000000
00000000
00000000
,
10000000
00100000
10000000
00100000
10000000
00000000
01000000
00000000
00100000
00010000
00100000
00010000
00100000
00000000
01000000
00000000
,
10000000
01000000
00010000
00001000
00000000
00001000
00000010
00000000
,
00000001
00001000
00000001
00001000
00000001
00000000
00001000
00000000
00000100
00010000
00000100
00010000
00000100
00000000
00001000
00000000
,
00000010
00001000
00000100
00000000
00000220
00000000
00000330
00000000
,
00000001
00000010
00000001
00000010
00000001
00000000
00000100
00000000
00000010
00001000
00000010
00001000
00000010
00000000
00000100
00000000
,
00000001
00000100
00001000
00010000
00000000
00010000
00100000
00000000
,
10000000
00010000
10000000
00010000
10000000
00000000
00010000
00000000
01000000
00001000
01000000
00001000
01000000
00000000
00010000
00000000
,
00100000
00010000
01000000
00100000
02200000
00000000
03300000
00000000
,
20020000
00000000
00000000
30030000
,
10000000
00000000
00100000
01000000
00100000
00000000
01000000
00010000
01000000
00000000
00010000
00100000
00010000
00000000
00000000
00000000
,
00100000
00000000
00001000
00000000
00010000
00000000
01000000
00000000
00100000
00000000
00001000
00010000
00001000
00000000
00000000
00000000
,
00010000
00000000
00000100
00001000
00000100
00000000
00001000
00000010
00001000
00000000
00000001
00000100
00000001
00000000
00000000
00000000
,
00000100
00001000
00010000
00000100
00000010
00000000
00000110
00000000
,
00000001
00000000
00000010
00000100
00000010
00000000
00000100
00001000
00000100
00000000
00001000
00000010
00001000
00000000
00000000
00000000
,
00000010
00000000
00010000
00000000
00001000
00000000
00000100
00000000
00000010
00000000
00010000
00001000
00010000
00000000
00000000
00000000
,
00001000
00000000
01000000
00010000
01000000
00000000
00010000
00100000
00010000
00000000
10000000
01000000
10000000
00000000
00000000
00000000
,
01000000
00010000
00001000
01000000
00100000
00000000
01100000
00000000
,
10000000
00010000
00100000
00001000
01000000
00010000
10000000
00000000
,
01000000
00100000
00001000
00010000
00000100
00000010
00000001
00000000
,
00001000
00000100
00010000
00000010
00000100
00000010
00010000
00000000
,
00000100
00000010
00000001
00000100
00001000
00010000
00100000
00000000
,
10000000
00000000
00010000
01000000
00010000
00000000
00100000
00000000
01000000
10000000
01000000
00000000
10000000
00000000
00100000
00000000
,
00010000
00000000
00001000
00000000
00000100
00000000
00000001
00000000
00000000
00000000
00001000
00000001
00001000
00000000
00000000
00000000
,
00000100
00000000
00000010
00000001
00000010
00000000
00001000
00000000
00010000
00001000
00010000
00000000
00000100
00000000
00001000
00000000
,
00001010
00000000
00000010
00000000
00000110
00000000
00000100
00000000
00000101
00000000
00000001
00001000
00000001
00000000
00000000
00000000
,
00000001
00000000
00001000
00000010
00001000
00000000
00000100
00000000
00000010
00000001
00000010
00000000
00000001
00000000
00000100
00000000
,
00001000
00000000
00010000
00000000
00100000
00000000
10000000
00000000
00000000
00000000
00010000
10000000
00010000
00000000
00000000
00000000
,
10000000
00010000
10000000
00100000
10000000
00000000
01000000
00000000
00010000
00000000
00001000
00000000
00010000
00000000
00000100
00000000
,
00001000
00000100
00001000
00000010
00001000
00000000
00000001
00000000
00000100
00000000
00001000
00000000
00000100
00000000
00000010
00000000
,
00000220
00000000
00000000
00000330
,
00000001
00000000
00000100
00000010
00001000
00000000
00000100
00010000
00001000
00000000
00100000
00010000
01000000
00000000
00000000
00000000
,
00100000
10000000
00010000
10000000
00100000
00000000
01000000
00000000
00010000
00000000
00000000
00000000
10010000
00000000
00000000
00000000
,
10000000
00000000
01000000
00100000
00010000
00000000
00100000
00001000
00010000
00000000
01000000
00100000
00010000
00000000
00000000
00000000
,
01000000
00001000
00010000
00001000
00100000
00000000
00010000
00000000
01000000
00000000
00000000
00000000
10010000
00000000
00000000
00000000
,
10000000
00000000
00100000
01000000
00010000
00000000
00100000
00001000
00010000
00000000
00000100
00001000
00000010
00000000
00000000
00000000
,
00000100
00000001
00001000
00000001
00000100
00000000
00000010
00000000
00001000
00000000
00000000
00000000
00001001
00000000
00000000
00000000
,
00000001
00000000
00000010
00000100
00001000
00000000
00000100
00010000
00001000
00000000
00000010
00000100
00001000
00000000
00000000
00000000
,
00000010
00010000
00001000
00010000
00000100
00000000
00001000
00000000
00000010
00000000
00000000
00000000
00001001
00000000
00000000
00000000
,
00000002
00000000
00000103
00001000
00020000
00000000
00031000
00000010
,
00002000
00000000
00023000
00000000
01030000
10000000
00010000
00000000
,
20000000
00000000
30100000
00010000
00002000
00000000
00013000
01000000
,
00020000
00031000
00000110
00000000
,
00000000
00000000
00000000
00000000
;
