
//----- song ID: susp -----//
#TITLE:suspicions;
#ARTIST:BEMANI Sound Team "猫叉Master VS dj TAKA";
#ARTISTTRANSLIT:BEMANI Sound Team "Nekomata Master VS dj TAKA";
#BANNER:suspicions.png;
#BACKGROUND:suspicions-bg.png;
#CDTITLE:./CDTitles/DDR A3.png;
#MUSIC:suspicions.ogg;
#SAMPLESTART:74.119;
#SAMPLELENGTH:15;
#DISPLAYBPM:77:153;
#BPMS:0=153,120=102,128=153,152=76.5,167=153;
#STAGE:3;
#NOTES:
     dance-single:
     :
     Beginner:
     5:
     :
0000
0000
0000
0000
,
0000
0000
0000
0000
,
0000
0000
0000
0000
,
0000
0000
0000
1000
,
0000
0000
1000
0000
,
0000
0010
0000
0000
,
0100
0000
0000
1001
,
0000
0000
0000
0000
,
0000
0001
0000
0000
,
0010
0001
0010
0001
,
0000
0000
0100
0010
,
0100
0010
0000
0000
,
0100
1000
0100
1000
,
0000
0000
1001
0000
,
0000
1000
0010
1000
,
0010
0000
0000
0010
,
0100
0010
0100
0000
,
0000
0100
0001
0100
,
0001
0000
0000
0110
,
0000
0000
1001
0000
,
0000
0001
0100
1000
,
1000
0000
0000
0010
,
0010
1000
0100
0000
,
0000
0010
0010
0001
,
0100
0000
0000
0100
,
0100
1000
0010
0000
,
0000
0100
0100
0001
,
0010
0000
0000
0001
,
0000
0100
0000
0000
1000
0000
0000
0000
,
0000
0000
1000
0000
0000
0100
0000
0000
,
0001
0000
0000
0000
,
1000
0000
0000
0000
,
0020
0000
0000
0030
,
0000
0000
0200
0000
,
0000
0300
0000
0000
,
2000
0000
0000
3000
,
0000
0000
0002
0000
,
0000
0003
0000
0000
,
0001
0000
0000
0001
0000
0000
0010
0000
,
0000
0000
0000
0000
0100
0000
0000
0100
,
0000
1000
0000
0000
,
1001
0000
0000
0000
,
0000
0000
1000
1000
,
0100
0010
0000
1001
,
0000
0001
0001
0100
,
0010
0000
1001
0000
,
1000
1000
0010
0001
,
0000
0110
0000
0001
,
0001
0010
1000
0000
,
0000
2000
0000
0000
,
3000
1000
0100
0020
,
0000
0000
0030
0010
,
0100
0002
0000
0000
,
0003
0001
0100
2000
,
0000
0000
3000
0000
,
0000
0010
0000
0000
,
1001
0000
0000
0010
,
0000
0000
1001
0000
,
0000
0100
0000
0000
,
1001
0000
0000
0100
,
0000
0000
1001
0000
,
0000
0001
0001
0000
,
0001
0000
0000
1000
,
1000
0000
1000
0000
,
0000
0010
0010
0000
,
0010
0000
0000
0100
,
0100
0100
0100
0000
,
0000
2002
0000
0000
,
3003
0000
0000
0000
,
0000
0000
0000
0000
;
#NOTES:
     dance-single:
     :
     Easy:
     9:
     :
0000
0000
0000
0000
,
0000
0000
0000
0000
,
0000
0000
0000
0000
,
0000
0000
0000
0001
,
1000
0100
1000
0000
0001
0000
1000
0010
,
1000
0010
0010
1001
,
0100
0100
0110
2002
,
0000
0000
0000
0000
,
3003
0000
1000
0000
0001
0010
0100
0000
,
1100
0110
0011
1000
,
0100
0010
0001
0000
1001
0000
0110
0000
,
1001
2000
0010
3010
,
0002
0100
0103
1001
,
0000
0000
0110
0000
1001
0000
1000
0010
,
0100
0002
1000
1003
,
1000
0000
0100
0010
0001
0000
2000
0000
,
0001
0000
3001
0000
0001
0100
0001
0000
,
1000
0000
0001
0010
0001
0000
1000
0000
,
0101
0000
1000
1010
,
0000
0001
0011
0000
,
1000
1100
0000
0001
,
1000
0000
0000
1010
0000
0000
0010
0000
,
0000
0110
0000
0000
0001
0000
0000
0011
,
0000
0000
0010
0000
0000
0110
0000
0000
,
0100
0000
0000
1001
0000
0000
0010
0000
,
0000
1001
0000
0000
0100
0000
0000
0011
,
0000
0000
0100
0000
0000
1010
0000
0000
,
0001
0000
0000
0101
0000
0000
1100
0000
,
0000
1001
0000
0000
1000
0000
0000
1010
,
0000
0000
0011
0000
0000
1001
0000
0000
,
0002
0103
0010
0110
,
2000
3100
0010
0110
,
0002
0100
1003
2000
,
0100
3001
0010
0100
,
1001
1001
0110
1001
,
0002
0010
1003
2000
,
0010
3001
0001
1000
,
0110
1001
0110
1001
,
2000
0000
3000
0200
0000
0300
0020
0000
,
0030
0002
0000
0003
0001
0100
1000
0100
,
0001
0001
1000
0100
0001
0200
0000
0000
,
0020
0000
0000
0330
,
0000
0000
0000
0000
0001
0010
0001
1000
,
0001
2000
0010
0001
,
3100
0000
1000
0100
1000
0001
1000
0000
,
0002
0010
1000
0103
,
0001
0100
0010
1000
0001
0000
2000
0000
,
0100
0000
0001
0000
3010
0000
1000
0010
,
0100
0001
1000
0000
2002
0000
0000
0000
,
3003
0000
1000
0010
1000
0000
0001
0000
,
0100
0000
0010
0000
0110
0000
0001
0100
,
0001
1000
0020
0100
,
0130
0000
1000
0100
0001
0000
0100
0000
,
1000
0000
1010
0000
1001
0000
0001
0100
,
1000
0100
0002
0000
,
0003
0000
1010
0000
0000
1100
0000
0000
,
1010
0000
0000
1100
0000
0000
0011
0000
,
0000
0101
0000
0000
0011
0000
0000
0101
,
0000
0000
1010
0000
0000
0011
0000
0000
,
1010
0000
0000
0011
0000
0000
1100
0000
,
0000
0101
0000
0000
1100
0000
0000
0101
,
0000
0000
1000
1000
0000
0010
0010
0000
,
1000
1000
0000
0100
0100
0000
0001
0001
,
0000
0010
0010
0000
0001
0001
0000
0100
,
0100
0000
1000
0010
1000
0010
1000
0000
,
0001
0010
0001
0010
0001
0000
1000
0100
,
0010
0001
1000
0000
0001
0100
0010
1000
,
0001
2002
0000
0000
,
3003
0000
0000
0000
,
0000
0000
0000
0000
;
#NOTES:
     dance-single:
     :
     Medium:
     14:
     :
0000
0000
0000
0000
,
0000
0000
0000
0000
,
0000
0000
0000
0000
,
0000
0000
0000
0000
0000
0000
0000
0000
0000
0000
0000
0000
2000
0000
0000
3001
,
0010
0001
0000
0001
0100
0000
0000
0000
0002
0000
0000
1003
0100
1000
0000
1000
,
0010
0000
0000
0000
1000
0001
0000
0001
0010
0001
0000
0001
0100
0000
0000
0000
,
0001
0000
1000
0000
0010
0100
0010
0100
0020
0000
0000
0000
1030
0000
0100
0010
,
0001
1000
0001
2002
0000
0000
0000
0000
,
3003
0000
1000
0010
1000
0100
0001
0100
,
1000
0000
0001
0000
0010
0100
1000
0000
0001
0000
0000
0000
1000
0000
0010
0000
,
0100
0010
1000
0010
1000
0001
0001
0010
,
0100
1000
0100
0000
1000
0000
0001
0000
0100
0000
0010
0000
0001
0000
0100
0000
,
0010
0000
0001
0000
0100
0000
0010
0000
1000
0001
1000
0000
1001
0000
0000
0000
,
0001
0100
0001
0100
0010
0000
1000
0000
0002
0000
0000
0000
0013
0000
1000
0000
,
0010
0000
0001
0000
1000
0000
0100
0000
0010
0100
0010
0000
0001
0000
0000
0000
,
1000
0000
0001
0100
0001
0000
1000
0000
0001
0010
0001
0000
1000
0000
0100
0000
,
0001
0100
1000
1000
1001
0010
0010
1001
,
0010
0010
1001
0100
0100
1001
0100
0010
,
1001
0000
0000
0000
0001
1000
0010
0000
0100
0000
0000
0000
0110
0000
0000
0000
,
1000
0001
0010
0000
0100
0000
0000
0000
0110
0000
0000
0000
1000
0100
0010
0000
,
0001
0000
0000
0000
1000
0000
1000
0000
0100
0000
0100
0000
0000
0010
0001
0010
,
0001
0010
0010
0001
0100
0100
0001
0010
,
0010
0001
0100
0100
1000
0010
0010
1000
,
0100
0100
1000
0010
0010
1000
0100
0100
,
0010
0001
1001
0010
1000
1001
0010
0001
,
1001
0010
1000
1001
0100
0001
1001
0100
,
1000
1001
0100
0001
1001
0100
1000
1001
,
0001
0100
1010
1000
0100
0011
0001
0100
,
1010
1000
0100
0011
1000
0010
0101
0001
,
0010
1100
1000
0010
0101
0001
0010
1100
,
2000
0100
3100
0000
0020
0001
0031
0000
,
0001
0000
0000
0001
0000
0000
0100
0000
0000
0100
0000
0000
0010
0000
1000
0010
0000
1000
0010
0000
0000
0000
0000
0000
,
2000
0000
0000
3100
0010
0001
0000
0001
1000
0000
0000
0000
0002
0000
0000
0103
,
0010
1000
0000
1000
0001
0000
0000
0000
2000
0000
0000
3100
0010
0001
0000
0001
,
1000
0000
0000
0000
0001
0000
0110
0000
0000
1000
0001
1000
0001
0000
0000
0000
,
2000
0000
0000
3001
0010
0100
0000
0100
0010
0000
0000
0000
0002
0000
0000
1003
,
0010
0100
0000
0100
0010
0000
0000
0000
1000
0002
0000
1003
0010
0100
0000
0001
,
1000
0000
0000
0000
0100
0000
0110
0000
0000
0001
1000
0001
1000
0000
0000
0000
,
0001
0000
0000
0010
0000
0000
0001
0000
0000
0100
0000
0000
0001
0000
0000
0010
0000
0000
0100
0000
0000
1000
0000
0000
1010
0000
0000
0000
0000
0000
0110
0000
0000
0000
0000
0000
0101
0000
0000
0000
0000
0000
0001
0000
0100
0000
0010
0000
,
1000
0000
0010
0200
0000
0310
1000
0000
1100
0000
0110
0000
0011
0000
1001
0000
,
1000
0001
1000
0001
1000
0000
0000
0000
0110
0000
0000
0000
0100
0010
0100
0010
0100
0000
0000
0000
0220
0000
0000
0000
0000
0000
0000
0000
0330
0000
0000
0000
,
2002
0000
0000
3003
,
0000
0000
0000
0000
0000
0000
0000
0000
0001
0000
1000
0010
0100
0000
0001
0010
,
0100
1000
1100
0010
1010
0000
0110
0001
,
0101
0000
0000
0000
0011
0000
0001
0010
0100
0000
1000
0010
0100
0000
0001
0000
,
0101
0010
0011
0000
1100
0010
1010
0000
,
1000
0000
0001
0010
0100
0000
1000
0100
0010
0000
0001
0000
0101
0000
1000
0000
,
1010
0000
0000
0000
1100
0000
0001
0000
0011
0000
0000
0000
0001
0100
0010
0000
,
1000
0001
0000
1000
0001
0000
0000
0000
1000
0100
1000
0000
0001
0010
0001
0000
,
0100
0010
0100
0000
0001
0100
0010
1000
0001
0000
0100
0000
0110
0000
0000
0000
,
2000
0000
3020
0000
0230
0000
0302
0000
2003
0000
3020
0000
1030
0100
0010
0000
,
0001
0100
0000
0001
0010
0000
0001
0000
0200
0000
0320
0000
2030
0000
3200
0000
,
0320
0000
0032
0000
1003
0000
0000
0000
0010
0100
0010
1000
0010
0000
0100
0000
,
0002
0000
0023
0000
2030
0000
3020
0000
0032
0000
2003
0000
3100
0000
0010
0001
,
0100
0000
0010
1000
0100
0000
0010
0000
2002
0000
0000
0000
0000
0000
0000
0000
,
3003
0000
0000
0000
0011
0000
0001
1000
0000
0000
0011
0000
0001
0100
0000
0000
,
1010
0000
1000
0001
0000
0000
1010
0000
1000
0100
0000
0000
0101
0000
1000
0010
,
0000
0000
1001
0000
1000
0001
1000
0000
1100
0000
0010
0001
0000
0000
1001
0000
,
0001
1000
0001
0000
0110
0000
0001
0100
0000
0000
0110
0000
1000
0100
0000
0000
,
0110
0000
0001
0010
0000
0000
0110
0000
1000
0010
0000
0000
0110
0000
1000
0001
,
0000
0000
1000
0100
0010
0000
0010
0000
0110
0000
0001
1000
0000
0000
0001
0010
,
0100
0000
0100
0000
1000
0100
0010
0001
0000
0000
0200
0000
0320
0000
2030
0000
,
3001
0010
0100
1000
0000
0000
0020
0000
0230
0000
0302
0000
1003
0010
0100
0001
,
0000
0000
0020
0000
0230
0000
2300
0000
3001
0100
0010
0000
1000
0010
0100
0000
,
0001
0000
1000
0000
0001
0010
0001
0000
0010
0001
0010
0000
0011
0000
0000
0000
,
1000
0100
1000
0000
0100
1000
0100
0000
1100
0000
0000
0000
0001
1000
0001
0000
,
1000
0001
1000
0000
0001
1000
0001
0000
0100
0010
0100
0000
0010
0100
0010
0000
,
0100
0010
0100
0000
0220
0000
0000
0000
0000
0000
0000
0000
0000
0000
0000
0000
,
0330
0000
0000
0000
,
0000
0000
0000
0000
;
#NOTES:
     dance-single:
     :
     Hard:
     18:
     :
0000
0000
0000
0000
,
0000
0000
0000
0000
,
0000
0000
0000
0000
,
0000
0000
0000
0000
0000
0000
0000
0000
0000
0000
0000
0000
2000
0000
3100
0010
,
0001
0100
0001
0010
0002
0000
0000
0000
2003
0000
3010
0100
0001
0010
0001
0100
,
0002
0000
0000
0000
0103
0010
0000
0010
1000
0100
0010
0001
2000
0000
0000
0000
,
3100
0000
0110
0000
0001
1000
0001
1000
0002
0000
0000
0000
0103
0010
1000
0100
,
0010
0000
0000
0001
0000
0000
1000
0000
0000
0100
0000
0000
0010
0000
0000
0001
0000
0000
0000
0000
0000
0001
0000
0000
0010
0000
0000
0100
0000
0000
0010
0000
0000
0100
0000
0000
1000
0000
0000
0001
0000
0000
1000
0000
0100
0000
0010
0000
,
0001
1000
0001
0100
0001
0000
0100
1000
0100
0000
0002
0000
0023
0000
0230
0000
,
2300
0000
0000
0000
0000
0000
3020
0000
0000
0000
0000
0000
0031
0000
0010
0000
0001
0000
0010
0000
0000
0000
0000
0000
2000
0000
0000
0000
0000
0000
0000
0000
0000
0000
0000
0000
3100
0000
0000
0000
0000
0000
0010
0000
0000
0001
0000
0000
,
0010
0100
1000
0010
1010
0110
0101
0011
,
0010
0000
0001
0000
0010
0000
0100
0000
0000
0000
0000
0000
1100
0000
0000
0000
0000
0000
1000
0000
0000
0100
0000
0000
0001
0000
0000
0100
0000
0000
1000
0000
0000
0000
0000
0000
0001
0000
0000
0100
0000
0000
1000
0000
0000
0100
0000
0000
,
0001
0000
1000
0010
0001
0010
1000
0010
0001
0010
0100
1000
0200
0000
0301
1000
,
0100
0000
0010
0000
0100
0000
0010
0000
0000
0001
0000
0000
0100
0000
0000
0100
0000
0000
0010
0000
0000
0010
0000
0000
1000
0000
0000
0000
0000
0000
0010
0000
0000
0001
0000
0000
0010
0000
0000
0000
0000
0000
2000
0000
0000
0000
0000
0000
,
3200
0000
0000
0320
0000
0000
0032
0000
0000
0203
0000
0000
1300
0100
1000
0100
0000
0000
0002
0000
0000
0000
0000
0000
,
0013
0000
0100
1000
0100
1000
0100
0000
0010
0001
0010
0001
0010
0000
0100
1000
,
0010
0100
0010
1000
0100
0010
0001
0000
0011
0000
0001
0010
0100
1000
0001
0000
,
0001
0010
0100
1000
0001
0000
0001
0010
0100
1000
0100
0010
0001
1000
0100
0010
,
0002
0000
0000
0000
0000
0000
0000
0000
0000
0000
0000
0000
0103
0000
0010
0000
0100
0000
0010
0000
0000
1000
0000
0000
0100
0000
0000
0100
0000
0000
0010
0000
0000
0010
0000
0000
0002
0000
0000
0000
0000
0000
0000
0000
0000
0000
0000
0000
,
0013
0000
0100
0000
0010
0000
0100
0000
0000
1000
0000
0000
0010
0000
0000
0010
0000
0000
0100
0000
0000
0100
0000
0000
0002
0000
0000
0000
0000
0000
0000
0000
0000
0000
0000
0000
1003
0000
0100
0000
0010
0000
0001
0000
0000
1000
0000
0000
,
0010
0001
0010
1000
0100
0000
0110
0000
0011
0000
0101
0000
0100
0001
0010
0000
,
1001
0000
1000
0100
1000
0000
1001
0000
1000
0010
1000
0000
1001
0000
1000
0001
,
1000
0000
1001
0000
1000
0100
1000
0000
1001
0000
0001
0010
0001
0000
1001
0000
,
0001
0100
0001
0000
1001
0000
0001
1000
0001
0000
1001
0000
0001
0010
0001
0000
,
1000
0100
0010
0100
1000
0000
1000
0010
0100
1000
0100
0000
0100
0010
1000
0100
,
1000
0000
1000
0100
0010
1000
0010
0000
0001
0010
0100
0010
0001
0000
0001
0100
,
0010
0001
0010
0000
0010
0100
0001
0010
0001
0000
0001
0010
0100
0001
0100
0000
,
0010
0001
0010
0100
0010
0000
0010
1000
0010
0100
0010
0000
0010
0001
0010
0100
,
0010
0000
0010
1000
0010
0100
0010
0000
0100
0001
0100
0010
0100
0000
0100
1000
,
0100
0010
0100
0000
0100
0001
0100
0010
0100
0000
0100
1000
0100
0010
0100
0000
,
0001
0000
0000
0001
0000
0000
0100
0000
0000
0100
0000
0000
1000
0000
0000
1000
0000
0000
0010
0000
0000
0010
0000
0000
0001
0000
0000
0001
0000
0000
1000
0000
0000
1000
0000
0000
0100
0000
0000
0000
0100
0000
0001
0000
0000
0000
0001
0000
,
0010
0000
0001
0010
0000
0000
0100
0000
0010
0100
0000
0100
0010
0000
1000
0001
0000
0000
0001
0010
0100
1000
0100
0010
,
0001
0000
0100
0010
1000
0000
0100
0010
0001
0000
0100
0010
1000
0000
0000
1000
,
0001
0100
0001
0100
0010
1000
0000
0000
0001
0000
0000
0001
0010
0100
0010
0100
,
1000
0100
1000
0000
0100
0000
0110
0000
0010
0001
0100
0010
1000
0100
1000
0010
,
1000
0000
0000
0000
0100
0000
0000
0000
0100
0001
0000
0000
0010
0000
0000
0000
0000
0000
0100
0000
0000
0010
0000
0000
0000
0000
0000
0001
0000
0000
0010
0000
0000
0100
0000
0000
1000
0000
0000
0001
0000
0000
0000
0000
0000
1001
0000
0000
,
0000
0000
0000
0000
0000
0000
0000
0000
0110
0000
0000
0001
1000
0010
0100
0001
,
1000
0010
0100
0001
0010
0100
0010
0100
0010
0100
0010
0100
0010
0100
0010
0100
,
0020
0000
0000
0000
0000
0000
0001
0000
0000
0000
0000
0000
1000
0000
0000
0000
0000
0000
0130
0000
0000
0001
0000
0000
1000
0000
0000
0010
0000
0000
0001
0000
0100
0000
0010
0000
2000
0000
0000
0000
0000
0000
3010
0000
0001
0000
0010
0000
,
1000
0000
0000
0100
0000
0000
1100
0000
0000
0021
0000
0000
0000
0000
0000
0031
0000
0000
0100
0000
1000
0000
0001
0000
0010
0000
0000
1000
0000
0000
0100
0000
0000
0001
0000
0000
0010
0000
0000
1000
0000
0000
0100
0000
0000
0001
0000
0000
,
0010
0000
0000
0001
0000
0000
0010
0000
0000
0100
0000
0000
1000
0000
0000
0000
0000
0000
0010
0000
0000
0000
0000
0000
0110
0000
0000
0000
0000
0000
1010
0000
0000
0000
0000
0000
1000
0000
0000
0100
0000
0000
0010
0000
0000
0100
0000
0000
0001
0000
0000
0000
0000
0000
0100
0000
0000
0000
0000
0000
1000
0000
0100
0000
0010
0000
0002
0000
0000
0000
0000
0000
0000
0000
0000
0000
0000
0000
0000
0000
0000
0000
0000
0000
0000
0000
0000
0000
0000
0000
0000
0000
0000
0000
0000
0000
,
2000
0000
0000
3003
,
0000
0000
0000
0000
0000
0000
0000
0000
1000
0010
1000
0010
0100
0001
0100
0001
,
0010
0100
0010
0000
0101
0000
0010
0000
1100
0000
0010
0000
0001
0100
0010
0000
,
1000
0100
0010
0000
0001
0100
0001
0100
0010
1000
0010
1000
0100
0010
0100
0000
,
1010
0000
0100
0000
0011
0000
0100
0000
0010
0001
0100
0000
0010
1000
0100
0000
,
1000
0100
1000
0100
0001
0100
1000
0001
0100
0010
0001
1000
0100
0010
1000
0000
,
1000
0010
0100
0000
0001
0010
0100
0000
0100
0010
0001
0000
0001
0010
0001
0010
,
0100
0001
0000
1000
0010
0001
1000
0100
0010
0001
0100
0000
0010
1000
0100
0000
,
1000
0001
0010
0100
1000
0010
0100
1000
0100
0000
0001
0100
0010
0001
0010
0000
,
1010
0000
1001
0000
0001
0010
0100
0001
1000
0010
0100
1000
0001
1000
0010
1000
,
0100
0010
0000
0100
1000
0010
0100
0001
0010
0100
1000
0000
0010
0100
0000
0001
,
0010
0100
1000
0000
0001
0100
0001
0100
0010
1000
0010
0100
0001
0010
0001
0000
,
0011
0000
1000
0000
1010
0000
0100
0000
1100
0000
0001
0000
0100
0010
0100
0010
,
1000
0010
1000
0010
1000
0001
1000
0000
2002
0000
0000
0000
0000
0000
0000
0000
,
3003
0000
0000
0000
1001
0000
1000
0010
0100
0001
0100
0000
0001
1000
0010
0100
,
0001
0000
0001
0100
0010
1000
0100
0000
1000
0100
0010
0001
1000
0000
0001
0010
,
1000
0010
0001
0010
0001
0010
1000
0010
0001
0000
0001
0100
1000
0100
0001
0100
,
0001
0100
1000
0100
0001
0000
1000
0100
0010
0100
1000
0000
1000
0010
0100
0010
,
1000
0000
0001
0100
0010
0100
0001
0000
0001
0010
0100
0010
0001
0000
1000
0010
,
0100
0001
0010
0001
0100
0010
1000
0010
0110
0000
0001
0010
0001
0100
0010
0100
,
0010
0000
0000
1000
0000
0000
0100
0000
0000
0010
0000
0000
0001
0000
0000
1000
0000
0000
0001
0000
0000
1001
0000
0000
0000
0000
0000
0000
0000
0000
0001
0000
0000
0010
0000
0000
0100
0000
1000
0000
0001
0000
1000
0000
0100
0000
0010
0000
,
0001
0100
0010
0110
0000
0000
0010
1000
0100
0100
0010
0010
0001
0100
0001
0101
,
0000
0000
0000
0000
0000
0000
0001
0000
0000
0100
0000
0000
1000
0000
0100
0000
1000
0000
0100
0000
0010
0000
0100
0000
0010
0000
0000
1000
0000
0000
0010
0000
0000
1000
0000
0000
0100
0000
0000
0010
0000
0000
0100
0000
0000
0010
0000
0000
,
0001
0000
0000
1000
0000
0000
0001
0000
0000
0000
0000
0000
1000
0000
0000
0100
0000
0000
0010
0000
0000
0001
0000
0000
1000
0000
0000
0100
0000
0000
0010
0000
0000
0001
0000
0000
0100
0000
0010
0000
0100
0000
0010
0000
0000
0000
0000
0000
,
1000
0000
0000
0010
0000
0000
0100
0000
0000
0001
0000
0000
1000
0000
0000
0100
0000
0000
0010
0000
0000
0100
0000
0000
1000
0000
0000
0001
0000
0000
1000
0000
0000
0000
0000
0000
0001
0000
0010
0000
0100
0000
1000
0000
0000
0000
0000
0000
,
0001
0010
0100
1000
0000
0000
0001
0010
0100
1000
0000
0000
1000
0100
0010
0001
0000
0000
1000
0100
0010
0001
0000
0000
,
1000
0100
0010
0001
0100
0010
2000
0000
0000
0000
0000
0000
0000
0000
0000
0000
0000
0000
0000
0000
0000
0000
0000
0000
,
3000
0000
0000
0000
,
0000
0000
0000
0000
;
#NOTES:
     dance-double:
     :
     Easy:
     9:
     :
00000000
00000000
00000000
00000000
,
00000000
00000000
00000000
00000000
,
00000000
00000000
00000000
00000000
,
00000000
00000000
00000000
10000000
,
00010000
00100000
00010000
00000000
01000000
00000000
00001000
00010000
,
00001000
00010000
00000100
00001000
,
00000010
00000010
00000110
00002002
,
00000000
00000000
00000000
00000000
,
00003003
00000000
00000001
00000000
00000010
00000100
00000010
00000000
,
00000001
00000101
00000110
00000010
,
00001000
00000010
00010000
00001000
,
00011000
00010000
00001000
00100000
,
00010000
01000000
00100000
10100000
,
00000000
00000000
00000000
00000000
01010000
00000000
00010000
10000000
,
00010000
20000000
00010000
30010000
,
10000000
01000000
00100000
00010000
,
00001000
00000000
00000100
00000000
00000010
00000000
00000001
00000100
,
00000001
00000000
00000010
00000000
00000100
00001000
00000100
00000000
,
00010100
00000000
00010000
00011000
,
00000000
00001000
01001000
00000000
,
01000000
01010000
00000000
00010000
,
10000000
00000000
00000000
10100000
00000000
00000000
00100000
00000000
,
00000000
00110000
00000000
00000000
00010000
00000000
00000000
00011000
,
00000000
00000000
00001000
00000000
00000000
00011000
00000000
00000000
,
00010000
00000000
00000000
00010100
00000000
00000000
00000100
00000000
,
00000000
00000110
00000000
00000000
00000001
00000000
00000000
00000110
,
00000000
00000000
00001000
00000000
00000000
00000110
00000000
00000000
,
00000101
00000000
00000000
00000110
00000000
00000000
00010010
00000000
,
00000000
00011000
00000000
00000000
00101000
00000000
00000000
00110000
,
00000000
00000000
01010000
00000000
00000000
01100000
00000000
00000000
,
20000000
00000000
31000000
00000000
00100000
00010000
00100000
00000000
,
00002000
00000000
00013000
00000000
00000100
00001000
00000100
00000000
,
00000020
00000030
00000010
00000002
,
00000003
00000001
00001000
00000100
,
00001000
00000100
00010100
00011000
,
00002000
00003000
00001000
00200000
,
00300000
00100000
00010000
01000000
,
10000000
01100000
10010000
01100000
,
20010000
00000000
30000000
02000000
00000000
03000000
00200000
00000000
,
00300000
00020000
00000000
00030000
00001000
00000100
00000010
00000001
,
00001000
00001000
00000001
00000100
00001000
00020000
00000000
00000000
,
00002000
00000000
00000000
00033000
,
00000000
00000000
00000000
00000000
00010000
00001000
01000000
00010000
,
01000000
00200000
01000000
10000000
,
01000000
00000000
10300000
01000000
00100000
00010000
01000000
00000000
,
00002000
00100000
00010000
01000000
,
00013000
00001000
00010000
00000010
00001000
00000000
00000200
00000000
,
00001000
00000000
00000010
00000000
00001000
00000000
00000310
00000001
,
00000100
00000010
00001000
00000000
00002002
00000000
00000000
00000000
,
00003003
00000000
00000001
00000010
00000001
00000000
00000100
00000000
,
00001000
00010000
00001000
00000000
00011000
00000000
00010000
00001000
,
00010000
00001000
01000000
00000000
00200000
00000000
00000000
00000000
,
00300000
00000000
10000000
00100000
00010000
00000000
00100000
00000000
,
10000000
01000000
00010000
00000000
00001000
00000000
00010000
00000010
,
00001000
00000010
00000100
00000000
00002002
00000000
00000000
00000000
,
00003003
00000000
00000011
00000000
00000000
00000010
00000000
00000000
,
00001010
00000000
00000000
00000010
00000000
00000000
00000101
00000000
,
00000000
00001100
00000000
00000000
00011000
00000000
00000000
00011000
,
00000000
00000000
00110000
00000000
00000000
00100000
00000000
00000000
,
10100000
00000000
00000000
00100000
00000000
00000000
11000000
00000000
,
00000000
01010000
00000000
00000000
00011000
00000000
00000000
00011000
,
00000000
00000000
00010000
00010000
00000000
00000010
00001000
00000000
,
00000001
00000001
00000000
00000010
00000001
00000000
00001000
00001000
,
00000000
00000100
00010000
00000000
00001000
00001000
00000000
00010000
,
00001000
00000000
00010000
00001000
00010000
00001000
01000000
00000000
,
00010000
00100000
00010000
00100000
01000000
00000000
10000000
01000000
,
00100000
00000000
00001000
00000000
00010000
00000100
00001000
00000100
,
00000010
00000220
00000000
00000000
,
00000330
00000000
00000000
00000000
,
00000000
00000000
00000000
00000000
;
#NOTES:
     dance-double:
     :
     Medium:
     14:
     :
00000000
00000000
00000000
00000000
,
00000000
00000000
00000000
00000000
,
00000000
00000000
00000000
00000000
,
00000000
00000000
00000000
00000000
00000000
00000000
00000000
00000000
00000000
00000000
00000000
00000000
20000000
00000000
00000000
31000000
,
00100000
01000000
00000000
01000000
00100000
00000000
00000000
00000000
00002000
00000000
00000000
00013000
00001000
00010000
00000000
00010000
,
00001000
00000000
00000000
00000000
00010000
00000100
00000000
00000100
00001000
00000100
00000000
00000100
00000010
00000000
00000000
00000000
,
00000001
00000000
00001000
00000000
00000010
00000100
00000010
00000100
00000020
00000000
00000000
00000000
00001030
00000000
00000100
00001000
,
00000100
00010000
00001000
00022000
00000000
00000000
00000000
00000000
,
00033000
00000000
00001000
00010000
00001000
00010000
00100000
01000000
,
10000000
00000000
01000000
00000000
00100000
10000000
00100000
00000000
01000000
00000000
00000000
00000000
00010000
00000000
10000000
00000000
,
01000000
00010000
10000000
00100000
00001000
00001000
00010000
00010000
,
00001000
00010000
00001000
00000000
00010000
00000000
00000100
00000000
00000100
00000000
00001000
00000000
00000100
00000000
00000100
00000000
,
00000010
00000001
00000001
00000100
00000001
00000001
00001001
00000000
,
00000001
00000010
00000100
00001000
00000001
00000000
00000100
00000000
00000020
00000000
00000000
00000000
00000130
00000000
00001000
00000000
,
00000100
00000000
00001000
00000000
00010000
00000000
00100000
00000000
01000000
00100000
01000000
00000000
00100000
00000000
00000000
00000000
,
10000000
00000000
00010000
00100000
00010000
00000000
10000000
00000000
00010000
01000000
00010000
00000000
10000000
00000000
01000000
00100000
,
01000000
00010000
00001000
00000010
00000011
00000001
00000001
00001001
,
00001000
00001000
00001100
00000100
00000100
00010100
00010000
00010000
,
00011000
00000000
00000000
00000000
00001000
01000000
00001000
01000000
00010000
00000000
00000000
00000000
01100000
00000000
00000000
00000000
,
10000000
01000000
10000000
01000000
00100000
00000000
00000000
00000000
01100000
00000000
00000000
00000000
00001000
00100000
00001000
00100000
,
00001000
00000000
00000000
00000000
00010000
00000000
00000100
00000000
00000010
00000000
00000100
00000000
00010000
00001000
00010000
00000000
,
00001000
00001000
00000100
00001000
00001000
00010000
00001000
00001000
,
00000010
00001000
00001000
00011000
00010000
00010000
00100000
00010000
,
00010000
00001000
00010000
00010000
01000000
00010000
00010000
00011000
,
00001000
00000000
00000010
00000100
00000010
00000000
00000001
00000000
00000100
00000010
00000100
00000000
00000001
00000000
00000010
00000100
,
00000010
00000000
00001000
00000000
00010000
00000000
00011000
00000000
00010000
00000000
00100000
01000000
00100000
00000000
10000000
00000000
,
01000000
00100000
01000000
00000000
10000000
00000000
00100000
01000000
00100000
00000000
00010000
00000000
00001000
00000000
00011000
00000000
,
00010000
00000000
00000100
00000010
00000000
00000000
00000001
00000000
00001000
00000001
00001000
00000000
00000001
00000000
00000100
00001000
,
00000000
00000000
00010000
00001000
00010000
00001000
00010000
00000000
00001000
00000000
01000000
00100000
00000000
00000000
10000000
00000000
,
00010000
10000000
00010000
00000000
10000000
00000000
01000000
00010000
00000000
00000000
00001000
00010000
00001000
00010000
00001000
00000000
,
00020000
01000000
00032000
00000100
,
00023000
00000000
00100000
00000000
00032000
00000010
00003010
00000000
,
00000002
00000000
00000000
00000013
00000100
00001000
00000000
00001000
00000010
00000000
00000000
00000000
00000020
00000000
00000000
00010030
,
00001000
00010000
00000000
00010000
00001000
00000000
00000000
00000000
00020000
00000000
00000000
01030000
00100000
01000000
00000000
01000000
,
10000000
00000000
00000000
00000000
00100000
00000000
01100000
00000000
00000000
10000000
00010000
10000000
00010000
00000000
00000000
00000000
,
20000000
00000000
00000000
30100000
01000000
00010000
00000000
00010000
00100000
00000000
00000000
00000000
00200000
00000000
00000000
00301000
,
00010000
00001000
00000000
00001000
00010000
00000000
00000000
00000000
00002000
00000000
00000000
00003100
00000010
00000100
00000000
00000100
,
00000001
00000000
00000000
00000000
00000010
00000000
00000110
00000000
00000000
00000001
00001000
00000001
00001000
00000000
00000000
00000000
,
00000001
00000000
00000000
00000100
00000000
00000000
00001000
00000000
00000000
00000000
00000000
00000000
00010000
00000000
00000000
00100000
00000000
00000000
10000000
00000000
00000000
00000000
00000000
00000000
10100000
00000000
00000000
00000000
00000000
00000000
01100000
00000000
00000000
00000000
00000000
00000000
01010000
00000000
00000000
00000000
00000000
00000000
10000000
00000000
01000000
00000000
00100000
00000000
,
00010000
00000000
00100000
00002000
00000000
00013000
00001000
00000000
00011000
00000000
00001010
00000000
00000011
00000000
00001001
00000000
,
00000100
00000010
00000100
00000010
00000100
00000000
00000000
00000000
00000110
00000000
00000000
00000000
00010000
00001000
00010000
00001000
00010000
00000000
00000000
00000000
00002000
00000000
00000000
00000000
00000000
00000000
00000000
00000000
00000000
00000000
00000000
00000000
,
00020000
00000000
00000000
00033000
,
00000000
00000000
00000000
00000000
00000000
00000000
00000000
00000000
00001000
00000000
01000000
00010000
00100000
00000000
01000000
00100000
,
00010000
00000000
01000000
00100000
00010000
00000000
00001000
00000000
00010000
00000000
01000000
00000000
00100000
00000000
00001000
00000000
,
00011000
00000000
00000000
00000000
00010000
00000000
00000100
00001000
00000010
00000000
00000100
00000010
00001000
00000000
00000100
00000010
,
00001000
00010000
00001000
00000100
00000010
00010000
00011000
00000000
,
00001000
00000000
00010000
00001000
01000000
00000000
00100000
01000000
00100000
00000000
00010000
00001000
00010000
00000000
00001000
00000000
,
00000010
00000000
00000100
00000000
00010000
00000000
00000010
00000000
00000100
00000000
00001000
00000000
00010000
00000000
00001000
00010000
,
00000100
00000000
00000010
00000100
00000010
00000000
00001000
00010000
00001000
00000000
00010000
00000000
00100000
00000000
01000000
00000000
,
00001000
00100000
01000000
10000000
00100000
01000000
00010000
00100000
,
00001000
00010000
00001000
00000000
00010000
00000010
00010000
00000000
00000010
00001000
00000010
00000000
00001000
00000000
00000100
00000000
,
00000010
00000001
00000000
00000100
00000001
00000000
00000010
00000000
00000100
00010000
00000100
00000000
00010000
00001000
00010000
00000000
,
00001000
01000000
00001000
00000000
00100000
00000000
00010000
00000000
01000000
00100000
10000000
00100000
01000000
00000000
00010000
00000000
,
20000000
00000000
32000000
00000000
03020000
00000000
00032000
00000000
00003020
00000000
00000000
00000000
00000031
00001000
00000001
00000000
,
00001000
00000010
00001000
00000000
00000010
00010000
00001000
00000000
00022000
00000000
00000000
00000000
00000000
00000000
00000000
00000000
,
00033000
00000000
00000000
00000000
00011000
00000000
00001000
00010000
00000000
00000000
00110000
00000000
00100000
10000000
00000000
00000000
,
11000000
00000000
01000000
00010000
00000000
00000000
00011000
00000000
00001000
00010000
00001000
00000000
00011000
00000000
00010000
00001000
,
00000000
00000000
00001010
00000000
00000010
00000001
00000000
00000000
00000101
00000000
00000100
00001000
00000000
00000000
00011000
00000000
,
00010000
00001000
00010000
00000000
00011000
00000000
00001000
01000000
00000000
00001000
00100000
00000000
00001000
00010000
00001000
00000000
,
00011000
00000000
00010000
00000100
00000000
00010000
00000010
00000000
00010000
00001000
00010000
00000000
00011000
00000000
00001000
01000000
,
00000000
00010000
01000000
00000000
00100000
01000000
00100000
00000000
10100000
00000000
10000000
00010000
00000000
00100000
00010000
00000000
,
00100000
00001000
00010000
00000000
00001000
00010000
00001000
00010000
00000000
00000000
00002000
00000000
00003020
00000000
00002030
00000000
,
00013000
00001000
00010000
00001000
00000000
00000000
00020000
00000000
00230000
00000000
00320000
00000000
00031000
00010000
00001000
00010000
,
00000000
00000000
00002000
00000000
00003200
00000000
00002300
00000000
00013000
00001000
00010000
00000000
00001000
00010000
00001000
00000000
,
00011000
00000000
00000000
00000000
00001000
00000000
00010000
00000000
01000000
00000000
10000000
00000000
00010000
00100000
00010000
00100000
,
00010000
00000000
10000000
00000000
01000000
00000000
00010000
00000000
00001000
00010000
00001000
00000000
00010000
00000010
00010000
00000000
,
00000010
00000100
00000010
00000000
00000100
00000001
00000100
00000000
00000001
00000010
00000001
00000000
00001000
00000100
00001000
00000000
,
00000100
00010000
00001000
00000000
00022000
00000000
00000000
00000000
00000000
00000000
00000000
00000000
00000000
00000000
00000000
00000000
,
00033000
00000000
00000000
00000000
,
00000000
00000000
00000000
00000000
;
#NOTES:
     dance-double:
     :
     Hard:
     18:
     :
00000000
00000000
00000000
00000000
,
00000000
00000000
00000000
00000000
,
00000000
00000000
00000000
00000000
,
00000000
00000000
00000000
00000000
00000000
00000000
00000000
00000000
00000000
00000000
00000000
00000000
20000000
00000000
30100000
01000000
,
00100000
10000000
00100000
10000000
02000000
00000000
00000000
00000000
03200000
00000000
00301000
00010000
00001000
00100000
00001000
00100000
,
00002000
00000000
00000000
00000000
00013000
00000100
00000000
00000100
00001000
00000100
00001000
00000100
00020000
00000000
00000000
00000000
,
00031000
00000000
00000010
00000000
00000001
00001000
00000001
00001000
00000002
00000000
00000000
00000000
00000103
00000010
00001000
00000100
,
00000010
00000001
00000100
00000010
00001000
00000100
00000000
00000100
00010000
00001000
00100000
00010000
01000000
00100000
10000000
01000000
,
00010000
01000000
10000000
00010000
01000000
00000000
10000000
01000000
10000000
00000000
02000000
00000000
03020000
00000000
00230000
00000000
,
02300000
00000000
23000000
00000000
30010000
00100000
00010000
00100000
00002000
00000000
00000000
00000000
00013000
00000000
00000010
00001000
,
00000100
00000000
00000010
00000001
00000100
00000000
00000010
00000000
00010000
00000000
00010000
00000000
00001000
00000000
00001000
00000000
,
00010000
00000000
00001000
00000000
00010000
00000000
00001000
00000000
00000000
00000000
00000000
00000000
00010000
00000000
00000000
00000000
00000000
00000000
00100000
00000000
00000000
01000000
00000000
00000000
00100000
00000000
00000000
00000000
00000000
00000000
10000000
00000000
00000000
00000000
00000000
00000000
01000000
00000000
00000000
00100000
00000000
00000000
01000000
00000000
00000000
00000000
00000000
00000000
,
10000000
00000000
00100000
01000000
00100000
00000000
10000000
00000000
01000000
00100000
00001000
00010000
00002000
00000000
00003000
00000000
,
00001000
00000000
00010000
00000000
00001000
00000000
00010000
00000000
00000000
00000100
00000000
00000000
00001000
00000000
00000000
00000010
00000000
00000000
00001000
00000000
00000000
00000000
00000000
00000000
00000100
00000000
00000000
00000000
00000000
00000000
00000001
00000000
00000000
00000100
00000000
00000000
00000001
00000000
00000000
00000000
00000000
00000000
00000200
00000000
00000000
00000000
00000000
00000000
,
00002300
00000000
00003020
00000000
00000230
00000000
00000302
00000000
00001003
00000010
00001000
00000010
00020000
00000000
00000000
00000000
,
00031000
00000000
00100000
00010000
00100000
00010000
01000000
00000000
00100000
10000000
00100000
10000000
01000000
00000000
00100000
00001000
,
00100000
00001000
00010000
00001000
00010000
00000100
00001000
00000000
00000001
00000000
00000010
00000100
00000010
00000000
00000001
00000000
,
00000100
00000010
00000100
00000000
00000001
00000000
00000010
00000100
00000010
00000000
00000001
00000000
00000100
00000010
00010000
00001000
,
00020000
00000000
00000000
00000000
00000000
00000000
00030000
00000000
00000000
00000000
00000000
00000000
00010000
00000000
00001000
00000000
00010000
00000000
00001000
00000000
00000000
01000000
00000000
00000000
00010000
00000000
00000000
00100000
00000000
00000000
01000000
00000000
00000000
00100000
00000000
00000000
00020000
00000000
00000000
00000000
00000000
00000000
00000000
00000000
00000000
00000000
00000000
00000000
,
10030000
00000000
01000000
00000000
10000000
00000000
01000000
00000000
00000000
00100000
00000000
00000000
00001000
00000000
00000000
00010000
00000000
00000000
00001000
00000000
00000000
00010000
00000000
00000000
00002000
00000000
00000000
00000000
00000000
00000000
00000000
00000000
00000000
00000000
00000000
00000000
00013000
00000000
00000010
00000000
00001000
00000000
00000010
00000000
00000000
00001000
00000000
00000000
,
00000100
00000010
00000001
00000000
00000101
00000000
00000100
00000000
00000110
00000000
00000010
00000000
00010010
00000000
00010000
00000000
,
00011000
00000000
00001000
00100000
00001000
00000000
00011000
00000000
00001000
01000000
00001000
00000000
00011000
00000000
00001000
00100000
,
00001000
00000000
00011000
00000000
00001000
01000000
00001000
00000000
00011000
00000000
00010000
00000010
00010000
00000000
00011000
00000000
,
00010000
00000100
00010000
00000000
00011000
00000000
00010000
00000010
00010000
00000000
00011000
00000000
00010000
00000100
00010000
00000000
,
00001000
00010000
00001000
01000000
00010000
00000000
00100000
01000000
00010000
01000000
00100000
00000000
00010000
01000000
00001000
00010000
,
00001000
00000000
00010000
00100000
00010000
00001000
00010000
00000000
00010000
00001000
00010000
00000100
00001000
00000000
00000010
00000100
,
00001000
00000100
00000010
00000000
00001000
00000100
00010000
00001000
00010000
00000000
00001000
00000010
00001000
00010000
00001000
00000000
,
00010000
00001000
00010000
00100000
01000000
00000000
00100000
00010000
00100000
01000000
00100000
00000000
01000000
10000000
00010000
00100000
,
10000000
00000000
01000000
00100000
00001000
00010000
00001000
00000000
00001000
00010000
00001000
00000010
00000100
00000000
00000010
00001000
,
00000010
00000100
00000010
00000000
00000100
00000001
00001000
00000010
00000001
00000000
00000100
00000010
00010000
00001000
00010000
00000000
,
00001000
00000000
00000000
00001000
00000000
00000000
00010000
00000000
00000000
00010000
00000000
00000000
01000000
00000000
00000000
01000000
00000000
00000000
01100000
00000000
00000000
00000000
00000000
00000000
00100000
00000000
00000000
00100000
00000000
00000000
00001000
00000000
00000000
00001000
00000000
00000000
00010000
00000000
00000000
00000000
00001000
00000000
00010000
00000000
00000000
00000000
00001000
00000000
,
00010000
00000000
00010000
00000100
00000000
00000100
00001000
00000000
00001000
00000010
00000000
00000010
00000100
00000001
00000010
00000100
00000000
00000000
00010000
00001000
00010000
00001000
00010000
00001000
,
00020000
00000000
00030000
00001000
00010000
00100000
00000000
00100000
10000000
00000000
00000000
00000000
02000000
00000000
03000000
10000000
,
01000000
00010000
00000000
00010000
00001000
00000000
00000000
00000000
00020000
00000000
00030000
00001000
00000010
00000001
00000100
00000001
,
00000100
00000010
00000100
00000000
00000010
00000000
00000110
00000000
00000001
00000100
00000010
00001000
00000010
00010000
00001000
00000000
,
00010000
00000000
00000000
00000000
00001000
00000000
00000000
00000000
00001000
00010000
00000000
00000000
00001000
00000000
00000000
00000000
00000000
00000000
00000000
00000000
00000000
00011000
00000000
00000000
00000000
00000000
00000000
00010000
00000000
00000000
00001000
00000000
00000000
00010000
00000000
00000000
00001000
00000000
00000000
00000000
00000000
00000000
00000000
00000000
00000000
00011000
00000000
00000000
,
00000000
00000000
00000000
00000000
00000000
00000000
00000000
00000000
00011000
00000000
00000000
00010000
00001000
00100000
00001000
00100000
,
00010000
01000000
00010000
01000000
00100000
10000000
00100000
10000000
00010000
00100000
00010000
00100000
01000000
00100000
01000000
00100000
,
02000000
00000000
00000000
00000000
00000000
00000000
10000000
00000000
00000000
00000000
00000000
00000000
00100000
00000000
00000000
00000000
00000000
00000000
03010000
00000000
00000000
00001000
00000000
00000000
00010000
00000000
00000000
00001000
00000000
00000000
00010000
00000000
00000010
00000000
00001000
00000000
00000020
00000000
00000000
00000000
00000000
00000000
00000130
00000000
00001000
00000000
00000100
00000000
,
00000001
00000000
00000000
00000010
00000000
00000000
00000001
00000000
00000000
00001002
00000000
00000000
00000000
00000000
00000000
00001003
00000000
00000000
00000001
00000000
00000100
00000000
00001000
00000000
00010000
00000000
00000000
00010000
00000000
00000000
00100000
00000000
00000000
00100000
00000000
00000000
10000000
00000000
00000000
10000000
00000000
00000000
00010000
00000000
00000000
00100000
00000000
00000000
,
01000000
00000000
00000000
00100000
00000000
00000000
01000000
00000000
00000000
00100000
00000000
00000000
00010000
00000000
00000000
00000000
00000000
00000000
00100000
00000000
00000000
00001000
00000000
00000000
00010000
00000000
00000000
00000000
00000000
00000000
00000000
00000000
00000000
00000000
00000000
00000000
00010000
00000000
00000000
00001000
00000000
00000000
00000010
00000000
00000000
00000001
00000000
00000000
00001000
00000000
00000000
00000000
00000000
00000000
00000100
00000000
00000000
00000000
00000000
00000000
00000010
00000000
00000001
00000000
00000010
00000000
00000002
00000000
00000000
00000000
00000000
00000000
00000000
00000000
00000000
00000000
00000000
00000000
00000000
00000000
00000000
00000000
00000000
00000000
00000000
00000000
00000000
00000000
00000000
00000000
00000000
00000000
00000000
00000000
00000000
00000000
,
00002000
00000000
00000000
00003003
,
00000000
00000000
00000000
00000000
00000000
00000000
00000000
00000000
00000001
00000010
00000100
00000010
00000100
00010000
00001000
00010000
,
00000010
00001000
00000100
00000000
00000110
00000000
00000010
00000000
00001010
00000000
00001000
00000000
00011000
00000000
00010000
00000000
,
01010000
00000000
01000000
00000000
10000000
00100000
01000000
00100000
01000000
00001000
00010000
00001000
00100000
00010000
01000000
00000000
,
01100000
00100000
00110000
00010000
00011000
00001000
00001100
00000100
,
00000001
00000010
00000100
00000010
00001000
00000001
00000100
00000010
00000100
00001000
00000100
00010000
00001000
00100000
00010000
00000000
,
00010000
00100000
00001000
00000000
00010000
00001000
01000000
00000000
01000000
00010000
10000000
00000000
10000000
00100000
01000000
00100000
,
00010000
10000000
01000000
00100000
01000000
00010000
01000000
00001000
00010000
00000010
00001000
00000000
00001000
00000010
00010000
00000000
,
00001000
00010000
00000100
00000000
00000100
00001000
00000100
00001000
00000001
00000000
00000010
00000001
00000010
00000001
00001000
00000000
,
00000002
00000000
00000203
00000000
00002300
00000000
00023000
00000000
00130000
10000000
00010000
01000000
00100000
10000000
00100000
10000000
,
01000000
00100000
00000000
01000000
10000000
00010000
00100000
00000000
00020000
00000000
00230000
00000000
00302000
00000000
00023000
00000000
,
00030200
00000000
00002300
00000000
00003010
00000100
00000001
00000000
00000010
00000100
00001000
00000100
00000010
00000001
00001000
00000000
,
00000002
00000000
00000103
00001000
00020000
00000000
00130000
10000000
00020000
00000000
00030000
00000000
10000000
01000000
10000000
01000000
,
00100000
00010000
00100000
00001000
00010000
00000100
00001000
00000100
00000020
00000000
00000000
00000000
00000000
00000000
00000000
00000000
,
00000030
00000000
00000000
00000000
00001001
00000000
00000001
00001000
00000100
00000010
00000100
00000000
00000100
00010000
00001000
00010000
,
00001000
00000000
00001000
00100000
00010000
01000000
00010000
00000000
00010000
01000000
00100000
01000000
00010000
00000000
00100000
00001000
,
00010000
00000000
00100000
00010000
00001000
00010000
00001000
00010000
01000000
00000000
00100000
00001000
00010000
00000000
01000000
00010000
,
00001000
00010000
00001000
00010000
00100000
00000000
10000000
00010000
01000000
00100000
01000000
00000000
01000000
00001000
00010000
00001000
,
00010000
00000000
00010000
00000010
00001000
00000100
00001000
00000000
00001000
00000100
00000010
00000100
00001000
00000000
00000010
00010000
,
00001000
00000000
00000010
00001000
00010000
00001000
00010000
00001000
00000100
00000000
00000010
00010000
00001000
00000000
00000100
00001000
,
00010000
00001000
00010000
00001000
00000010
00000001
00000010
00000001
00000000
00000000
00000001
00000100
00001000
00010000
00100000
10000000
,
01000000
00100000
01000000
00100000
00000000
00000000
01000000
10000000
01000000
00010000
01000000
00010000
00001000
00000010
00001000
00000010
,
00000000
00000000
00000001
00000010
00001000
00010000
00001000
00000100
00000001
00001000
00000001
00001000
00000010
00000100
00000010
00000100
,
00001000
00000000
00000000
00010000
00000000
00000000
00001000
00000000
00000000
00000000
00000000
00000000
00010000
00000000
00000000
00001000
00000000
00000000
00010000
00000000
00000000
00001000
00000000
00000000
01000000
00000000
00000000
00010000
00000000
00000000
01000000
00000000
00000000
00010000
00000000
00000000
00100000
00000000
00010000
00000000
00100000
00000000
00010000
00000000
00000000
00000000
00000000
00000000
,
10000000
00000000
00000000
01000000
00000000
00000000
10000000
00000000
00000000
01000000
00000000
00000000
00100000
00000000
00000000
00001000
00000000
00000000
00100000
00000000
00000000
00001000
00000000
00000000
00010000
00000000
00001000
00000000
00010000
00000000
00001000
00000000
00000000
00000000
00000000
00000000
00010000
00000000
00000000
00000010
00000000
00000000
00000100
00000000
00000000
00001000
00000000
00000000
,
00010000
00000010
00000100
00001000
00010000
00000010
00000100
00001000
00010000
00100000
01000000
00001000
00010000
00100000
01000000
00001000
,
00010000
00000000
00000000
00100000
00000000
00000000
01000000
00000000
00100000
00000000
01000000
00000000
00200000
00000000
00000000
00000000
00000000
00000000
00000000
00000000
00000000
00000000
00000000
00000000
00000000
00000000
00000000
00000000
00000000
00000000
00000000
00000000
00000000
00000000
00000000
00000000
00000000
00000000
00000000
00000000
00000000
00000000
00000000
00000000
00000000
00000000
00000000
00000000
,
00300000
00000000
00000000
00000000
,
00000000
00000000
00000000
00000000
;
