
//----- song ID: ster -----//
#TITLE:stellar rain;
#ARTIST:BEMANI Sound Team "PHQUASE";
#BANNER:stellar rain.png;
#BACKGROUND:stellar rain-bg.png;
#CDTITLE:./CDTitles/DDR A3.png;
#MUSIC:stellar rain.ogg;
#SAMPLESTART:76.218;
#SAMPLELENGTH:15;
#BPMS:0=148;
#STOPS:36=2.837;
#STAGE:15;
#NOTES:
     dance-single:
     :
     Beginner:
     1:
     :
0000
0000
0000
0000
,
0000
0000
0000
0000
,
0000
0000
0000
0000
,
0000
0000
0000
0000
,
0000
0000
0000
0000
,
0001
0000
0000
0000
,
0000
0000
0000
0000
,
0001
0000
0000
0000
,
0000
0000
0000
0000
,
0000
0000
0000
0000
,
0000
0100
0000
0000
,
0000
1000
0000
0000
,
0000
0000
0000
0000
,
0000
0010
0000
0000
,
0000
0001
0000
0000
,
0000
0010
0000
0000
,
0000
0000
0000
0000
,
0000
0001
0000
0000
,
0000
0000
0000
0000
,
0000
0001
0000
0000
,
0000
0000
0000
0000
,
0000
0010
0000
0000
,
0000
0000
0000
0000
,
0000
0010
0000
0000
,
0000
0000
0000
0000
,
0000
0100
0000
0000
,
0000
0000
0000
0000
,
0000
0100
0000
0000
,
0000
0000
0000
0000
,
0000
1000
0000
0000
,
0000
0000
0000
0000
,
0000
1000
0000
0000
,
0000
0000
0000
0000
,
0000
1000
0000
0000
,
0000
0000
0000
0000
,
0000
0010
0000
0000
,
0000
0000
0000
0000
,
0000
0100
0000
0000
,
0000
0000
0000
0000
,
0000
0001
0000
0000
,
0000
0000
0000
0000
,
0000
0001
0000
0000
,
0000
0010
0000
0000
,
0000
0001
0000
0000
,
0000
0000
0000
0000
,
0000
0100
0000
0000
,
0000
0000
0000
0000
,
0000
0010
0000
0000
,
0000
0000
0000
0000
,
0000
1000
0000
0000
,
0000
0000
0000
0000
,
0000
0010
0000
0000
,
0000
0000
0000
0000
,
0000
0100
0000
0000
,
0000
0000
0000
0000
,
0000
0010
0000
0000
,
0000
0000
0000
0000
,
0000
0001
0000
0000
,
0000
0000
0000
0000
,
0000
0001
0000
0000
,
0000
0000
0000
0000
,
0000
1000
0000
0000
,
0000
0000
0000
0000
,
0000
0100
0000
0000
,
0000
0000
0000
0000
,
0000
0010
0000
0000
,
0000
0000
0000
0000
,
0000
0001
0000
0000
,
0000
0000
0000
0000
,
0000
1000
0000
0000
,
0000
0000
0000
0000
;
#NOTES:
     dance-single:
     :
     Easy:
     5:
     :
0000
0000
0000
0000
,
0000
0000
0000
0000
,
0000
0000
0000
0000
,
0000
0000
0000
0000
,
0000
0000
0000
0000
,
1000
0000
1000
0000
,
0010
0000
0100
0000
,
0001
0000
0001
0000
,
0010
0000
0100
0000
,
0000
0000
0000
0000
,
0000
0001
0010
0001
,
0000
1000
0010
1000
,
0000
0001
0100
0001
,
0000
1000
0001
1000
,
0000
0100
0010
0100
,
0000
1001
0000
0110
,
0000
2002
0000
0000
,
3003
1000
0001
0010
,
0000
0001
0100
0010
,
0000
1000
0010
0100
,
0000
0001
1000
0100
,
0000
1000
1000
0001
,
0000
0001
0001
0010
,
0000
0010
0100
0010
,
0100
1000
0001
1000
,
0000
0000
1001
0000
0001
0000
0000
0001
,
0000
0000
0010
0000
0000
0010
0000
0000
,
0010
0000
1001
0000
1000
0000
0000
1000
,
0000
0000
0010
0000
0000
0010
0000
0000
,
0010
1000
0010
0100
,
0000
0010
0100
0001
,
0000
1000
0100
0010
,
0001
0000
0000
0000
,
0000
0002
0000
0000
,
0003
0200
0000
0000
,
0300
0020
0000
0000
,
0030
1000
0000
0010
,
0000
2000
0000
0000
,
3000
0200
0000
0000
,
0300
0020
0000
0000
,
0030
0002
0000
0000
,
0003
0001
0000
0001
,
0000
0001
0001
0001
,
0000
1000
0000
1000
,
0000
0000
1001
0000
,
0000
1000
0010
0100
,
0000
0010
0100
0001
,
0000
2000
0000
0000
,
3000
0100
0000
1000
,
0001
0020
0000
0000
,
0030
0002
0000
0000
,
0003
2000
0000
0000
,
3000
0200
0000
0000
,
0300
1000
0001
1000
,
0000
0010
0100
0010
,
0000
0000
1000
0000
0000
0001
0000
0000
,
1000
0000
0000
0001
0000
0000
1000
0000
,
0000
0001
0010
0001
,
0000
0010
0100
0010
,
0000
0100
1000
0100
,
0000
1000
0001
1000
,
0000
0000
1001
0000
1000
0000
0000
1000
,
0000
0000
0100
0000
0000
0100
0000
0000
,
0100
0000
1001
0000
0001
0000
0000
0001
,
0000
0000
0100
0000
0000
0100
0000
0000
,
0100
0001
1000
0100
,
0000
1000
0010
0100
,
0000
0001
0001
1000
,
1000
0020
0000
0000
,
0000
0030
0000
0000
,
0000
0000
0000
0000
;
#NOTES:
     dance-single:
     :
     Medium:
     8:
     :
0000
0000
0000
0000
,
0000
0000
0000
0000
,
0000
0000
0000
0000
,
0000
0000
0000
0000
,
0000
0000
0000
0000
,
0001
0010
0001
0000
,
1000
0010
1000
0000
,
0001
0100
0010
1000
,
1000
0100
0010
0001
,
0000
0000
0001
0000
0101
0000
1000
0010
,
1000
0100
0010
0001
,
1000
0000
0010
0000
1010
0000
0001
0100
,
0001
1000
0100
1000
,
0010
0000
0100
0000
0101
0000
1000
0100
,
1000
0001
0010
0100
,
1000
0000
0001
0010
0000
0000
0001
0100
,
0000
2002
0000
0000
,
3003
0000
1000
0000
1001
0000
0001
0100
,
0010
1000
0100
0001
,
0100
0000
1000
0000
1001
0000
1000
0100
,
0010
0001
0100
1000
,
0100
0000
0001
0100
0000
0000
0010
1000
,
0000
0000
1000
0100
0000
0000
0010
0001
,
0000
1000
0100
0010
,
0001
0000
1000
0001
1000
0001
1000
0000
,
0000
0000
0000
0000
1001
0000
0000
0000
0001
0000
0000
0100
0000
0000
0001
0000
,
0000
0100
0000
0000
0010
0000
0000
1000
0000
0000
0010
0000
0000
1000
0000
0000
,
0010
0000
0000
0000
1001
0000
0000
0000
0001
0000
0000
0010
0000
0000
0001
0000
,
0000
0010
0000
0000
0100
0000
0000
1000
0000
0000
0100
0000
0000
1000
0000
0000
,
0100
1000
1000
0100
,
0100
0010
0010
0001
,
0001
0000
1000
0100
0010
0000
0100
0010
,
0001
1000
0000
0000
0000
0000
0000
0000
,
0000
0001
0010
0200
,
0300
1000
0010
0200
,
0300
0000
0001
0000
1000
0001
0000
1000
,
0002
0000
0003
2000
,
0000
0000
3100
0000
1000
0000
0010
0100
,
0010
0000
0100
0000
0001
0000
0010
0100
,
0010
0000
0001
0000
1000
0000
0100
1000
,
0001
0000
0100
0000
0010
0000
0100
0001
,
1000
0000
0001
0010
0100
0000
1100
0000
,
0000
0000
1000
0010
0100
0000
0101
0000
,
0000
0000
1000
0100
0010
0000
0001
0000
,
1000
0000
1001
0000
,
0000
1000
0001
0020
,
0030
0001
1000
0020
,
0030
0000
1000
0100
0010
0001
0000
0100
,
0020
0000
0130
0001
,
1000
0002
0000
0013
,
0001
0001
0100
0010
,
1000
0000
0010
0000
0000
0100
0010
0000
,
0200
0000
0310
0100
,
0110
0001
1000
0200
,
0300
1000
0001
0200
,
0300
0000
0001
0000
0000
0110
0000
0000
,
1000
0000
0000
0110
0000
0000
1000
0000
,
0001
2000
3000
1000
,
0100
0010
0001
0100
,
0001
0000
0100
0010
0100
0000
0001
1000
,
0001
1000
0010
0100
,
0001
0000
0000
0000
1001
0000
0000
0000
1000
0000
0000
0010
0000
0000
1000
0000
,
0000
0010
0000
0000
0100
0000
0000
0001
0000
0000
0100
0000
0000
0001
0000
0000
,
0100
0000
0000
0000
1001
0000
0000
0000
1000
0000
0000
0100
0000
0000
1000
0000
,
0000
0100
0000
0000
0010
0000
0000
0001
0000
0000
0010
0000
0000
0001
0000
0000
,
0010
0001
0001
0010
,
0010
0100
0100
1000
,
1000
0000
0001
1000
0001
0000
0100
0010
,
0100
0002
0010
0100
,
0010
0003
0000
0000
,
0000
0000
0000
0000
;
#NOTES:
     dance-single:
     :
     Hard:
     13:
     :
0000
0000
0000
0000
,
0000
0000
0000
0000
,
0000
0000
0000
0000
,
0000
0000
0000
0000
,
0000
0000
0000
0000
,
0001
0100
0010
1000
0100
0010
0100
0000
,
1000
0001
0100
0010
1000
0010
0100
0000
,
0001
1000
0100
0010
0001
1000
0001
0100
,
0010
1000
0010
0100
0001
0010
0100
1000
,
0000
0000
0000
0000
1000
0000
0100
0000
0010
0001
0000
0100
0000
0001
0000
1000
,
0000
0010
0000
0100
0010
0000
1000
0000
0001
0100
0000
0010
0000
1000
0000
0100
,
0000
1000
0000
0001
0010
0000
0001
0000
0100
0010
0000
1000
0000
0001
0000
0100
,
0000
0001
0000
0010
0100
0000
1000
0000
0010
0100
0000
0010
0000
1000
0000
0001
,
0000
1000
0000
0100
0010
0000
0001
0000
1000
0100
0000
1000
0000
0010
0000
0100
,
0000
0010
0000
1000
0001
0000
0100
0000
0001
0010
0000
0100
0000
0010
0000
0100
,
0000
1000
0000
0001
0010
0000
0001
0000
0101
0000
0000
0000
0010
0000
1000
0000
,
1100
0000
0000
0000
1000
0000
0100
0000
0010
0000
0001
0000
0100
0000
0010
0100
,
0010
0000
0100
0000
0001
0000
0100
0000
0010
1000
0000
0010
0000
0100
0001
0100
,
0000
0001
0000
0010
0001
0000
1000
0000
0100
0010
0000
0001
0000
1000
0010
1000
,
0000
0000
0000
0000
0010
0000
0100
0000
0010
1000
0000
0001
0000
0100
0001
0100
,
0000
0001
0000
0010
0100
0000
1000
0000
0001
0100
0000
0001
0000
1000
0010
1000
,
0000
0000
1010
1010
0000
0000
0011
0011
,
0000
0000
1100
1100
0000
0000
0101
0101
,
0000
0000
1000
0100
0010
0001
1000
0100
,
0010
0000
0001
0000
1000
0100
1000
0000
0001
0010
0001
0000
1000
0001
1000
0000
,
0010
0100
0000
0000
0110
0000
0000
0000
1000
0000
0000
1000
0000
0000
1100
0000
,
0000
1100
0000
0000
1010
0000
0000
1010
0000
0000
1001
0000
0000
1001
0000
0000
,
0010
0100
0000
0000
0110
0000
0000
0000
0001
0000
0000
0001
0000
0000
0011
0000
,
0000
0011
0000
0000
0101
0000
0000
0101
0000
0000
1001
0000
0000
1001
0000
0000
,
0100
0010
0000
0000
0110
0000
0000
0000
1001
0000
0000
1000
0001
0000
0100
0000
,
0001
0100
0000
0000
1010
0000
0000
0100
0010
0000
1000
0000
0010
0100
0000
0000
,
1010
0000
0000
0000
1000
0000
0010
0000
0100
0000
0001
0000
1000
0100
1000
0000
,
0001
0100
0001
0000
0000
0000
0000
0000
0000
0000
0000
0000
0000
0000
0000
0000
,
0000
2000
3200
0320
,
0030
2000
3200
0320
,
0030
0000
0010
0001
0010
0000
0001
0000
0010
0000
0001
0000
0000
0000
0001
0000
,
2000
0000
3000
1010
,
0101
0002
0000
0000
,
0203
2300
0000
3200
,
0000
0302
0000
0023
,
0230
0000
0000
0000
2300
0000
0000
0000
0000
0000
0000
0000
3001
0000
0000
1000
,
0001
0000
0001
0000
1000
0000
0010
0000
0110
0000
0010
0000
1000
0000
0001
0100
,
0000
0100
0000
0100
0001
0000
0010
0000
0110
0000
0010
0000
0001
0000
1000
0100
,
0000
0100
0000
0100
1000
0000
0001
0000
1001
0000
0001
0000
0100
0000
0010
0100
,
0000
0100
0000
0100
0000
0000
0000
0000
0000
0000
0000
0000
0000
0000
0000
0000
,
0000
0000
0000
0000
0001
0000
0100
0000
0010
0100
0000
0010
0100
0000
0001
1000
,
0000
0001
1000
0000
0100
0000
1000
0000
0001
0010
0000
0001
0010
0000
0100
1000
,
0000
0100
1000
0000
0010
0000
0100
0000
0010
1000
0000
0010
1000
0000
0001
0000
,
0010
0001
0010
0000
0001
0000
0100
0000
0001
1000
0001
0000
1000
0000
0100
0000
,
0010
0000
0001
0000
1000
0000
0010
0000
0100
0010
0000
0100
0010
0000
1000
0001
,
0000
1000
0001
0000
0010
0000
0001
0000
1000
0100
0000
1000
0100
0000
0010
0001
,
0000
0010
0001
0000
0100
0000
0010
0000
0100
0001
0000
0100
0001
0000
1000
0000
,
0100
1000
0100
0000
1000
0000
0010
0000
1000
0001
1000
0000
0001
0000
0000
0001
,
0100
0000
0100
0000
0001
0000
0001
0000
1000
0010
0000
1000
0100
0000
1100
0000
,
0000
0101
0000
0000
1000
0000
1000
0000
0001
0100
0000
0001
0010
0000
0011
0000
,
0000
1010
0000
0000
0101
0000
0001
0000
1000
0000
1100
0000
0000
0000
0100
0000
,
0110
0000
0000
0000
0000
0000
0001
0000
0000
1001
0000
0000
0000
0000
0000
0000
0000
0000
1000
0000
0100
0000
0010
0000
,
0001
0000
0000
0000
1000
0000
0100
0000
1000
0010
0000
0100
0010
0000
0100
0001
,
0000
0010
0001
0000
1000
0000
0001
0000
0100
0001
0000
0100
0010
0000
1000
0010
,
0000
1000
0001
0000
1000
0000
0100
0000
0010
0001
0000
0100
0010
0000
1000
0000
,
0001
1000
0001
0000
1000
0000
0100
0000
0001
0000
0100
0000
0010
0100
0010
0000
,
0001
1000
0000
0000
1001
0000
0000
0000
0001
0000
0000
0101
0000
0000
0100
0000
,
0000
0110
0000
0000
0010
0000
0000
1010
0000
0000
1000
0000
0000
0001
0000
0000
,
0001
1000
0000
0000
1001
0000
0000
0000
1000
0000
0000
1100
0000
0000
0100
0000
,
0000
0110
0000
0000
0010
0000
0000
0011
0000
0000
0001
0000
0000
1001
0000
0000
,
1000
0001
0000
0000
1001
0000
0000
0000
1001
0000
0000
0001
1000
0000
0010
0000
,
1000
0010
0000
0000
0101
0000
0000
0010
0100
0000
0001
0000
0100
0010
0000
0000
,
0101
0000
0000
0000
0001
0000
0100
0000
0010
0000
1000
0000
0001
0010
0001
0000
,
1000
0010
1000
0000
0001
0010
0100
0000
1000
0010
0000
0100
0000
0010
1000
0000
,
0100
0010
0000
0001
0000
0000
0000
0000
0000
0000
0000
0000
0000
0000
0000
0000
,
0000
0000
0000
0000
;
#NOTES:
     dance-double:
     :
     Easy:
     5:
     :
00000000
00000000
00000000
00000000
,
00000000
00000000
00000000
00000000
,
00000000
00000000
00000000
00000000
,
00000000
00000000
00000000
00000000
,
00000000
00000000
00000000
00000000
,
10000000
00000000
00100000
00000000
,
10000000
00000000
00100000
00000000
,
01000000
00000000
00010000
00000000
,
01000000
00000000
00001000
00000000
,
00000000
00000000
00000000
00000000
,
00000000
00001000
00010000
00001000
,
00000000
00010000
00000100
00000010
,
00000000
00000100
00000010
00000100
,
00000000
00001000
00000001
00001000
,
00000000
00000100
00010000
00000100
,
00000000
00010000
00000000
00001000
,
00000000
00022000
00000000
00000000
,
00033000
00001000
01000000
00010000
,
00000000
01000000
00010000
00100000
,
00000000
01000000
10000000
00010000
,
00000000
01000000
00010000
00100000
,
00000000
00001000
00010000
00001000
,
00000000
00010000
00000010
00001000
,
00000000
00000001
00000100
00000001
,
00000100
00000001
00001000
00000001
,
00000000
00000000
00001001
00000000
00001000
00000000
00000000
00001000
,
00000000
00000000
00000100
00000000
00000000
00000100
00000000
00000000
,
00010000
00000000
00011000
00000000
00001000
00000000
00000000
00001000
,
00000000
00000000
01000000
00000000
00000000
01000000
00000000
00000000
,
00010000
00100000
00010000
10000000
,
00000000
01000000
10000000
00100000
,
00000000
10000000
01000000
00100000
,
00010000
00000000
00000000
00000000
,
00000000
00002000
00000000
00000000
,
00003000
00020000
00000000
00000000
,
00030000
00002000
00000000
00000000
,
00003000
00000000
00000000
00000000
,
00000000
00000200
00000000
00000000
,
00000300
00000020
00000000
00000000
,
00000030
00000200
00000000
00000000
,
00000300
00000110
00000000
00000000
,
00000000
00001000
00000000
00001000
,
00000000
00001000
00001000
00001000
,
00000000
00010000
00000000
00010000
,
00000000
00000000
00011000
00000000
,
00000000
00001000
00010000
00001000
,
00000000
01000000
00010000
00100000
,
00000000
02000000
00000000
00000000
,
03000000
10000000
00000000
00010000
,
00100000
00020000
00000000
00000000
,
00030000
00200000
00000000
00000000
,
00300000
00002000
00000000
00000000
,
00003000
00020000
00000000
00000000
,
00030000
00001000
00010000
00001000
,
00000000
00010000
00000010
00010000
,
00000000
00000000
00000010
00000000
00000000
00001000
00000000
00000000
,
00000010
00000000
00000000
00001000
00000000
00000000
00000010
00000000
,
00000000
00000100
00000001
00000100
,
00000000
00000010
00000100
00000010
,
00000000
00010000
00000010
00010000
,
00000000
00001000
00010000
00001000
,
00000000
00000000
00011000
00000000
00001000
00000000
00000000
00001000
,
00000000
00000000
01000000
00000000
00000000
01000000
00000000
00000000
,
01000000
00000000
01100000
00000000
00100000
00000000
00000000
00100000
,
00000000
00000000
10000000
00000000
00000000
10000000
00000000
00000000
,
10000000
01000000
00100000
00010000
,
00000000
00100000
00001000
00010000
,
00000000
00001000
00010000
00000010
,
00001000
00000200
00000000
00000000
,
00000000
00000300
00000000
00000000
,
00000000
00000000
00000000
00000000
;
#NOTES:
     dance-double:
     :
     Medium:
     8:
     :
00000000
00000000
00000000
00000000
,
00000000
00000000
00000000
00000000
,
00000000
00000000
00000000
00000000
,
00000000
00000000
00000000
00000000
,
00000000
00000000
00000000
00000000
,
10000000
01000000
00100000
00000000
,
01000000
00100000
00001000
00000000
,
00010000
00001000
00010000
00010000
,
00000100
00001000
00000100
00000010
,
00000000
00000000
00000001
00000000
00000100
00000000
00000010
00000100
,
00000010
00001000
00000100
00010000
,
00001000
00000000
00100000
00000000
00010000
00000000
01000000
00100000
,
01000000
00010000
00100000
10000000
,
00100000
00000000
00010000
00000000
10000000
00000000
01000000
00100000
,
01000000
00100000
00001000
00010000
,
00001000
00000000
00000010
00000100
00000000
00000000
00000010
00000001
,
00000000
00002002
00000000
00000000
,
00003003
00000000
00000001
00000000
00000100
00000000
00001000
00000100
,
00000001
00000010
00000100
00010000
,
00001000
00000000
00100000
00000000
00010000
00000000
01000000
00010000
,
00100000
01000000
00100000
00001000
,
00010000
00000000
01000000
10000000
00000000
00000000
00010000
00100000
,
00000000
00000000
00001000
00010000
00000000
00000000
00000100
00001000
,
00000000
00000001
00000100
00000010
,
00010000
00000000
00001000
00010000
00001000
00010000
00001000
00000000
,
00000000
00000000
00000000
00000000
00011000
00000000
00000000
00000000
00001000
00000000
00000000
00001000
00000000
00000000
01000000
00000000
,
00000000
01000000
00000000
00000000
00010000
00000000
00000000
00100000
00000000
00000000
00010000
00000000
00000000
00100000
00000000
00000000
,
00010000
00000000
00000000
00000000
10010000
00000000
00000000
00000000
10000000
00000000
00000000
10000000
00000000
00000000
01000000
00000000
,
00000000
01000000
00000000
00000000
00100000
00000000
00000000
00001000
00000000
00000000
00100000
00000000
00000000
00001000
00000000
00000000
,
00100000
00001000
00001000
00010000
,
00010000
00000010
00000010
00001000
,
00001000
00000000
00000100
00000010
00000001
00000000
00000100
00000010
,
00001000
00000010
00000000
00000000
00000000
00000000
00000000
00000000
,
00000000
00000001
00000010
00002000
,
00003000
00010000
00001000
00020000
,
00030000
00000000
00100000
00000000
10000000
00010000
00000000
10000000
,
00020000
00000000
00030000
20000000
,
00000000
00000000
31000000
00000000
00100000
00000000
00010000
01000000
,
00010000
00000000
00100000
00000000
00001000
00000000
00010000
00001000
,
00010000
00000000
00000010
00000000
00001000
00000000
00000100
00000010
,
00000100
00000000
00001000
00000000
00000001
00000000
00000100
00000010
,
00001000
00000000
00000001
00000010
00000001
00000010
00000100
00000000
,
00000000
00000000
00001000
00000100
00001000
00000100
00010000
00000000
,
00000000
00000000
00001000
01000000
00010000
01000000
00100000
00000000
,
10000000
00000000
10010000
00000000
,
00000000
10000000
00010000
02000000
,
03000000
00010000
00100000
00002000
,
00003000
00000000
00010000
00000010
00001000
00000010
00000000
00000100
,
00000002
00000000
00001003
00000010
,
00001000
00000200
00000000
00010300
,
00001000
00001000
01000000
00010000
,
00100000
00000000
01000000
00000000
00000000
00100000
01000000
00000000
,
02000000
00000000
03100000
01000000
,
01100000
10000000
00010000
00200000
,
00300000
00010000
01000000
00002000
,
00003000
00000000
00010000
00000000
00000000
00001100
00000000
00000000
,
00000010
00000000
00000000
00001001
00000000
00000000
00000001
00000000
,
00001000
00000020
00000030
00010000
,
00001000
01000000
00010000
00100000
,
01000000
00000000
10000000
00100000
10000000
00000000
01000000
00100000
,
01000000
00100000
00001000
00010000
,
00001000
00000000
00000000
00000000
00011000
00000000
00000000
00000000
00010000
00000000
00000000
00010000
00000000
00000000
00000100
00000000
,
00000000
00000100
00000000
00000000
00001000
00000000
00000000
00000010
00000000
00000000
00001000
00000000
00000000
00000010
00000000
00000000
,
00001000
00000000
00000000
00000000
00001001
00000000
00000000
00000000
00000001
00000000
00000000
00000001
00000000
00000000
00000100
00000000
,
00000000
00000100
00000000
00000000
00000010
00000000
00000000
00010000
00000000
00000000
00000010
00000000
00000000
00010000
00000000
00000000
,
00000010
00010000
00010000
00001000
,
00001000
00100000
00100000
00010000
,
00010000
00000000
01000000
00100000
10000000
00000000
01000000
00100000
,
00010000
00200000
00302000
00023000
,
00032000
00003000
00000000
00000000
,
00000000
00000000
00000000
00000000
;
#NOTES:
     dance-double:
     :
     Hard:
     13:
     :
00000000
00000000
00000000
00000000
,
00000000
00000000
00000000
00000000
,
00000000
00000000
00000000
00000000
,
00000000
00000000
00000000
00000000
,
00000000
00000000
00000000
00000000
,
10000000
01000000
00100000
00000000
00010000
01000000
00100000
00000000
,
10000000
01000000
00100000
00001000
00010000
00000100
00001000
00000000
,
00000001
00000100
00000010
00000000
00001000
00000100
00000010
00000000
,
00000001
00000100
00000010
00010000
00001000
01000000
00010000
00100000
,
00000000
00000000
00000000
00000000
10000000
00000000
01000000
00000000
00100000
00010000
00000000
01000000
00000000
00010000
00000000
00100000
,
00000000
00001000
00000000
00010000
00001000
00000000
00000010
00000000
00000100
00001000
00000000
00000010
00000000
00001000
00000000
00000100
,
00000000
00000010
00000000
00000001
00001000
00000000
00000010
00000000
00001000
00000100
00000000
00000010
00000000
00000001
00000000
00001000
,
00000000
00000010
00000000
00000100
00000001
00000000
00000100
00000000
00001000
00010000
00000000
00001000
00000000
01000000
00000000
00010000
,
00000000
00100000
00000000
00010000
10000000
00000000
01000000
00000000
00100000
00010000
00000000
10000000
00000000
00100000
00000000
01000000
,
00000000
00100000
00000000
10000000
00010000
00000000
00100000
00000000
00001000
00010000
00000000
00001000
00000000
00000010
00000000
00000100
,
00000000
00001000
00000000
00000100
00000010
00000000
00000001
00000000
00000101
00000000
00000000
00000000
00000010
00000000
00001000
00000000
,
00001100
00000000
00000001
00000100
00001000
00010000
00100000
10000000
,
00010000
00000000
00000000
00000000
10000000
00000000
00010000
00000000
01000000
00100000
00000000
01000000
00000000
00010000
00100000
00010000
,
00000000
00100000
00000000
00001000
00010000
00000000
00001000
00000000
00000100
00000010
00000000
00001000
00000000
00000001
00000100
00000001
,
00000000
00000000
00000000
00000000
00001000
00000000
00000001
00000000
00000010
00000100
00000000
00000010
00000000
00000001
00000100
00000001
,
00000000
00001000
00000000
00000100
00001000
00000000
00000010
00000000
00010000
00001000
00000000
00010000
00000000
00001000
00100000
00001000
,
00000000
00000000
00100000
00010000
00000000
00000000
10000000
01000000
,
00000000
00000000
00010000
00001000
00000000
00000000
00000010
00000001
,
00000000
00000000
00000001
00000100
00000010
00001000
00010000
01000000
,
00100000
00000000
10000000
00000000
00010000
00100000
00010000
00000000
01000000
00000000
00100000
00000000
10000000
01000000
10000000
00000000
,
00100000
01000000
00000000
00000000
01100000
00000000
00000000
00000000
10000000
00000000
00000000
11000000
00000000
00000000
01100000
00000000
,
00000000
00110000
00000000
00000000
00101000
00000000
00000000
00011000
00000000
00000000
00010100
00000000
00000000
00001100
00000000
00000000
,
00000100
00000010
00000000
00000000
00000110
00000000
00000000
00000000
00000001
00000000
00000000
00000101
00000000
00000000
00000110
00000000
,
00000000
00001010
00000000
00000000
00010010
00000000
00000000
00011000
00000000
00000000
01001000
00000000
00000000
01010000
00000000
00000000
,
01000000
00100000
00000000
00000000
01100000
00000000
00000000
00000000
10000000
00000000
00010000
01000000
00010000
00000000
00100000
00000000
,
00001000
00010000
00001000
00000000
00010000
00000000
00000010
00001000
00000010
00000000
00000100
00000000
00000001
00001000
00000001
00000000
,
00000010
00000000
00000001
00000000
00000100
00000000
00001000
00000000
00010000
00000000
00100000
00000000
10000000
00100000
10000000
00000000
,
00010000
01000000
00010000
00000000
00000000
00000000
00000000
00000000
00000000
00000000
00000000
00000000
00000000
00000000
00000000
00000000
,
00000000
20000000
30200000
00320000
,
00030000
00002000
00003020
00000032
,
00000003
00000000
00000001
00000100
00000010
00001000
00000000
00001000
,
00000200
00000000
00010300
00001000
,
00011000
00002000
00000000
00000000
,
00023000
00230000
00000000
20300000
,
00000000
30020000
00000000
00230000
,
00302000
00000000
00000000
00000000
00003020
00000000
00000000
00000000
00000000
00000000
00000000
00000000
00000031
00000000
00000000
00001000
,
00000001
00000000
00000001
00000000
00000100
00000000
00000010
00000000
00001010
00000000
00000000
00000000
00001000
00000000
00000100
00010000
,
00000000
00010000
00000000
00010000
00001000
00000000
01000000
00000000
01010000
00000000
00000000
00000000
00010000
00000000
00100000
01000000
,
00000000
01000000
00000000
01000000
10000000
00000000
00100000
00000000
01100000
00000000
00000000
00000000
01000000
00000000
00001000
00010000
,
00000000
00010000
00000000
00010000
00000000
00000000
00000000
00000000
00000000
00000000
00000000
00000000
00000000
00000000
00000000
00000000
,
00000000
00000000
00000000
00000000
00001000
00000000
00010000
00000000
00000010
00001000
00000000
00000010
00001000
00000000
00000100
00001000
,
00000000
00000100
00001000
00000000
00000100
00000000
00000010
00000000
00000001
00001000
00000000
00000001
00001000
00000000
00000001
00000100
,
00000000
00000001
00000100
00000000
00000001
00000000
00000010
00000000
00001000
00000000
00010000
00000000
00000010
00000000
00000100
00000000
,
00001000
00010000
00100000
01000000
00100000
00010000
00001000
00010000
,
01000000
00000000
10000000
00000000
00010000
00000000
01000000
00000000
00100000
10000000
00000000
00100000
10000000
00000000
01000000
10000000
,
00000000
01000000
10000000
00000000
01000000
00000000
00100000
00000000
00001000
00100000
00000000
00001000
00100000
00000000
00001000
00010000
,
00000000
00001000
00010000
00000000
00001000
00000000
00000010
00000000
00000001
00000000
00001000
00000000
00000100
00000000
00000010
00000000
,
00000001
00001000
00000001
00000000
00000100
00000000
00001000
00000000
00010000
00001000
00010000
00000000
00001000
00000000
00000000
00100000
,
00010000
00000000
00010000
00000000
01000000
00000000
00100000
00000000
10000000
00100000
00000000
10000000
01000000
00000000
10000000
00000000
,
00000000
10100000
00000000
00000000
00100000
00000000
00100000
00000000
01000000
00010000
00000000
00100000
00010000
00000000
00100000
00000000
,
00000000
00101000
00000000
00000000
00011000
00000000
00010000
00000000
00000010
00000000
00001010
00000000
00000000
00000000
00001000
00000000
,
00001001
00000000
00000000
00000000
00000000
00000000
00000100
00000000
00000000
00000110
00000000
00000000
00000000
00000000
00000000
00000000
00000000
00000000
00000001
00000000
00000010
00000000
00000100
00000000
,
00001000
00000000
00000000
00000000
00000001
00000000
00000100
00000000
00000010
00001000
00000000
00000100
00001000
00000000
00000100
00010000
,
00000000
00001000
00010000
00000000
00001000
00000000
01000000
00000000
00010000
00100000
00000000
01000000
00100000
00000000
00010000
10000000
,
00000000
00100000
01000000
00000000
00010000
00000000
10000000
00000000
01000000
00100000
00000000
00001000
00010000
00000000
00001000
00000000
,
00010000
00000100
00010000
00000000
00001000
00000000
00000010
00000000
00000100
00000000
00010000
00000000
00001000
00000000
00000100
00000000
,
00000010
00000100
00000000
00000000
00000110
00000000
00000000
00000000
00000001
00000000
00000000
00000011
00000000
00000000
00000110
00000000
,
00000000
00001100
00000000
00000000
00010100
00000000
00000000
00011000
00000000
00000000
00101000
00000000
00000000
00110000
00000000
00000000
,
00100000
01000000
00000000
00000000
01100000
00000000
00000000
00000000
10000000
00000000
00000000
10100000
00000000
00000000
01100000
00000000
,
00000000
01010000
00000000
00000000
01001000
00000000
00000000
00011000
00000000
00000000
00010010
00000000
00000000
00001010
00000000
00000000
,
00000010
00000100
00000000
00000000
00000110
00000000
00000000
00000000
00000001
00000000
00001000
00000010
00001000
00000000
00000100
00000000
,
00010000
00001000
00010000
00000000
00001000
00000000
01000000
00010000
01000000
00000000
00100000
00000000
10000000
00010000
10000000
00000000
,
01000000
10000000
00100000
00010000
00001000
00000100
00000001
00000010
,
00001000
00000000
00010000
00000000
01000000
00000000
10000000
00000000
01000000
00100000
00000000
00001000
00000000
00010000
00001000
00000000
,
00000010
00000100
00000000
00000010
00000000
00000000
00000000
00000000
00000000
00000000
00000000
00000000
00000000
00000000
00000000
00000000
,
00000000
00000000
00000000
00000000
;
