
//----- song ID: spri -----//
#TITLE:spring pony;
#ARTIST:S-C-U;
#BANNER:spring pony.png;
#BACKGROUND:spring pony-bg.png;
#CDTITLE:./CDTitles/jubeat saucer.png;
#MUSIC:spring pony.ogg;
#SAMPLESTART:65.601;
#SAMPLELENGTH:15;
#BPMS:0=150;
#STAGE:5;
#NOTES:
     dance-single:
     :
     Beginner:
     2:
     :
0000
0000
0000
0000
,
0000
0000
0000
0000
,
0000
0000
0000
0000
,
0000
0000
0000
0000
,
0000
0000
0000
0000
,
0001
0000
0000
0000
,
0001
0000
0000
0000
,
1000
0000
0000
0000
,
1000
0000
0000
0000
,
0010
0000
0000
0000
,
0010
0000
0000
0000
,
0100
0000
0000
0000
,
0100
0000
0000
0000
,
0001
0000
0000
0000
,
1000
0000
0000
0000
,
1001
0000
0000
0000
,
1001
0000
0000
0000
,
1000
0000
0000
0000
,
0010
0000
0000
0000
,
1000
0000
0000
0000
,
0001
0000
0000
0000
,
1001
0000
0000
0000
,
1001
0000
0000
0000
,
0001
0000
0000
0000
,
0100
0000
0000
0000
,
0000
0000
0000
0000
,
0110
0000
0000
0000
,
0000
0000
0000
0000
,
1001
0000
0000
0000
,
1000
0000
0000
0000
,
0001
0000
0000
0000
,
1001
0000
0000
0000
,
0000
0000
0000
0000
,
0000
0000
0000
0000
,
0110
0000
0000
0000
,
0000
0000
0000
0000
,
1001
0000
0000
0000
,
1001
0000
0000
0000
,
1001
0000
0000
0000
,
2002
0000
0000
0000
0000
0000
0000
3003
,
0000
0000
0000
0000
,
1000
0000
0000
0000
,
0001
0000
0000
0000
,
0100
0000
0000
0000
,
0010
0000
0000
0000
,
1000
0000
0000
0000
,
0001
0000
0000
0000
,
0010
0000
0000
0000
,
0100
0000
0000
0000
,
1001
0000
0000
0000
,
0100
0000
0000
0000
,
1001
0000
0000
0000
,
0010
0000
0000
0000
,
1001
0000
0000
0000
,
1001
0000
0000
0000
,
0001
0000
1000
0000
,
0010
0010
0010
0010
,
0010
0000
0000
0000
,
0000
0000
1000
0000
,
0001
0000
0001
0000
,
0100
0000
0010
0000
,
0010
0000
0100
0000
,
0000
0000
0001
0000
,
1000
0000
1000
0000
,
0100
0000
0010
0000
,
0010
0000
0100
0000
,
1000
0000
2002
0000
,
0000
0000
0000
3003
0000
0000
0000
0000
,
0000
0000
0000
0000
;
#NOTES:
     dance-single:
     :
     Easy:
     6:
     :
0000
0000
0000
0000
,
0000
0000
0000
0000
,
0000
0000
0000
0000
,
0000
0000
0000
0000
,
0000
0000
0000
0000
,
1000
1000
0001
0001
,
0100
0100
0010
0010
,
1000
0000
0001
0000
1000
0001
1000
0000
,
0001
0010
0100
1000
,
0001
0001
1000
1000
,
0100
0100
0010
0010
,
0001
0000
1000
0000
0001
1000
0001
0000
,
1000
0010
0100
0001
,
1000
0100
0010
0100
,
1000
0010
0100
0010
,
1000
0000
0000
1001
0000
0000
0001
0000
,
1001
0000
0000
0000
,
0001
1000
0100
0100
,
1000
0001
0010
0010
,
0001
0100
0010
0100
,
0001
0010
0100
0010
,
0001
0000
0000
1001
0000
0000
1000
0000
,
1001
0000
0000
0000
,
1000
0001
0100
0100
,
0001
1000
0010
0010
,
0000
2000
0000
3000
0002
0000
0003
0000
,
1000
0010
0100
0001
,
2000
0000
3000
0002
0000
0003
0000
0000
,
1000
0100
0010
0001
,
1000
1000
2000
3000
,
0001
0001
0002
0003
,
1000
0000
0000
2002
0000
0000
0000
0000
,
0000
0000
3003
0000
,
0000
0002
0000
0003
2000
0000
3000
0000
,
0001
0100
0010
1000
,
0002
0000
0003
2000
0000
3000
0000
0000
,
0001
0010
0100
1000
,
1001
0000
0100
0100
,
1001
0000
0100
0100
,
2002
0000
0000
0000
0000
0000
0003
3000
,
0000
0000
0000
0000
,
0001
1000
0001
0000
0100
0000
0010
0000
,
1000
0001
1000
0000
0100
0000
0010
0000
,
0001
1000
0010
0100
,
0001
0010
0100
1000
,
0001
1000
0001
0000
0100
0000
0010
0000
,
1000
0001
1000
0000
0100
0000
0010
0000
,
0001
1000
0010
0100
,
0001
0010
0100
1000
,
1100
0100
1000
0001
,
0011
0010
0001
0100
,
0101
0001
1000
0010
,
1010
1000
0001
0010
,
0110
0100
1000
0010
,
0110
0100
0001
0010
,
0110
1000
0110
0001
,
0110
1001
0110
1001
,
0200
0000
0000
0000
,
0000
0000
0310
1001
,
1000
0001
0100
0110
,
0010
1000
0001
0101
,
1000
1100
0001
0100
,
0010
1000
0010
1001
,
0001
1000
0100
0110
,
0010
0001
1000
1100
,
0001
0101
1000
0100
,
0010
0001
2002
0000
,
0000
0000
3000
0003
0000
0000
0000
0000
,
0000
0000
0000
0000
;
#NOTES:
     dance-single:
     :
     Medium:
     12:
     :
0000
0000
0000
0000
,
0000
0000
0000
0000
,
0000
0000
0000
0000
,
0000
0000
0000
0000
,
0000
0000
0000
0000
,
1000
0000
0001
0000
0000
0010
0000
0000
0001
0000
0000
1000
0000
0000
0010
0000
,
0000
0000
1000
0000
0000
0001
0000
0000
0010
0000
0000
0100
0000
0000
1000
0000
,
0001
0000
0000
0100
0000
0000
0010
0000
1000
0001
0000
0000
0010
0000
0100
0000
,
1000
0000
0000
0001
0000
0000
0100
0000
0010
0000
1000
0000
0100
0000
0010
0000
,
0001
0000
1000
0000
0000
0010
0000
0000
1000
0000
0000
0001
0000
0000
0010
0000
,
0000
0000
0001
0000
0000
1000
0000
0000
0010
0000
0000
0100
0000
0000
0001
0000
,
1000
0000
0000
0100
0000
0000
0010
0000
0001
1000
0000
0000
0010
0000
0100
0000
,
0001
0000
0000
1000
0000
0000
0100
0000
0010
0000
0001
0000
0010
0000
0001
0000
,
1000
0010
0100
0001
0010
0001
1000
0000
,
0001
0010
0100
0010
0001
1000
0010
0000
,
1000
0000
0000
0001
0000
0000
0011
0000
0000
0000
0001
0000
0000
1000
0000
0000
,
1010
0000
0000
0000
0000
0001
0001
0001
,
1000
0001
0100
0010
1000
0001
0010
0000
,
0001
0010
0001
0100
0010
1000
0010
1000
,
0001
0010
0100
1000
0010
1000
0001
0000
,
1000
0010
0100
0010
1000
0001
0010
0000
,
0001
0000
0000
1000
0000
0000
1010
0000
0000
0000
1000
0000
0000
0001
0000
0000
,
0011
0000
0000
0000
0000
1000
1000
1000
,
0001
1000
0100
0010
0001
1000
0010
0000
,
1000
0010
1000
0001
0010
0100
0010
0100
,
0000
1000
0001
0001
1000
0100
0100
0000
,
1000
0010
0100
0001
0010
0100
1000
0000
,
0001
0100
0100
0001
1000
1000
0000
0000
,
0001
0010
0001
1000
0010
0100
0001
0000
,
1000
0000
0001
0000
1000
0000
0100
0010
0000
0001
0000
0000
0000
0000
0100
0000
,
0001
0000
1000
0000
0100
0000
1000
0010
0000
0000
0100
0000
0001
0000
1000
0000
,
1001
0000
0000
0110
0000
0000
2002
0000
0000
0000
0000
0000
0000
0000
0000
0000
,
0000
0000
3003
0000
,
0000
0001
1000
1000
0001
0100
0100
0000
,
0001
0010
0100
1000
0010
0100
0001
0000
,
1000
0100
0100
1000
0001
0001
0000
0000
,
1000
0010
1000
0001
0010
0100
1000
0000
,
0002
0000
0000
0100
0000
0100
0000
0100
0003
0000
0001
0000
1000
0000
0000
0000
,
2000
0000
0000
0100
0000
0100
0000
0100
3000
0000
1000
0000
0001
0000
0000
0000
,
1000
0001
0000
1000
0000
0001
0000
1000
0000
0001
0000
1000
0001
0000
1000
0000
,
0000
0000
0000
0000
,
1000
0001
0100
0010
0100
0001
0010
0100
,
1000
0010
0100
0010
1000
0100
0010
0100
,
1000
0000
1000
0000
0001
0100
0000
0020
0000
0000
0130
0000
0001
0000
1000
0000
,
0100
0000
0000
0010
0000
0000
0001
0000
1000
0000
0010
0000
0100
0000
0000
0000
,
0001
1000
0100
0010
0100
1000
0010
0100
,
0001
0010
0100
0010
0001
0100
0010
0100
,
0001
0000
0001
0000
1000
0100
0000
0020
0000
0000
0130
0000
1000
0000
0001
0000
,
0100
0000
0000
0010
0000
0000
1000
0000
0001
0000
0010
0000
0100
0000
0010
0000
,
0001
1000
0020
0000
0130
0001
2000
0000
,
3010
0100
0001
0001
1000
0100
0020
0000
,
0130
1000
0020
0000
0130
0001
2000
0000
,
3100
0010
0001
0001
1000
0010
0200
0000
,
0310
1000
0200
0000
0310
0100
1000
0010
,
0100
0001
0020
0000
0130
0010
0001
0100
,
0010
1000
0100
0010
0001
0100
0010
0000
,
1010
0000
0101
0000
1001
0000
1000
0001
,
0200
0000
0000
0000
,
0000
0000
0000
0000
0000
0000
0000
0000
0310
0000
1000
0000
0001
0000
0010
0100
,
0000
0000
1000
0000
0010
0000
0100
0000
0001
0000
1000
0000
0100
0000
0010
0001
,
0000
0000
1000
0000
0010
0000
0100
0000
0001
0000
1000
0100
0000
0000
1000
0000
,
0001
0100
0000
0000
0001
0000
1000
0000
0100
0000
0010
0000
0001
0000
0000
0000
,
1000
0000
0010
0000
0100
0000
0001
0000
0010
0000
0001
0000
1000
0000
0010
0100
,
0000
0000
0001
0000
0010
0000
0100
0000
0010
0000
0001
0000
1000
0000
0010
0100
,
0000
0000
0001
0000
0010
0000
0100
0000
1000
0000
0001
0100
0000
0000
0001
0000
,
1000
0100
0000
0000
1000
0000
0001
0000
0100
0000
0010
0000
1000
0000
0000
0000
,
0001
0000
0010
0000
0100
0000
1000
0000
0010
0000
0100
0000
0001
0000
0010
0100
,
0000
0010
0000
0001
1000
0000
0010
0000
0000
0000
0000
0000
0000
0000
0000
0000
,
0000
0000
0000
0000
;
#NOTES:
     dance-single:
     :
     Hard:
     15:
     :
0000
0000
0000
0000
,
0000
0000
0000
0000
,
0000
0000
0000
0000
,
0000
0000
0000
0000
,
0000
0000
0000
0000
,
0001
0000
1000
0000
0010
1000
0000
1000
0001
0000
0001
0010
0000
0000
0100
0000
,
1000
0000
0001
0000
0010
0001
0000
0001
1000
0000
1000
0010
0000
0000
0100
0000
,
0001
0000
0000
0010
0000
0000
0100
0000
1000
0001
0000
0000
0100
0000
0001
0000
,
0010
0000
0001
1000
0000
0000
0100
0000
0010
0000
0001
0000
1000
0000
0001
0000
,
0100
0000
0001
0000
0010
0001
0000
0001
1000
0000
1000
0010
0000
0000
0100
0000
,
0001
0000
1000
0000
0010
1000
0000
1000
0001
0000
0001
0010
0000
0000
0100
0000
,
1000
0000
0000
0010
0000
0000
0100
0000
0001
1000
0000
0000
0010
0000
1000
0000
,
0100
0000
1000
0001
0000
0000
0100
0000
0010
0100
0010
0100
0010
0100
0010
0100
,
0001
0000
1000
0000
0100
0000
1000
0010
0000
1000
0100
0010
0001
0010
0100
0000
,
1000
0000
0010
0000
0100
0000
0001
0010
0000
0001
0100
0010
1000
0010
0100
0000
,
0101
0000
0000
1001
0000
0000
1010
0000
0000
0000
0011
0000
0000
1001
0000
0000
,
1100
0000
0000
0000
0000
1000
1000
1000
,
0001
0000
1000
0100
0000
0010
0000
0100
1000
0000
0001
0000
1000
0010
0000
0100
,
0001
0000
1000
0100
0000
0010
0000
0100
1000
0001
0100
0010
1000
0001
0010
0100
,
1000
0000
0010
0000
0100
0000
0001
0010
0000
0001
0100
0010
1000
0010
0100
0000
,
0001
0000
0010
0000
0100
0000
1000
0010
0000
1000
0100
0010
0001
0010
0100
0000
,
1100
0000
0000
1001
0000
0000
1010
0000
0000
0000
0011
0000
0000
1001
0000
0000
,
0101
0000
0000
0000
0000
0001
0001
0001
,
1000
0000
0001
0100
0000
0010
0000
0100
0001
0000
1000
0000
0001
0010
0000
0100
,
1000
0000
0001
0100
0000
0010
0000
0100
0001
1000
0100
0010
0001
0100
0010
1000
,
0000
0000
0001
0100
0001
0100
0001
0000
0001
0100
0001
0100
0001
0000
0001
0010
,
0100
0000
1000
0001
0000
0100
0000
0002
0000
0000
0000
0000
0003
0000
0000
0000
,
1000
0100
1000
0100
1000
0000
1000
0100
1000
0100
1000
0000
1000
0010
0100
0001
,
1000
0000
0100
0000
0010
0001
0000
0200
0000
0000
0000
0000
0300
0000
0010
1000
,
0001
0000
0010
0000
0100
0000
1000
0010
0000
0100
0000
0000
0010
0000
0100
0001
,
1000
0000
0100
0000
0010
0000
0001
0100
0000
0000
0010
0000
0100
0000
0001
0000
,
1001
0000
0000
0110
0000
0000
2002
0000
0000
0000
0000
0000
0000
0000
0000
0000
,
0000
0000
3003
0000
,
0000
0000
1000
0100
1000
0100
1000
0000
1000
0001
1000
0001
1000
0000
1000
0001
,
0100
0000
0010
1000
0000
0001
0000
0200
0000
0000
0000
0000
0300
0000
0000
0000
,
0001
0100
0001
0100
0001
0000
0001
1000
0001
1000
0001
0000
0001
0010
0100
1000
,
0001
0000
0100
0000
0010
1000
0000
0200
0000
0000
0000
0000
0300
0000
0010
0001
,
2000
0000
0000
0001
0000
0001
0000
0001
3000
0001
0010
0100
1000
0000
0001
1000
,
0002
0000
0000
1000
0000
1000
0000
1000
0003
1000
0010
0100
0001
0000
1000
0001
,
1000
0100
0000
1100
0000
0011
0000
1010
0000
0101
0000
1000
0001
0000
0110
0000
,
0000
0000
0000
0000
,
1001
0000
0001
0000
1000
0000
0010
1000
0000
0001
0000
1000
0100
0000
0010
0000
,
0100
0000
1000
0000
0010
0000
0100
0001
0000
1000
0000
0001
0010
0000
0100
0000
,
1000
0000
1000
0000
0001
0100
0000
0010
0000
0100
0001
0000
0010
0000
0100
1000
,
0010
0000
0000
0101
0000
0000
0001
0000
1000
0000
0100
0000
0010
0000
0001
0000
,
1001
0000
1000
0000
0001
0000
0010
0001
0000
1000
0000
0001
0100
0000
0010
0000
,
0100
0000
0001
0000
0010
0000
0100
1000
0000
0001
0000
1000
0010
0000
0100
0000
,
0001
0000
0001
0000
1000
0100
0000
0010
0000
0100
1000
0000
0010
0000
0100
0001
,
0010
0000
0000
1100
0000
0000
1000
0000
1100
0000
0001
0000
0101
0000
1000
0000
,
1001
0000
0001
0100
0001
0000
0010
0000
0100
0000
1000
0000
0010
0000
0100
0000
,
0001
0000
0010
0100
0010
0000
0001
0000
1000
0000
0010
0000
0100
0000
0001
0000
,
0010
0000
0100
1000
0100
0000
0010
0000
0001
0000
1000
0000
0010
0000
0100
0000
,
0001
0000
0010
0100
0010
0000
0001
0000
0100
0000
0010
0000
1000
0000
0100
0000
,
0010
0000
0001
1000
0001
0000
0100
0000
0010
0000
1000
0001
1000
0000
0100
0000
,
0010
0000
0100
1000
0100
0000
0010
0000
0001
0000
0100
0001
0100
0000
0010
0000
,
1000
0000
0001
0010
0001
0000
0100
0000
0010
1000
0010
0000
0100
0000
0001
1000
,
0001
0000
0010
0000
0001
1000
0001
0000
0100
0010
1000
0001
0010
0000
0001
0000
,
0200
0000
0000
0000
,
0000
0000
0000
0000
0000
0000
0000
0000
0310
0000
1000
0001
0010
0000
0100
1000
,
0000
0010
0100
0001
1000
0001
1000
0000
0100
0000
1000
0001
0100
0000
0010
1000
,
0000
0100
0010
0001
1000
0001
1000
0000
0001
0010
0100
1000
0000
1000
0100
0010
,
0001
1000
0000
1000
0010
0100
0001
1000
0100
0000
1000
0000
0010
0000
0100
0001
,
0000
1000
0100
0010
0001
0100
0010
0000
0100
0000
0001
1000
0100
0000
0010
0001
,
0000
0100
0010
1000
0001
1000
0001
0000
0010
0000
0001
1000
0010
0000
0100
0001
,
0000
0010
0100
1000
0001
1000
0001
0000
1000
0100
0010
0001
0000
0001
0010
0100
,
1000
0001
0000
0001
0100
0010
1000
0001
0010
0000
0001
0000
0100
0000
0010
1000
,
0001
0010
0100
1000
0010
0100
0000
0000
0010
0000
0100
0000
1001
0000
0010
0100
,
0000
1001
0000
0010
0100
0000
1001
0000
0000
0000
0000
0000
0000
0000
0000
0000
,
0000
0000
0000
0000
;
#NOTES:
     dance-double:
     :
     Easy:
     7:
     :
00000000
00000000
00000000
00000000
,
00000000
00000000
00000000
00000000
,
00000000
00000000
00000000
00000000
,
00000000
00000000
00000000
00000000
,
00000000
00000000
00000000
00000000
,
00001000
00001000
00010000
00010000
,
00000100
00000100
00001000
00001000
,
00000010
00001010
00010000
00011000
,
00100000
00110000
00001000
00011000
,
00010000
00010000
00001000
00001000
,
00100000
00100000
00010000
00010000
,
01000000
01010000
00001000
00011000
,
00000100
00001100
00010000
00011000
,
00001000
00000000
00001000
01000000
,
00010000
00100000
01000000
10000000
,
10000000
00100000
01000000
00010000
,
00110000
00000000
00001000
00000000
,
00010000
00011000
00010000
00011000
,
00000010
00001010
00000010
00001010
,
00000001
00000000
00001000
00000010
,
00001000
00000100
00000010
00000001
,
00000001
00000100
00000010
00001000
,
00001100
00000000
00010000
00000000
,
00001000
00011000
00001000
00011000
,
01000000
01010000
01000000
01010000
,
00000000
00010000
00010000
00000000
00010000
00010000
00000000
00000000
,
00100000
00000000
00001000
00000000
,
00010000
00010000
00000000
00010000
00010000
00000000
00001000
00000000
,
00010000
00000000
00000010
00000000
,
00001000
00000001
00000010
00000100
,
00010000
00001000
01000000
00010000
,
10000000
01000000
00100000
00001000
,
00010000
00000100
00001000
00000001
,
00000000
00001000
00001000
00000000
00001000
00001000
00000000
00000000
,
00000010
00000000
00010000
00000000
,
00001000
00001000
00000000
00001000
00001000
00000000
00010000
00000000
,
00001000
00000000
00100000
00000000
,
00100000
00110000
00001000
00010000
,
00000010
00001010
00010000
00001000
,
00022000
00000000
00000000
00000000
00000000
00000000
00003000
00030000
,
00000000
00000000
00000000
00000000
,
00010000
00011000
01000000
01010000
,
10000000
11000000
00010000
01010000
,
00001000
00010000
00000000
00010000
00000000
00010000
00000000
00010000
,
00001000
00100000
00010000
01000000
,
00001000
00011000
00000100
00001100
,
00000001
00000101
00001000
00001100
,
00010000
00001000
00000000
00001000
00000000
00001000
00000000
00001000
,
00010000
00000100
00001000
00000010
,
00010000
00011000
01000000
01100000
,
00001000
00011000
01000000
01100000
,
00001000
00011000
00000010
00000110
,
00010000
00011000
00000010
00000110
,
00010000
00011000
01000000
01100000
,
00001000
00011000
00000010
00000110
,
00010000
00011000
00101000
00101000
,
00011000
00011000
00010010
00010010
,
00021000
00000000
00000000
00000000
,
00030000
00000000
00001000
00010000
,
00000100
00000110
00010000
00001000
,
01000000
01100000
00001000
00010000
,
01000000
10000000
00100000
10000000
,
01000000
00010000
00001000
00001000
,
01000000
01100000
00001000
00010000
,
00000100
00000110
00010000
00001000
,
00000100
00000001
00000010
00000001
,
00000100
00001000
00022000
00000000
,
00000000
00000000
00003000
00030000
00000000
00000000
00000000
00000000
,
00000000
00000000
00000000
00000000
;
#NOTES:
     dance-double:
     :
     Medium:
     12:
     :
00000000
00000000
00000000
00000000
,
00000000
00000000
00000000
00000000
,
00000000
00000000
00000000
00000000
,
00000000
00000000
00000000
00000000
,
00000000
00000000
00000000
00000000
,
00010000
00000000
00001000
00000000
00000000
00000100
00000000
00000000
00000010
00000000
00000000
00001000
00000000
00000000
00000100
00000000
,
00010000
00000000
00001000
00000000
00000000
00010000
00000000
00000000
00100000
00000000
00000000
01000000
00000000
00000000
00001000
00000000
,
00010000
00000000
00000000
01000000
00000000
00000000
10000000
00000000
00000000
00100000
00000000
00000000
00010000
00000000
00001000
00000000
,
00010000
00000000
00000000
00000100
00000000
00000000
00010000
00000000
00001000
00000000
00000100
00000000
00000010
00000000
00010000
00000000
,
00001000
00000000
00010000
00000000
00000000
00100000
00000000
00000000
01000000
00000000
00000000
00010000
00000000
00000000
00100000
00000000
,
00001000
00000000
00010000
00000000
00000000
00001000
00000000
00000000
00000100
00000000
00000000
00000010
00000000
00000000
00010000
00000000
,
00001000
00000000
00000000
00000010
00000000
00000000
00000001
00000000
00000000
00000100
00000000
00000000
00001000
00000000
00010000
00000000
,
00001000
00000000
00000000
00100000
00000000
00000000
00001000
00000000
00010000
00000000
00100000
00000000
01000000
00000000
00001000
00000000
,
00010000
00000000
00001000
00000000
00100000
00000000
00010000
00100000
00000000
00000000
00010000
00000000
10000000
00000000
00000000
00000000
,
01000000
00000000
00100000
00000000
00001000
00000000
00010000
00001000
00000000
00000000
00010000
00000000
00000100
00000000
00000000
00000000
,
00001000
00000000
00000000
00000010
00000000
00000000
00001010
00000000
00000000
00000000
00010000
00000000
00000000
00001000
00000000
00000000
,
00011000
00000000
00000000
00000000
00000000
00010000
00010000
00001000
,
00100000
00010000
01000000
00000000
00001000
00010000
01000000
00000000
,
00100000
00010000
10000000
00000000
00010000
01000000
00100000
00010000
,
00001000
00000000
00010000
00000000
00000010
00000000
00001000
00000010
00000000
00000000
00001000
00000000
00000001
00000000
00000000
00000000
,
00000100
00000000
00000010
00000000
00010000
00000000
00001000
00010000
00000000
00000000
00001000
00000000
01000000
00000000
00000000
00000000
,
00010000
00000000
00000000
00100000
00000000
00000000
00110000
00000000
00000000
00000000
00001000
00000000
00000000
00010000
00000000
00000000
,
00011000
00000000
00000000
00000000
00000000
00001000
00001000
00010000
,
00000100
00001000
00000010
00000000
00010000
00001000
00000100
00000000
,
00000001
00000010
00000100
00000000
00001000
00000010
00010000
00001000
,
00000000
00010000
00001000
00001000
00010000
00001000
00001000
00000000
,
01000000
00000000
00000000
00010000
00000000
00100000
00000000
01000000
00000000
00000000
00000000
00000000
00000000
00000000
00000000
00000000
,
10000000
00010000
00010000
10000000
00010000
00010000
00000000
00000000
,
10000000
00000000
00100000
00000000
01000000
00010000
00000000
00010000
00000000
00000000
00000000
00000000
00000000
00000000
00000000
00000000
,
00000000
00010000
00000000
00110000
00000000
00001000
00000000
00011000
,
00000000
00000100
00000000
00001100
00000000
00010000
00000000
00001000
,
00010000
00000000
00000000
00001000
00000000
00000000
00022000
00000000
00000000
00000000
00000000
00000000
00000000
00000000
00000000
00000000
,
00000000
00000000
00033000
00000000
,
00000010
00001000
00000001
00000001
00001000
00000001
00000001
00000000
,
00000100
00000000
00000000
00000001
00000000
00000010
00000000
00000100
00000000
00000000
00000000
00000000
00010000
00000000
00000000
00000000
,
00001000
00010000
00010000
00001000
00010000
00010000
00000000
00000000
,
00001000
00000000
01000000
00000000
00010000
00100000
00000000
00100000
00000000
00000000
00000000
00000000
00000000
00000000
00000000
00000000
,
00001000
00010000
00001000
00010000
00000100
00000010
00000100
00000010
,
00001000
00010000
00001000
00010000
00100000
01000000
00100000
01000000
,
00001000
00010000
00000000
00001000
00000000
00010000
00000000
00001000
00000000
00010000
00000000
00001000
00010000
00000000
00001000
00000000
,
00000000
00000000
00000000
00000000
,
00010000
00001000
00100000
00010000
01000000
10000000
01000000
00010000
,
00100000
00001000
00010000
00000010
00001000
00000100
00000001
00000100
,
00001000
00000010
00010000
00000000
00001000
01000000
00010000
00000000
,
00100000
00000000
00000000
00100000
00000000
00000000
00100000
00000000
00001000
00000000
00000000
00000000
00011000
00000000
00000000
00000000
,
00001000
00010000
00000100
00001000
00000010
00000001
00000010
00001000
,
00000100
00010000
00001000
01000000
00010000
00100000
10000000
00100000
,
00010000
01000000
00001000
00000000
00010000
00000100
00001000
00000000
,
00000010
00000000
00000000
00000010
00000000
00000000
00000010
00000000
00010000
00000000
00000000
00000000
00011000
00000000
00000000
00000000
,
00010000
00000000
00000000
00010000
00001000
00000000
00000000
00000000
01000000
00000000
00000000
01000000
00010000
00000000
00000000
00000000
,
10000000
00000000
00000000
10000000
01000000
00000000
00000000
00000000
00100000
00000000
00000000
00001000
00010000
00000000
00000000
00000000
,
00001000
00000000
00000000
00001000
00010000
00000000
00000000
00000000
00000100
00000000
00000000
00000100
00001000
00000000
00000000
00000000
,
00000001
00000000
00000000
00000001
00000100
00000000
00000000
00000000
00000010
00000000
00000000
00010000
00001000
00000000
00000000
00000000
,
01000000
00000000
00000000
00010000
00100000
00000000
00000000
00000000
00001000
00000000
00000000
00010000
00000100
00000000
00000000
00000000
,
00001000
00000000
00000000
00000010
00000100
00000000
00000000
00000000
00000001
00000000
00000000
00000010
00000001
00000000
00000000
00000100
,
00000010
00000000
00000000
00001000
00000100
00000000
00000000
00010000
00001000
00000000
00000000
00100000
00010000
00000000
00000000
01000000
,
00100000
00000000
00000000
10000000
01000000
00000000
00000000
00100000
00010000
00000000
00000000
01000000
00100000
00000000
00000000
00000000
,
20010000
00000000
00000000
00000000
,
30000000
00000000
00000000
00000000
00000000
00000000
00000000
00000000
00100000
00000000
01000000
00000000
00010000
00000000
00100000
00010000
,
00000000
00000000
10000000
00000000
00100000
00000000
01000000
00000000
00010000
00000000
00100000
00000000
00001000
00000000
00010000
00001000
,
00000000
00000000
00010000
00000000
00000010
00000000
00000100
00000000
00000001
00000000
00000010
00000001
00000000
00000000
00000100
00000000
,
00000010
00001000
00000000
00000000
00000100
00000000
00010000
00000000
00001000
00000000
01000000
00000000
00100000
00000000
10000000
00000000
,
01000000
00000000
00010000
00000000
00001000
00000000
00000000
00000000
00000100
00000000
00000010
00000000
00001000
00000000
00000100
00001000
,
00000000
00000000
00000001
00000000
00000100
00000000
00000010
00000000
00001000
00000000
00000100
00000000
00010000
00000000
00001000
00010000
,
00000000
00000000
00001000
00000000
01000000
00000000
00100000
00000000
10000000
00000000
01000000
10000000
00000000
00000000
00100000
00000000
,
01000000
00010000
00000000
00000000
00100000
00000000
00001000
00000000
00010000
00000000
00000010
00000000
00000100
00000000
00000001
00000000
,
00000010
00000000
00001000
00000000
00010000
00000000
00000000
00000000
00001000
00000000
00010000
00000000
00010000
00000000
00001000
01000000
,
00000000
00010000
00000000
00100000
00001000
00000000
00010000
00000000
00000000
00000000
00000000
00000000
00000000
00000000
00000000
00000000
,
00000000
00000000
00000000
00000000
;
#NOTES:
     dance-double:
     :
     Hard:
     15:
     :
00000000
00000000
00000000
00000000
,
00000000
00000000
00000000
00000000
,
00000000
00000000
00000000
00000000
,
00000000
00000000
00000000
00000000
,
00000000
00000000
00000000
00000000
,
00001000
00000000
00010000
00000000
00001000
01000000
00000000
01000000
00010000
00000000
00010000
00100000
00000000
01000000
10000000
00000000
,
00010000
00000000
10000000
00000000
01000000
10000000
00000000
10000000
00010000
00000000
00010000
01000000
00000000
00001000
00010000
00000000
,
00001000
00000000
00000000
00000010
00000000
00000000
00000001
00000000
00000000
00000100
00000000
00000000
00001000
00000000
00010000
00000000
,
00001000
00000000
00000000
01000000
00000000
00000000
00010000
00000000
00100000
00000000
01000000
00000000
10000000
00000000
00100000
00000000
,
00010000
00000000
00001000
00000000
00010000
00000100
00000000
00000100
00001000
00000000
00001000
00000010
00000000
00000100
00000001
00000000
,
00001000
00000000
00000001
00000000
00000010
00000001
00000000
00000001
00001000
00000000
00001000
00000010
00000000
00010000
00001000
00000000
,
00010000
00000000
00000000
01000000
00000000
00000000
10000000
00000000
00000000
00100000
00000000
00000000
00010000
00000000
00001000
00000000
,
00010000
00000000
00000000
00000010
00000000
00000000
00001000
00000000
00000100
00000000
00000010
00000000
00000001
00000000
00000100
00000000
,
00001000
00000000
00010000
00000000
00001000
00000000
01000000
00010000
00000000
10000000
01000000
10000000
01000000
00100000
00010000
00000000
,
01000000
00000000
00001000
00000000
00010000
00000000
00000010
00001000
00000000
00000001
00000010
00000001
00000010
00000100
00001000
00000000
,
00000010
00000000
00000000
00000100
00000000
00000000
00000110
00000000
00000000
00000000
00010000
00000000
00000000
00001000
00000000
00000000
,
00011000
00000000
00000000
00000000
00000000
00010000
00010000
00001000
,
01000000
00000000
00001000
00010000
00000000
00100000
00000000
01000000
00001000
00000000
00010000
00000000
01000000
10000000
00000000
10000000
,
00100000
00000000
01000000
00010000
00000000
00100000
00000000
00001000
00010000
00001000
00010000
00001000
00010000
00001000
00010000
00001000
,
00010000
00000000
00001000
00000000
00010000
00000000
00000100
00001000
00000000
00000001
00000100
00000001
00000100
00000010
00001000
00000000
,
00000100
00000000
00010000
00000000
00001000
00000000
00100000
00010000
00000000
10000000
00100000
10000000
00100000
01000000
00010000
00000000
,
00100000
00000000
00000000
01000000
00000000
00000000
01100000
00000000
00000000
00000000
00001000
00000000
00000000
00010000
00000000
00000000
,
00011000
00000000
00000000
00000000
00000000
00001000
00001000
00010000
,
00000100
00000000
00010000
00001000
00000000
00000010
00000000
00000100
00010000
00000000
00001000
00000000
00000100
00000001
00000000
00000001
,
00000010
00000000
00000100
00001000
00000000
00000010
00000000
00001000
00000001
00001000
00000001
00001000
00000001
00001000
00000001
00001000
,
00000000
00000000
00000001
00000100
00000001
00000100
00000001
00000000
00000001
00000100
00000001
00000100
00000001
00000000
00000001
00000010
,
00000100
00000000
00010000
00001000
00000000
00010000
00000000
02000000
00000000
00000000
00000000
00000000
03000000
00000000
00000000
00000000
,
10000000
01000000
10000000
01000000
10000000
00000000
10000000
01000000
10000000
01000000
10000000
00000000
10000000
00100000
01000000
00000000
,
00010000
00000000
00100000
00000000
00001000
00010000
00000000
00000020
00000000
00000000
00000000
00000000
00000030
00000000
00000000
00000000
,
00010000
00000000
00001000
00000000
00010000
00000000
00100000
10000000
00000000
10000000
01000000
00000000
00010000
00000000
00001000
00010000
,
00001000
00000000
00010000
00000000
00000010
00000000
00000100
00000001
00000000
00000001
00000010
00000000
00001000
00000000
00010000
00000000
,
00001000
00000000
00000000
00011000
00000000
00000000
01001000
00000000
00000000
00000000
00001000
00000000
00010000
00000000
01000000
00000000
,
10000000
00100000
00010000
00001000
00000010
00000001
00000100
00001000
,
00010000
00000000
00000100
00001000
00000100
00001000
00000100
00000000
00000100
00010000
00000100
00010000
00000100
00000000
00000100
00010000
,
00001000
00000000
00000010
00000001
00000000
00000010
00000000
00000200
00000000
00000000
00000000
00000000
00010300
00000000
00001000
00000000
,
01000000
00010000
01000000
00010000
01000000
00000000
01000000
00001000
01000000
00001000
01000000
00000000
01000000
00010000
00100000
00000000
,
00001000
00000000
00010000
00000000
01000000
00100000
00000000
00002000
00000000
00000000
00000000
00000000
00003000
00000000
00010000
00001000
,
00010000
00001000
00000000
00000100
00000000
00000010
00000000
00000100
00000000
00000001
00000010
00000000
00000100
00000000
00010000
00001000
,
00010000
00001000
00000000
00010000
00000000
01000000
00000000
10000000
00000000
00100000
01000000
00000000
00010000
00000000
00100000
01000000
,
10000000
00100000
00000000
00010000
00000000
00001000
00000000
00000010
00000000
00000001
00000000
00000100
00000010
00000000
00002000
00000000
,
00000000
00000000
00000000
00000000
00000000
00000000
00000000
00003000
,
00000010
00000000
00010000
00000000
00001000
00000000
00010000
00000100
00000000
00001000
00000000
00000010
00010000
00000000
00001000
00000000
,
00000100
00000000
00000010
00000000
00010000
00000000
00001000
01000000
00000000
00010000
00000000
00100000
00001000
00000000
00010000
00000000
,
01000000
00000000
01000000
00000000
10000000
01000000
00000000
00010000
00000000
00001000
00000010
00000000
00000001
00000000
00000100
00000010
,
00001000
00000000
00000000
00000001
00000000
00000000
00000010
00000000
00001000
00000000
00010000
00000000
00010000
00000000
00001000
00000000
,
00100000
00000000
00001000
00000000
00010000
00000000
00001000
01000000
00000000
00010000
00000000
00100000
00001000
00000000
00010000
00000000
,
01000000
00000000
00100000
00000000
00001000
00000000
00010000
00000100
00000000
00001000
00000000
00000010
00010000
00000000
00001000
00000000
,
00000100
00000000
00000100
00000000
00000001
00000100
00000000
00001000
00000000
00010000
00100000
00000000
10000000
00000000
01000000
00100000
,
00010000
00000000
00000000
10000000
00000000
00000000
00100000
00000000
00010000
00000000
00001000
00000000
00001000
00000000
00010000
00000000
,
00001000
00000000
00000010
00000001
00000010
00000000
00000001
00000000
00000100
00000000
00001000
00000000
00010000
00000000
00100000
00000000
,
10000000
00000000
01000000
10000000
01000000
00000000
00010000
00000000
00001000
00000000
00000010
00000000
00000001
00000000
00001000
00000000
,
00000001
00000000
00000100
00000001
00000100
00000000
00001000
00000000
00010000
00000000
00100000
00000000
10000000
00000000
00010000
00000000
,
10000000
00000000
01000000
10000000
01000000
00000000
00010000
00000000
00001000
00000000
00000010
00000000
00000001
00000000
00001000
00000000
,
00000001
00000000
00000100
00000001
00000100
00000000
00001000
00000000
00010000
00000000
00100000
10000000
00100000
00000000
10000000
00000000
,
01000000
00000000
10000000
01000000
10000000
00000000
01000000
00000000
00010000
00000000
00001000
00010000
00001000
00000000
00000010
00000000
,
00000001
00000000
00000100
00000001
00000100
00000000
00001000
00000000
00010000
00001000
00010000
00000000
00100000
00000000
10000000
00100000
,
10000000
00000000
01000000
00000000
00010000
00001000
00010000
00000000
00001000
00010000
00000100
00001000
00000010
00000000
00000100
00000000
,
00000002
00000000
00000000
00000000
,
00000003
00000000
00000000
00000000
00000000
00000000
00000000
00000000
00001000
00000000
00000001
00000100
00000010
00000000
00010000
00001000
,
00000000
01000000
00010000
00000000
00100000
01000000
10000000
00000000
00010000
00000000
01000000
00010000
00100000
00000000
00001000
00010000
,
00000000
00000100
00000010
00000000
00000001
00001000
00000010
00000000
00000100
00000001
00000100
00000001
00000000
00000001
00000100
00000001
,
00000100
00000001
00000000
00000001
00000100
00000001
00000100
00000000
00000001
00000010
00000100
00001000
00000100
00000000
00010000
00001000
,
00000000
00100000
00010000
00100000
01000000
10000000
00010000
00000000
10000000
00000000
00100000
01000000
00010000
00000000
10000000
01000000
,
00000000
00010000
00001000
00000000
00000010
00000001
00000010
00000000
00000100
00000000
00001000
00000010
00000100
00000000
00000001
00000100
,
00000000
00001000
00010000
00000000
00100000
10000000
00100000
00000000
01000000
00010000
01000000
00010000
00000000
00010000
01000000
00010000
,
01000000
00010000
00000000
00010000
01000000
00010000
01000000
00000000
00010000
00100000
01000000
10000000
01000000
00000000
00100000
00001000
,
00000000
00010000
00001000
00010000
00000100
00001000
00000010
00000000
00010000
00000000
00001000
00000000
00001000
00000000
00010000
01000000
,
00000000
10000000
00000000
00100000
00010000
00000000
00001000
00000000
00000000
00000000
00000000
00000000
00000000
00000000
00000000
00000000
,
00000000
00000000
00000000
00000000
;
