
//----- song ID: perd -----//
#TITLE:perditus†paradisus;
#ARTIST:iconoclasm;
#BANNER:perditus paradisus.png;
#BACKGROUND:perditus paradisus-bg.png;
#CDTITLE:./CDTitles/bm IIDX 18 Resort Anthem.png;
#MUSIC:perditus paradisus.ogg;
#SAMPLESTART:30.698;
#SAMPLELENGTH:15;
#BPMS:0=172;
#NOTES:
     dance-single:
     :
     Beginner:
     4:
     :
0000
0000
0000
0000
,
0000
0000
0000
0000
,
0000
0000
0000
0000
,
0000
0000
0000
0000
,
0000
0000
0000
0000
,
0000
0000
0000
0000
,
0000
0000
0000
0000
,
0000
0000
0000
0000
,
0000
0000
0000
0000
,
0002
0000
0000
0000
,
0003
0000
0000
0000
,
0020
0000
0000
0000
,
0030
0000
0000
0000
,
0200
0000
0000
0000
,
0300
0000
0000
0000
,
2000
0000
0000
0000
,
3000
0000
0000
0000
,
2002
0000
0000
0000
,
3003
0000
0000
0000
,
0220
0000
0000
0000
,
0330
0000
0000
0000
,
0000
0000
0000
0000
,
0001
0000
0010
0000
,
0001
0001
0100
0000
,
0100
0000
0010
0000
,
1000
0000
0000
0000
,
1000
0000
0010
0000
,
1000
1000
0100
0000
,
0100
0000
0010
0000
,
0001
0000
0000
0000
,
0001
0010
0001
0000
,
0001
0001
0010
0000
,
0100
0000
0001
0000
,
0100
0000
0000
0000
,
1000
0010
1000
0000
,
1000
1000
0010
0000
,
0100
0000
1000
0000
,
0100
0000
0000
0000
,
0001
0000
0010
0000
,
0001
0001
0001
0000
,
0010
0000
0100
0000
,
0010
0000
0000
0000
,
1000
0000
0010
0000
,
1000
1000
1000
0000
,
0100
0000
0010
0000
,
0100
0000
0000
0000
,
1001
0000
0000
0000
,
0000
0000
0000
0000
,
1001
0000
0000
0000
,
0000
0000
0000
0000
,
0010
0000
0010
0000
,
0100
0000
0000
0000
,
0100
0000
0100
0000
,
0010
0000
0000
0000
,
1000
0000
1000
0000
,
0001
0000
0000
0000
,
0001
0000
0001
0000
,
1000
0000
0000
0000
,
1001
0000
0000
0000
,
0010
0000
0010
0000
,
1001
0000
0000
0000
,
0000
0000
0000
0000
,
1001
0000
0000
0000
,
0100
0000
0100
0000
,
1001
0000
0000
0000
,
0000
0000
0000
0000
,
1000
0000
1000
0000
,
0100
0000
0100
0000
,
0010
0000
0010
0000
,
0001
0000
0001
0000
,
1000
0000
1000
0000
,
0010
0000
0010
0000
,
0100
0000
0100
0000
,
0001
0000
0001
0000
,
1001
0000
0000
0000
,
0000
0000
0000
0000
,
0000
0000
0000
0000
,
0000
0000
0000
0000
,
0002
0000
0000
0000
,
0003
0000
0000
0000
,
2000
0000
0000
0000
,
3000
0000
0000
0000
,
1000
1000
0010
0000
,
1000
0000
0100
0000
,
0010
0010
0100
0000
,
0100
0000
0000
0000
,
0001
0001
0010
0000
,
0001
0000
0100
0000
,
0010
0010
0100
0000
,
0100
0000
0000
0000
,
1001
0000
0000
0000
,
0000
0000
0000
0000
;
#NOTES:
     dance-single:
     :
     Easy:
     8:
     :
0000
0000
0000
0000
,
0000
0000
0000
0000
,
0000
0000
0000
0000
,
0000
0000
0000
0000
,
0000
0000
0000
0000
,
0000
0000
0000
0000
,
0000
0000
0000
0000
,
0000
0000
0000
0000
,
0000
0000
0000
0000
,
1000
0010
1000
1000
,
0001
0100
0001
0001
,
0010
0100
0010
0001
,
1000
0010
0100
0010
,
2000
0010
3100
0000
,
0002
0010
0103
0000
,
2000
0100
3010
0000
,
0002
0100
0013
0000
,
1001
0000
0100
0010
,
1001
0000
0110
0000
,
1000
0001
1000
0000
0001
1000
0001
0000
,
2002
0000
0000
0000
,
3003
0000
0000
0000
,
1000
0010
1000
0010
,
0100
0001
0010
0010
,
0001
0010
0001
0010
,
0100
1000
0100
0100
,
1000
0010
0001
0010
,
1000
0100
0001
0100
,
1000
1000
0001
0001
,
0100
0000
0100
0000
0001
1000
0001
1000
,
0001
0100
0010
1000
,
1000
0010
0100
0001
,
1000
0100
0010
0001
,
0001
0010
0100
1000
,
0001
0010
1000
0010
,
0001
0100
1000
0100
,
0001
0010
0100
1000
,
2002
0000
0000
3003
,
1000
1000
1000
0000
1000
0000
0000
0000
,
0001
0001
0001
0000
0001
0000
0000
0000
,
0100
0100
0100
0000
0100
0000
0000
0000
,
0010
0010
0010
0000
0010
0000
0000
0000
,
1000
0100
1000
0000
1100
0000
0000
0000
,
0001
0010
0001
0000
0011
0000
0000
0000
,
1000
0010
1000
0000
1010
0000
0000
0000
,
0001
0100
0001
0000
0101
0000
0000
0000
,
2002
0000
0000
0000
,
3003
0000
0000
0000
,
1000
0001
1000
0001
,
0020
0000
0030
0000
,
0001
0100
0001
0000
,
0001
0010
0001
0000
,
1000
0100
1000
0000
,
1000
0010
1000
0000
,
0001
0010
0100
0000
,
1000
0010
0100
0000
,
0001
1000
0001
1000
,
1001
0000
0000
0000
0001
0001
0001
0000
,
1000
1000
0010
0100
,
0001
0001
0010
0100
,
1000
0001
0100
0010
,
1000
0000
0000
1000
0000
0000
1000
0000
,
0100
0010
1001
0000
,
0010
0100
1001
0000
,
0001
1000
0001
1000
,
0220
0000
0000
0330
,
1000
1000
1000
0000
,
0100
0100
0100
0000
,
0001
0001
0001
0000
,
0010
0010
0010
0000
,
1000
1000
1000
0000
,
0010
0010
0010
0000
,
0001
0001
0001
0000
,
0100
0100
0100
0000
,
2002
0000
0000
0000
,
0000
0000
0000
3003
,
0220
0000
0000
0000
,
0000
0000
0000
0330
,
0011
0000
0101
0000
,
1010
0000
1100
0000
,
1001
0000
0110
0000
,
1001
0000
0000
0000
,
1000
0011
0001
0100
,
0010
0101
0100
0010
,
1000
0110
1000
0100
,
0010
1001
0001
0001
,
0101
1010
0000
1000
,
1100
0011
0000
0001
,
0100
0010
1000
0000
0001
0100
0010
0000
,
1000
0001
1000
0001
1000
0000
0000
0000
,
1001
0000
0000
0000
,
0000
0000
0000
0000
;
#NOTES:
     dance-single:
     :
     Medium:
     14:
     :
0000
0000
0000
0000
,
0000
0000
0000
0000
,
0000
0000
0000
0000
,
0000
0000
0000
0000
,
0000
0000
0000
0000
,
0000
0000
0000
0000
,
0000
0000
0000
0000
,
0000
0000
0000
0000
,
0000
0000
0000
0000
,
0001
0010
0001
0000
1000
0100
1000
0000
,
0001
0100
0001
0000
1000
0010
1000
0000
,
0100
0010
0001
0000
0100
0010
1000
0000
,
0010
0100
0001
0000
0010
0100
1000
0000
,
2002
0000
0000
0003
,
0020
0000
0000
3030
,
0202
0000
0000
0300
,
0020
0000
0000
0033
,
2002
3003
0100
0010
,
0220
0000
0000
0330
,
1000
0100
1000
0100
1000
0100
1000
0100
,
0010
0000
0010
0000
0010
0001
0010
0001
,
0020
0100
0100
0130
,
1000
0000
0000
1000
0100
0000
0010
0000
0001
0000
0000
0001
0100
0000
0001
0000
,
0010
0000
0000
0010
0001
0000
0100
0000
0010
0000
0000
0000
0110
0000
0000
0000
,
1010
0000
0000
0010
1000
0000
0001
0000
0100
0000
0000
0100
0001
0000
0010
0000
,
0100
0000
0000
0100
1000
0000
0010
0000
0100
0000
0000
0000
0110
0000
0000
0000
,
0101
0000
0000
0001
1000
0000
0001
0000
0010
0000
0000
0010
0100
0000
1000
0000
,
0010
0000
0000
0010
0100
0000
0001
0000
0010
0000
0000
0000
0011
0000
0000
0000
,
1001
0000
0000
1000
0001
0000
0010
0000
1000
0000
0000
1000
0010
0000
0001
0000
,
1000
0100
1000
0100
1000
0010
1000
0000
,
0001
0100
0001
0100
0010
1000
0100
1000
,
0010
0100
0001
1000
0010
0100
0001
1000
,
0100
0010
0100
0010
0001
1000
0001
0100
,
0010
1000
0001
0100
0010
1000
0001
0000
,
1000
0010
1000
0100
1000
0010
0100
0001
,
0010
0100
1000
0010
0100
0001
1000
0100
,
0010
0001
0100
0001
0010
0001
1000
0100
,
0010
0001
0100
0010
1000
1000
1000
0000
,
0001
0000
0010
0001
0010
0000
0000
0000
0001
0000
0100
0001
0100
0000
0000
0000
,
0010
0000
1000
0010
1000
0000
0000
0000
0100
0000
1000
0100
1000
0000
0000
0000
,
1000
0000
0010
1000
0010
0000
0000
0000
1000
0000
0100
1000
0100
0000
0000
0000
,
0010
0000
0001
0010
0001
0000
0000
0000
0100
0000
0001
0100
0001
0000
0000
0000
,
0001
0000
0010
0100
0010
0000
0000
0000
0100
0000
1000
0010
1000
0000
0000
0000
,
0001
0000
1000
0100
1000
0000
0000
0000
0001
0000
0100
0010
0100
0000
0000
0000
,
0100
0000
0010
1000
0010
0000
0000
0000
1000
0000
0001
1000
0001
0000
0000
0000
,
1000
0000
0100
0000
0010
0000
0001
0000
0100
0010
0100
0010
0100
0000
0000
0000
,
0210
0001
0010
0001
,
0320
1000
0100
1000
,
0230
0301
0020
1030
,
1000
0100
0010
0000
0001
0100
0010
0000
,
1000
0100
1000
0100
0001
0100
1000
0000
,
0001
0100
0001
0100
1000
0100
0001
0000
,
1000
0010
1000
0010
0001
0010
1000
0000
,
0001
0010
0001
0010
1000
0010
0001
0000
,
1000
0100
0010
0100
1000
0010
0100
0000
,
0001
0100
0010
0100
0001
0010
0100
0000
,
1000
0100
0001
0000
1000
0010
0001
0000
,
2002
0000
0003
0000
0001
0001
3001
0000
,
0001
0100
0101
0000
1000
0100
0010
0100
,
1000
0001
0011
0000
0010
0001
0100
0010
,
1000
0100
1100
0000
0001
0100
1000
0100
,
0001
0010
0000
0001
0010
0000
0100
1000
0000
0100
1000
0000
0001
0000
1000
0000
,
0010
0000
0100
0000
0010
1000
0000
0002
0000
0000
1000
0000
1000
0000
0000
0000
,
0013
0000
0100
0000
0010
0001
0000
2000
0000
0000
0001
0000
0001
0000
0000
0000
,
3010
0000
1000
0000
0100
0010
0000
0200
0000
0000
0010
0000
0010
0000
0000
0000
,
1300
0100
1000
0100
0010
0001
0010
0000
,
0001
0000
0001
0100
0000
0100
0010
0000
0010
1000
0000
1000
,
0001
0000
0000
0000
0001
0000
0010
0000
0000
0000
0010
0000
0100
0000
0000
0000
0100
0000
1000
0000
0000
0001
0000
0000
,
1000
0000
1000
0100
0000
0100
0010
0000
0010
0001
0000
0001
,
0100
0000
0000
0000
0100
0000
0010
0000
0000
0000
0010
0000
1000
0000
0000
1000
0000
0000
0001
0000
0000
0001
0000
0000
,
0100
0000
0010
1000
0010
0000
1000
0000
0001
0000
0010
0001
0010
0000
0100
0000
,
1000
0000
0001
1000
0001
0000
0100
0000
0001
0000
0010
0100
0010
0000
0001
0000
,
1000
0000
0001
0100
0001
0000
0010
0000
0100
0000
1000
0010
1000
0000
0100
0000
,
0010
0000
0001
1000
0001
0000
0100
0000
0010
0000
1000
0000
0001
0000
1000
0000
,
2002
0000
0000
0000
,
0000
0000
0000
3003
,
0220
0000
0000
0000
,
0000
0000
0000
0330
,
1000
0100
0011
0000
0001
0100
1010
0000
,
0001
0010
1100
0000
1000
0010
0101
0000
,
0001
0010
0011
0000
1000
0010
1010
0000
,
0001
0100
0010
1000
2002
0000
3003
0000
,
1000
0000
0100
0010
0001
0000
0000
0000
0100
0000
0001
0000
0010
0000
0100
0000
,
1000
0000
0001
0010
0100
0000
0000
0000
1000
0000
0001
0000
0100
0000
0010
0000
,
1000
0000
0010
0100
0001
0000
0000
0000
0100
0000
0010
0000
1000
0000
0010
0000
,
0100
0000
0001
0010
0100
0000
0000
0000
1000
0000
1000
0000
0010
0000
0010
0000
,
0100
0001
0100
0001
0200
0000
0000
0000
0300
0000
0100
0000
0010
0000
1000
0000
,
0001
0010
0001
0010
0002
0000
0000
0000
0003
0000
0001
0000
0100
0000
0001
0000
,
1000
0010
1000
0010
0001
0010
1000
0001
,
1000
0100
0000
1000
0100
0000
0010
0001
0000
0010
0001
0000
1000
0000
0000
0000
,
1001
0000
0000
0000
,
0000
0000
0000
0000
;
#NOTES:
     dance-single:
     :
     Hard:
     17:
     :
0000
0000
0000
0000
,
0000
0000
0000
0000
,
0000
0000
0000
0000
,
0000
0000
0000
0000
,
0000
0000
0000
0000
,
0000
0000
0000
0000
,
0000
0000
0000
0000
,
0000
0000
0000
0000
,
0000
0000
0000
0000
,
2000
0100
0000
3100
0020
0001
0000
0031
,
0200
0010
0000
0310
2000
0001
0000
3001
,
0002
0010
0000
0013
0200
1000
0000
1300
,
0020
0100
0000
0130
0002
1000
0000
1000
,
0023
0001
0000
1000
0000
0031
0100
0010
,
0200
0001
0000
1000
0000
0301
1000
0100
,
0020
0001
0000
0100
0000
1000
0000
0100
,
0230
0010
0000
0001
0000
0010
0000
1300
,
2200
0000
0000
0300
0020
0030
0002
3003
,
0202
0000
0000
0300
0020
0000
0000
0033
,
1001
0000
1000
0001
1000
0001
1000
0001
1000
0001
1000
0001
1000
0001
1000
0001
,
2000
0000
0100
0000
0100
0100
0100
3100
,
1000
0000
0100
0000
0010
0000
0001
0000
0100
0010
0000
0010
0100
0001
0100
0000
,
0001
0010
0001
0010
0100
0010
0100
0000
1000
0010
1000
0010
0100
0010
0100
0000
,
0001
1000
0001
1000
0100
1000
0100
0000
0010
0001
0010
0001
1000
0001
1000
0000
,
0100
0010
0001
0010
0100
0010
0001
0000
1000
0010
0100
0010
1000
0010
0100
0000
,
0001
1000
0100
1000
0001
1000
0100
0000
1000
0001
0010
0001
1000
0001
0010
0000
,
1001
0000
0001
0100
0010
0000
0100
0010
1000
0000
0001
1000
0010
0000
0100
0000
,
1001
0000
1000
0100
0010
0000
0100
0010
0001
0000
1000
0001
0010
0000
0100
0000
,
1001
0000
1000
0010
0100
0000
0001
0000
1001
0000
0001
0010
0100
0000
1000
0000
,
0001
0000
1000
0100
1000
0000
0001
0100
0010
1000
0010
1000
0010
1000
0010
0000
,
1000
0100
0010
0001
0010
0000
0000
0000
0001
1000
0010
0100
0001
1000
0010
0000
,
0100
0001
0010
0000
0100
1000
0010
0000
1000
0001
0100
0010
1000
0001
0010
0000
,
0100
0010
0001
0010
0100
0000
0000
0000
1000
0001
0100
0010
0100
0001
1000
0000
,
0010
1000
0100
0000
0010
0001
0100
0000
0010
1000
0010
1000
0001
0100
0001
0000
,
0010
0100
1000
0010
1000
0000
0000
0000
0001
0100
0010
0100
0001
0010
0100
0000
,
1000
0001
0010
0000
0001
1000
0010
0000
0100
0010
0100
0010
1000
0001
1000
0000
,
0100
1000
0010
1000
0100
0000
0000
0000
1000
0001
0100
0000
0001
1000
0010
0000
,
0100
0001
0100
0001
0010
0100
0010
0100
1000
0001
1000
0001
1000
0001
1000
0000
,
0001
0100
0010
1000
0010
0000
0000
0000
1000
0100
1000
0001
0010
0000
0000
0000
,
0100
1000
0010
0100
0010
0000
0000
0000
1000
0010
0100
0001
1000
0000
0000
0000
,
0001
0010
0100
0010
0001
0000
0000
0000
0010
0001
1000
0100
0010
0000
0000
0000
,
0100
0010
0001
0100
0010
0000
0000
0000
1000
0100
0010
0001
0100
0000
0000
0000
,
0001
1000
0100
0010
0100
0000
0000
0000
0010
0001
1000
0010
0100
0000
0000
0000
,
0001
1000
0100
1000
0010
0000
0000
0000
1000
0010
1000
0001
0100
0000
0000
0000
,
0001
0100
0010
1000
0010
0000
0000
0000
1000
0001
0010
0001
0010
0000
0000
0000
,
0001
0100
0001
0000
1000
0100
1000
0000
0010
0100
0010
0100
0010
0100
0010
0100
,
0010
0000
1000
0000
0010
0000
0100
0000
0001
0000
0010
0001
0010
0000
0100
1000
,
0100
1000
0001
0100
0010
1000
0001
0100
,
0010
1000
0100
0010
0001
1000
0100
0010
,
0002
0000
0100
0000
1000
1000
1003
0000
,
0001
0010
0001
0010
0001
0000
0000
0000
1000
0010
1000
0010
1000
0000
0000
0000
,
0001
0100
0001
0100
0001
1000
0100
1000
0100
0000
0010
0000
0110
0000
0000
0000
,
1000
0100
1000
0100
1000
0000
0000
0000
0001
0100
0001
0100
0001
0000
0000
0000
,
1000
0010
1000
0010
1000
0001
0010
0001
0010
0000
0100
0000
0110
0000
0000
0000
,
0001
0010
0100
0010
0001
0000
0000
0000
1000
0100
0010
0100
1000
0000
0000
0000
,
0001
0100
0010
1000
0001
0100
0010
1000
0001
0000
1000
0000
1001
0000
0000
0000
,
1000
0000
0100
0000
0010
0000
0001
0000
0100
0001
0100
0001
1000
0010
1000
0010
,
2000
0000
0000
0000
0001
0001
3001
0000
,
1000
0100
0010
1000
0010
0000
0000
0000
0001
0000
1000
0000
0010
0000
0100
0000
,
0001
0100
0010
0001
0010
0000
0000
0000
1000
0000
0001
0000
0100
0000
0001
0000
,
0010
0100
0001
0100
0010
0000
0000
0000
0001
0000
1000
0000
0001
0000
0100
0000
,
0010
1000
0000
1000
0100
0000
0100
0010
0000
0010
0001
0000
1000
0001
1000
0000
,
0010
1000
0100
1000
0010
0000
0000
0000
0100
0001
0000
0001
0000
0001
0000
0001
,
0100
0001
0010
0001
0100
0000
0000
0000
0010
1000
0000
1000
0000
1000
0000
1000
,
0010
0100
0010
1000
0001
0000
0000
0000
0010
0100
0000
0100
0000
0100
0000
0100
,
1000
0100
0001
0100
1000
1000
1000
1000
,
0001
0100
0010
0100
0010
1000
0001
0010
0100
0010
0100
1000
,
0001
0100
0010
0001
0010
0100
0010
0100
1000
0100
0010
1000
,
0001
0010
0100
0010
0100
1000
0001
0100
0010
0100
0010
1000
,
0001
0010
0100
0001
0100
0010
0100
0010
1000
0010
0100
1000
,
0001
0000
0010
0100
1000
0000
0010
0100
0001
0000
0100
0010
1000
0000
0100
0010
,
0001
0000
1000
0100
0001
0000
0100
1000
0010
0000
0001
0010
1000
0000
0001
0000
,
1000
0000
0100
0010
0001
0000
0100
0010
1000
0000
0010
0100
0001
0000
0010
0100
,
1000
0000
0001
0010
1000
0000
0010
0001
0100
0000
1000
0100
0001
0000
1000
0000
,
2002
0000
0000
0003
,
0020
0000
0000
3000
,
0200
0000
0000
0030
,
0002
0000
0000
0303
,
1000
0100
1000
0100
1000
0000
0000
0000
0100
0010
0100
0010
0100
0000
0000
0000
,
0010
0001
0010
0001
0010
0000
0000
0000
0001
1000
0001
1000
0001
0000
0000
0000
,
0010
0001
0100
0001
0100
0000
0000
0000
0010
1000
0100
1000
0100
0000
0000
0000
,
2002
0000
0000
3003
,
0001
0100
0010
1000
0010
0000
0000
0000
1000
0100
0010
0001
0100
0010
1000
0000
,
0001
0010
0100
1000
0100
0000
0000
0000
1000
0001
0100
0010
1000
0010
0100
0000
,
0001
0010
0100
0010
0001
0000
0000
0000
0100
0010
1000
0100
0010
0001
1000
0000
,
0010
0100
0010
0000
1000
0001
1000
0000
0001
0010
0100
1000
0100
0010
0001
0000
,
0100
0010
1000
0100
0010
0000
0000
0000
0001
0100
0010
1000
0010
0100
0001
0000
,
0010
0001
1000
0001
0100
0000
0000
0000
0001
0100
0010
1000
0010
0100
0001
0000
,
1000
1000
0100
0100
0010
0010
0001
0001
,
1000
0100
1000
0001
0100
0001
1000
0010
1000
0001
0010
0001
1000
0100
0010
0001
,
1000
0000
0000
0000
,
0000
0000
0000
0000
;
#NOTES:
     dance-double:
     :
     Easy:
     8:
     :
00000000
00000000
00000000
00000000
,
00000000
00000000
00000000
00000000
,
00000000
00000000
00000000
00000000
,
00000000
00000000
00000000
00000000
,
00000000
00000000
00000000
00000000
,
00000000
00000000
00000000
00000000
,
00000000
00000000
00000000
00000000
,
00000000
00000000
00000000
00000000
,
00000000
00000000
00000000
00000000
,
00000001
00000100
00000001
00000100
,
00000010
00001000
00000010
00000010
,
00010000
00001000
00010000
00001000
,
00100000
00010000
01000000
00100000
,
20000000
01000000
31000000
00000000
,
00200000
00010000
00310000
00000000
,
00002000
00010000
00013000
00000000
,
00000200
00001000
00001300
00000000
,
00000110
00000000
00001000
00000001
,
00001001
00000000
00000110
00000000
,
00000001
00000100
00000001
00000000
00001000
00000010
00001000
00000000
,
00000020
00000000
00000000
00000000
,
00000030
00000000
00000000
00000000
,
00000001
00000100
00000001
00000010
,
00001000
00010000
00001000
00001000
,
00010000
00100000
01000000
00100000
,
00010000
00001000
00010000
00010000
,
01000000
10000000
00100000
01000000
,
00010000
00100000
00001000
00001000
,
00010000
00001000
00000010
00000001
,
00000100
00000001
00000100
00000000
00000010
00001000
00000010
00000000
,
00001000
00000100
00000001
00000100
,
00001000
00000010
00000100
00001000
,
00010000
00100000
01000000
00100000
,
00010000
00001000
00010000
01000000
,
10000000
01000000
00100000
00010000
,
01000000
00100000
00010000
00100000
,
10000000
00010000
00100000
00001000
,
00022000
00000000
00000000
00033000
,
00010000
00001000
00010000
00000000
00000010
00000000
00001000
00000000
,
00000100
00000010
00000100
00000000
00000010
00000000
00000001
00000000
,
00001000
00000100
00001000
00000000
00000010
00000000
00000100
00000000
,
00001000
00010000
00001000
00000000
01000000
00000000
00010000
00000000
,
00100000
01000000
00100000
00000000
00010000
00000000
10000000
00000000
,
00010000
00100000
00010000
00000000
10000000
00000000
01000000
00000000
,
00010000
00001000
00010000
00000000
00000010
00000000
00001000
00000000
,
00000001
00000100
00000001
00000000
00001000
00000100
00001000
00000000
,
00002002
00000000
00000000
00000000
,
00003003
00000000
00000000
00000000
,
00010000
00001000
00010000
00001000
,
00022000
00000000
00033000
00000000
,
00100000
00010000
01000000
00000000
,
00100000
10000000
01000000
00000000
,
00100000
00001000
00010000
00000000
,
00001000
00010000
00000010
00000000
,
00000010
00001000
00000100
00000000
,
00000010
00000001
00000100
00000000
,
00000010
00010000
00001000
00010000
,
00011000
00000000
00000000
00000000
00001000
00001000
00001000
00000000
,
00010000
00001000
01000000
00010000
,
00100000
01000000
10000000
00100000
,
00010000
00001000
01000000
00010000
,
00100000
00000000
00000000
00001000
00000000
00000000
00010000
00000000
,
00000100
00000100
00001100
00000000
,
00000010
00000010
00000011
00000000
,
00000001
00000100
00000001
00000100
,
00002000
00000000
00000000
00003000
,
00001000
00001000
00001000
00000000
,
00010000
00010000
00010000
00000000
,
00100000
00100000
00100000
00000000
,
01000000
01000000
01000000
00000000
,
00001000
00001000
00001000
00000000
,
00010000
00010000
00010000
00000000
,
00000100
00000100
00000100
00000000
,
00000010
00000010
00000010
00000000
,
00002002
00000000
00000000
00000000
,
00000000
00000000
00000000
00003003
,
00000220
00000000
00000000
00000000
,
00000000
00000000
00000000
00000330
,
00000101
00000000
00001010
00000000
,
00011000
00000000
01010000
00000000
,
10100000
00000000
01100000
00000000
,
10010000
00000000
00000000
00000000
,
10000000
01100000
00010000
01000000
,
00001000
00011000
00000100
00001000
,
00000010
00000101
00000001
00000010
,
00000100
00011000
00010000
00010000
,
00001000
00000000
01010000
00000000
00010000
10000000
00010000
00000000
,
10000000
00000000
01100000
00000000
00010000
00100000
00010000
00000000
,
10000000
01000000
00100000
00000000
00001000
00010000
00000100
00000000
,
00001000
00000001
00001000
00000001
00001000
00000000
00000000
00000000
,
00001001
00000000
00000000
00000000
,
00000000
00000000
00000000
00000000
;
#NOTES:
     dance-double:
     :
     Medium:
     14:
     :
00000000
00000000
00000000
00000000
,
00000000
00000000
00000000
00000000
,
00000000
00000000
00000000
00000000
,
00000000
00000000
00000000
00000000
,
00000000
00000000
00000000
00000000
,
00000000
00000000
00000000
00000000
,
00000000
00000000
00000000
00000000
,
00000000
00000000
00000000
00000000
,
00000000
00000000
00000000
00000000
,
00000001
00000100
00000001
00000000
00000100
00000010
00000100
00000000
,
00000010
00001000
00000010
00000000
00010000
00001000
00010000
00000000
,
00001000
01000000
00001000
00000000
01000000
00010000
01000000
00000000
,
00010000
00100000
00010000
00000000
10000000
01000000
10000000
00000000
,
20020000
00000000
00000000
00030000
,
00200000
00000000
00000000
30300000
,
02020000
00000000
00000000
03000000
,
00200000
00000000
00000000
00330000
,
00022000
00033000
00010000
00000010
,
00002020
00000000
00000000
00003030
,
00001000
00000100
00001000
00000100
00001000
00000100
00001000
00000100
,
00000010
00000000
00000010
00000000
00000010
00000001
00000010
00000001
,
00000020
00000100
00000100
00000130
,
00001000
00000000
00000000
00001000
00000100
00000000
00000010
00000000
00000001
00000000
00000000
00000001
00000100
00000000
00000010
00000000
,
00001000
00000000
00000000
00001000
00000100
00000000
00010000
00000000
00001000
00000000
00000000
00000000
00011000
00000000
00000000
00000000
,
01001000
00000000
00000000
01000000
00010000
00000000
00100000
00000000
00010000
00000000
00000000
00010000
10000000
00000000
01000000
00000000
,
00100000
00000000
00000000
00100000
00010000
00000000
01000000
00000000
00001000
00000000
00000000
00000000
01001000
00000000
00000000
00000000
,
00011000
00000000
00000000
00010000
00000100
00000000
00001000
00000000
00000100
00000000
00000000
00000100
00000010
00000000
00000001
00000000
,
00000100
00000000
00000000
00000100
00000010
00000000
00001000
00000000
00000001
00000000
00000000
00000000
00001001
00000000
00000000
00000000
,
00000101
00000000
00000000
00000100
00000010
00000000
00001000
00000000
00000100
00000000
00000000
00000100
00010000
00000000
00001000
00000000
,
00010000
01000000
00010000
01000000
10000000
00100000
10000000
00000000
,
00100000
10000000
00100000
10000000
01000000
00100000
00010000
01000000
,
00100000
00010000
00001000
00010000
00001000
00000100
00000010
00001000
,
00000100
00000010
00000100
00000010
00000001
00001000
00000001
00000010
,
00000100
00001000
00000010
00000100
00001000
00010000
00100000
00000000
,
01000000
00010000
01000000
00010000
00100000
00010000
10000000
01000000
,
00100000
00010000
01000000
00100000
00010000
00001000
00000100
00000000
,
00000010
00001000
00000100
00001000
00000010
00000100
00000001
00001000
,
00000100
00000010
00000001
00000100
00000010
00000010
00000010
00000000
,
00000100
00000000
00000001
00000100
00000001
00000000
00000000
00000000
00001000
00000000
00000100
00001000
00000100
00000000
00000000
00000000
,
00010000
00000000
00001000
00010000
00001000
00000000
00000000
00000000
01000000
00000000
00010000
01000000
00010000
00000000
00000000
00000000
,
10000000
00000000
00100000
10000000
00100000
00000000
00000000
00000000
10000000
00000000
01000000
00100000
01000000
00000000
00000000
00000000
,
00100000
00000000
00001000
00010000
00001000
00000000
00000000
00000000
00010000
00000000
00000010
00001000
00000010
00000000
00000000
00000000
,
00000100
00000000
00000001
00000010
00000001
00000000
00000000
00000000
00000100
00000000
00000010
00001000
00000010
00000000
00000000
00000000
,
00010000
00000000
00000100
00010000
00000100
00000000
00000000
00000000
00001000
00000000
00000010
00000100
00000010
00000000
00000000
00000000
,
00010000
00000000
00001000
00100000
00001000
00000000
00000000
00000000
01000000
00000000
00010000
00100000
00010000
00000000
00000000
00000000
,
10000000
01000000
00100000
00010000
00001000
00000100
00000010
00000001
,
00002001
00000001
00000010
00000010
,
00023000
01000000
10000000
10030000
,
20000000
32000000
03200000
00320000
,
00031000
00000100
00001000
00000000
00000001
00000010
00000001
00000000
,
00001000
00000010
00000100
00000010
00001000
00000100
00010000
00000000
,
00001000
01000000
00010000
01000000
00100000
01000000
00010000
00000000
,
00100000
01000000
00100000
01000000
00010000
00001000
00010000
00000000
,
00001000
00000100
00000010
00000100
00001000
00000100
00000010
00000000
,
00010000
00000100
00001000
00000100
00000010
00000100
00001000
00000000
,
00000010
00000100
00001000
00010000
00100000
01000000
00010000
00000000
,
10000000
01000000
00010000
00000000
00001000
00000010
00000001
00000000
,
00002002
00000000
00000003
00000000
00000001
00000001
00003001
00000000
,
00000010
00000001
00000011
00000000
00000010
00000001
00000100
00000010
,
00001000
00000100
00001100
00000000
00001000
00000100
00010000
00001000
,
00100000
00010000
00110000
00000000
00100000
00010000
01000000
00100000
,
10000000
01000000
00000000
10000000
01000000
00000000
00100000
00010000
00000000
00100000
00010000
00000000
10000000
00000000
00010000
00000000
,
10000000
00000000
00100000
00000000
00010000
00001000
00000000
00002000
00000000
00000000
00010000
00000000
00013000
00000000
00000000
00000000
,
00010000
00000000
00001000
00000000
00000010
00000001
00000000
00002000
00000000
00000000
00000001
00000000
00003001
00000000
00000000
00000000
,
00000001
00000000
00000100
00000000
00001000
00010000
00000000
00020000
00000000
00000000
00001000
00000000
00031000
00000000
00000000
00000000
,
00001000
00010000
00100000
01000000
00001000
00010000
00100000
01000000
,
00010000
00000000
00010000
10000000
00000000
10000000
01000000
00000000
01000000
00010000
00000000
00010000
,
00001000
00000000
00000000
00000000
00001000
00000000
00000010
00000000
00000000
00000000
00000010
00000000
00000001
00000000
00000000
00000000
00000001
00000000
00000100
00000000
00000000
00000010
00000000
00000000
,
00000100
00000000
00000100
00000001
00000000
00000001
00000010
00000000
00000010
00001000
00000000
00001000
,
00010000
00000000
00000000
00000000
00010000
00000000
01000000
00000000
00000000
00000000
01000000
00000000
10000000
00000000
00000000
10000000
00000000
00000000
00010000
00000000
00000000
00010000
00000000
00000000
,
10000000
00000000
00100000
01000000
00100000
00000000
00010000
00000000
00001000
00000000
00000010
00000100
00000010
00000000
00000001
00000000
,
00001000
00000000
00000010
00001000
00000100
00000000
00000010
00000000
00000001
00000000
00001000
00000001
00001000
00000000
00000000
00000000
,
00000001
00000000
00000100
00000010
00000100
00000000
00001000
00000000
00010000
00000000
01000000
00100000
01000000
00000000
10000000
00000000
,
00010000
00000000
01000000
00010000
00100000
00000000
01000000
00000000
10000000
00000000
00010000
10000000
00010000
00000000
00000000
00000000
,
20020000
00000000
00000000
00000000
,
00000000
00000000
00000000
30030000
,
02200000
00000000
00000000
00000000
,
00000000
00000000
00000000
03300000
,
10000000
01000000
00010000
00000000
01000000
00010000
00001000
00000000
,
00010000
00001000
00000010
00000000
00001000
00000010
00000001
00000000
,
00000001
00000100
00001000
00000000
00000100
00001000
00010000
00000000
,
00001000
00010000
00100000
10000000
00020000
00000000
00030000
00000000
,
10000000
00000000
01000000
00100000
00010000
00000000
00000000
00000000
10000000
00000000
01000000
00000000
00010000
00000000
00001000
00000000
,
00000010
00000000
00000001
00000010
00000100
00000000
00000000
00000000
00001000
00000000
00000001
00000000
00000100
00000000
00000010
00000000
,
00001000
00000000
00000100
00001000
00000010
00000000
00000000
00000000
00000100
00000000
00001000
00000000
00010000
00000000
00100000
00000000
,
01000000
00000000
00010000
00100000
01000000
00000000
00000000
00000000
10000000
00000000
10000000
00000000
00010000
00000000
00010000
00000000
,
00100000
01000000
00100000
01000000
00200000
00000000
00000000
00000000
00300000
00000000
00100000
00000000
00001000
00000000
00010000
00000000
,
00000010
00000100
00000010
00000100
00000020
00000000
00000000
00000000
00000030
00000000
00000010
00000000
00010000
00000000
00001000
00000000
,
00100000
00010000
01000000
00010000
00100000
01000000
10000000
00100000
,
10000000
01000000
00000000
10000000
01000000
00000000
00100000
00010000
00000000
00100000
00001000
00000000
00010000
00000000
00000000
00000000
,
00011000
00000000
00000000
00000000
,
00000000
00000000
00000000
00000000
;
#NOTES:
     dance-double:
     :
     Hard:
     17:
     :
00000000
00000000
00000000
00000000
,
00000000
00000000
00000000
00000000
,
00000000
00000000
00000000
00000000
,
00000000
00000000
00000000
00000000
,
00000000
00000000
00000000
00000000
,
00000000
00000000
00000000
00000000
,
00000000
00000000
00000000
00000000
,
00000000
00000000
00000000
00000000
,
00000000
00000000
00000000
00000000
,
00000002
00000100
00000000
00000103
00000020
00001000
00000000
00001030
,
00000200
00010000
00000000
00010300
00002000
00100000
00000000
00103000
,
00020000
01000000
00000000
01030000
00200000
10000000
00000000
10300000
,
02000000
00100000
00000000
03100000
00020000
10000000
00000000
10030000
,
02000000
10000000
00000000
00010000
00000000
13000000
01000000
00100000
,
00002000
00010000
00000000
01000000
00000000
00013000
00000100
00001000
,
00000020
00000100
00000000
00000001
00000000
00000100
00000000
00001000
,
00002030
00000001
00000000
00000010
00000000
00000100
00000000
00003010
,
00000220
00000000
00000000
00000030
00002000
00000300
00013000
00000000
,
02200000
00000000
00000000
03000000
20000000
00000000
00000000
30300000
,
10010000
00000000
10000000
00010000
10000000
00010000
10000000
00010000
10000000
00010000
10000000
00010000
10000000
00010000
10000000
00010000
,
20000000
00000000
01000000
00000000
01000000
01000000
01000000
31000000
,
10000000
00000000
01000000
00000000
00100000
00000000
00010000
00000000
01000000
00010000
00000000
00010000
00100000
00000000
00000000
00000000
,
00110000
00000000
00010000
00100000
01000000
00000000
00100000
00001000
00010000
00000000
00001000
00010000
00000010
00000000
00001000
00000100
,
00000010
00000000
00000001
00000100
00000010
00000000
00001000
00000010
00000100
00000000
00000001
00001000
00000001
00000000
00000100
00000010
,
00001000
00000000
00000100
00000010
00001000
00000000
00010000
00001000
00010000
00000000
00100000
01000000
00010000
00000000
00100000
01000000
,
10000000
00000000
01000000
00100000
00010000
00000000
10000000
01000000
00100000
00000000
00001000
00010000
00000100
00000000
00000010
00000000
,
00000110
00000000
00001000
00000100
00000010
00000000
00000001
00000100
00000010
00000000
00001000
00000010
00010000
00000000
00001000
00000010
,
00000100
00000000
00010000
00001000
00010000
00000000
01000000
00100000
00010000
00000000
01000000
00100000
00010000
00000000
00100000
10000000
,
00010000
00000000
10000000
01000000
00100000
00000000
01000000
00010000
00001000
00000000
00000010
00000001
00000010
00000000
00000001
00000100
,
00000010
00000000
00001000
00000001
00000100
00000000
00001000
00010000
00100000
10000000
00100000
10000000
00100000
10000000
00100000
00000000
,
10000000
01000000
10000000
01000000
00100000
00000000
00000000
00000000
00010000
01000000
00010000
01000000
00010000
00100000
00010000
00000000
,
00100000
00001000
00010000
00000000
00000010
00010000
00001000
00000000
00000010
00000100
00000010
00000100
00001000
00000100
00001000
00000000
,
00000001
00000100
00000001
00000100
00000010
00000000
00000000
00000000
00001000
00000100
00001000
00000100
00010000
00000100
00010000
00000000
,
00001000
00100000
00010000
00000000
01000000
00010000
00100000
00000000
01000000
10000000
01000000
10000000
00100000
10000000
00100000
00000000
,
01000000
00010000
10000000
00010000
01000000
00000000
00000000
00000000
00100000
00010000
00001000
00000000
00010000
00001000
00000100
00000000
,
00000010
00001000
00000100
00000000
00000010
00000001
00000100
00000000
00000001
00001000
00000010
00001000
00000001
00001000
00000010
00000000
,
00000100
00000010
00001000
00000010
00000100
00000000
00000000
00000000
00000001
00000010
00000001
00000000
00001000
00000100
00000010
00000000
,
00000001
00000000
00000010
00000000
00001000
00000000
00010000
00000000
01000000
00100000
01000000
00100000
01000000
00100000
01000000
00000000
,
10000000
01000000
00000000
00100000
00010000
00000000
00000000
00000000
00001000
00000100
00000000
00000010
00000001
00000000
00000000
00000000
,
00000001
00000100
00000000
00000010
00001000
00000000
00000000
00000000
00010000
01000000
00000000
00100000
10000000
00000000
00000000
00000000
,
10000000
00100000
00000000
01000000
00010000
00000000
00000000
00000000
00001000
00000010
00000000
00000100
00000001
00000000
00000000
00000000
,
00000001
00000010
00000000
00000100
00001000
00000000
00000000
00000000
00010000
00100000
00000000
01000000
10000000
00000000
00000000
00000000
,
10000000
01000000
00000000
00010000
00000100
00000000
00000000
00000000
00000010
00000001
00000000
00001000
00000001
00000000
00000000
00000000
,
00000001
00000100
00000000
00001000
01000000
00000000
00000000
00000000
00100000
10000000
00000000
00010000
10000000
00000000
00000000
00000000
,
10000000
00010000
00000000
00010000
00001000
00000000
00000000
00000000
00010000
00001000
00000000
00001000
00000001
00000000
00000000
00000000
,
00000001
00000010
00000001
00000000
00001000
00000010
00001000
00000000
00000010
00000100
00000010
00000100
00000010
00000100
00000010
00000100
,
00000010
00000000
00001000
00000000
00000100
00000000
00000001
00000000
00000100
00000000
00001000
00000010
00001000
00000000
00000010
00010000
,
00000010
00010000
00001000
00010000
00000010
00010000
00001000
00010000
,
00100000
01000000
00001000
01000000
00100000
01000000
00001000
01000000
,
00020000
10000000
01000000
10030000
,
10000000
01000000
10000000
01000000
10000000
00000000
00000000
00000000
00100000
01000000
00100000
01000000
00100000
00000000
00000000
00000000
,
01000000
00010000
01000000
00000000
00010000
00100000
00010000
00000000
00100000
00000000
00001000
00000000
00011000
00000000
00000000
00000000
,
00010000
00001000
00010000
00001000
00010000
00000000
00000000
00000000
00000100
00001000
00000100
00001000
00000100
00000000
00000000
00000000
,
00000010
00000001
00000010
00000000
00000001
00000100
00000001
00000000
00000010
00000000
00000001
00000000
00001001
00000000
00000000
00000000
,
00000001
00000100
00000001
00000100
00000010
00000000
00000000
00000000
00000100
00000010
00000100
00000010
00001000
00000000
00000000
00000000
,
00000100
00001000
00000100
00000000
00010000
00001000
00010000
00000000
00001000
00000000
00010000
00000000
00011000
00000000
00000000
00000000
,
00001000
00000000
00010000
00000000
01000000
00000000
10000000
00000000
00010000
00100000
00010000
00100000
00010000
10000000
00010000
10000000
,
00020000
00000000
00000000
00000000
10000000
10000000
10030000
00000000
,
10000000
01000000
00100000
00010000
00100000
00000000
00000000
00000000
01000000
00000000
00010000
00000000
00001000
00000000
00000010
00000000
,
00000001
00000100
00000010
00000100
00000001
00000000
00000000
00000000
00000010
00000000
00000100
00000000
00010000
00000000
00001000
00000000
,
00010000
00000100
00001000
00000100
00010000
00000000
00000000
00000000
00001000
00000000
00010000
00000000
01000000
00000000
10000000
00000000
,
00100000
00010000
00000000
00010000
00001000
00000000
00001000
00000100
00000000
00000100
00000001
00000000
00000010
00000100
00000010
00000000
,
00000001
00001000
00000001
00000000
00000100
00000010
00000000
00000010
00000000
00001000
00000000
00000100
00000000
00010000
00000000
00001000
,
00100000
00010000
00100000
00000000
01000000
10000000
00000000
10000000
00000000
00100000
00000000
01000000
00000000
00100000
00000000
00010000
,
00001000
00010000
00001000
00000000
00000100
00000010
00000000
00000010
00000000
00001000
00000000
00000001
00000000
00000100
00000000
00000001
,
00000010
00000100
00010000
00001000
00000100
00000010
00010000
00001000
,
00100000
00010000
00100000
00010000
00100000
00010000
10000000
01000000
00100000
00010000
01000000
00100000
,
10000000
00100000
10000000
00100000
10000000
00100000
01000000
00010000
00100000
00001000
00010000
00000100
,
00001000
00000010
00001000
00000010
00001000
00000010
00000100
00000001
00000010
00000100
00001000
00000010
,
00000100
00000001
00000100
00000001
00000100
00000001
00000010
00000100
00001000
00000010
00010000
00001000
,
00010000
00000000
00001000
00100000
00001000
00000000
01000000
00010000
01000000
00000000
00100000
10000000
00100000
00000000
01000000
00000000
,
00010000
00000000
10000000
01000000
10000000
00000000
00010000
00100000
00010000
00000000
00100000
00001000
00100000
00000000
00001000
00000000
,
00010000
00000000
00000100
00001000
00000010
00000000
00000100
00000001
00001000
00000000
00000001
00000010
00000100
00000000
00001000
00000000
,
00000010
00000000
00000100
00001000
00010000
00000000
00001000
00010000
00100000
00000000
01000000
00100000
10000000
00000000
00010000
00000000
,
20020000
00000000
00000000
30030000
,
02200000
00000000
00000000
03300000
,
00022000
00000000
00000000
00033000
,
00000220
00000000
00000000
00000330
,
00000001
00000000
00000001
00000100
00000001
00000000
00000000
00000000
00001000
00000000
00001000
00000100
00001000
00000000
00000000
00000000
,
00000010
00000000
00000010
00010000
00000010
00000000
00000000
00000000
00010000
00000000
00010000
00001000
00010000
00000000
00000000
00000000
,
00001000
00000000
01000000
00010000
00100000
00000000
00000000
00000000
01000000
00000000
00100000
00010000
01000000
00000000
00000000
00000000
,
20020000
00000000
00000000
30030000
,
10000000
00100000
10000000
00100000
01000000
00000000
00000000
00000000
00010000
00100000
00010000
00000000
01000000
00100000
00010000
00000000
,
00001000
00010000
00001000
00010000
00001000
00000000
00000000
00000000
00000100
00000010
00001000
00000000
00000100
00000010
00000001
00000000
,
00000010
00000100
00001000
00000100
00001000
00000000
00000000
00000000
00000001
00001000
00000100
00000000
00000010
00000001
00001000
00000000
,
00000010
00000100
00000010
00001000
00000010
00000000
00010000
00000000
00001000
01000000
00010000
01000000
00001000
00100000
00010000
00000000
,
01000000
00010000
00100000
01000000
10000000
00000000
00000000
00000000
01000000
00100000
00010000
00100000
00001000
00010000
00001000
00000000
,
00000010
00000100
00000010
00000001
00000010
00000000
00000000
00000000
00000001
00000100
00000010
00001000
00000010
00010000
00001000
00000000
,
00100000
00100000
00010000
00010000
10000000
10000000
01000000
01000000
,
00100000
00001000
00100000
00001000
00010000
00001000
00010000
00000010
00010000
00000100
00001000
00000100
00000010
00000001
00000100
00000010
,
00001000
00000000
00000000
00000000
,
00000000
00000000
00000000
00000000
;
