
//----- song ID: meda -----//
#TITLE:memory//DATAMOSHER;
#TITLETRANSLIT:memory DATAMOSHER;
#ARTIST:SYSTEM VALKYRIE\:type-overdrive;
#BANNER:memory DATAMOSHER.png;
#BACKGROUND:memory DATAMOSHER-bg.png;
#CDTITLE:./CDTitles/DDR A3.png;
#MUSIC:memory DATAMOSHER.ogg;
#SAMPLESTART:76.175;
#SAMPLELENGTH:15;
#BPMS:0=230,116=460,308=230,372=115,380=460,572=115,576=230;
#BGSTAGE:31;
#NOTES:
     dance-single:
     :
     Beginner:
     6:
     :
0000
0000
0000
0000
,
0000
0000
0000
0000
,
0000
0000
0000
0000
,
0000
0000
0000
0000
,
0000
0000
0000
0000
,
0001
0000
0000
0000
,
0010
0000
0000
0000
,
0001
0000
0001
0000
,
0001
0000
0000
0000
,
1000
0000
0000
0000
,
0010
0000
0000
0000
,
1000
0000
1000
0000
,
1000
0000
0000
0000
,
0010
0000
0000
0000
,
0100
0000
0000
0000
,
0010
0000
0010
0000
,
0010
0000
0000
0000
,
0100
0000
0000
0000
,
0010
0000
0000
0000
,
1000
0000
0001
0000
,
1001
0000
0000
0000
,
0010
0000
1000
0000
,
0010
0000
1000
0000
,
0001
0000
0100
0000
,
0001
0001
0001
0000
,
0010
0000
0001
0000
,
0010
0000
0001
0000
,
1000
0000
0100
0000
,
1000
1000
1000
0000
,
1001
0000
0000
0000
,
0000
0000
0000
0000
,
1001
0000
0000
0000
,
0000
0000
0000
0000
,
0010
0000
0000
0000
,
1000
0000
0000
0000
,
0100
0000
0000
0000
,
0010
0000
0000
0000
,
1001
0000
0000
0000
,
0000
0000
0000
0000
,
1001
0000
0000
0000
,
0000
0000
0000
0000
,
0010
0000
0000
0000
,
0001
0000
0000
0000
,
0100
0000
0000
0000
,
0010
0000
0000
0000
,
0110
0000
0000
0000
,
0000
0000
0000
0000
,
0110
0000
0000
0000
,
0000
0000
0000
0000
,
1000
0000
0000
0000
,
0001
0000
0000
0000
,
1000
0000
0000
0000
,
0001
0000
0000
0000
,
0110
0000
0000
0000
,
0000
0000
0000
0000
,
0110
0000
0000
0000
,
0000
0000
0000
0000
,
0001
0000
0000
0000
,
1000
0000
0000
0000
,
0001
0000
0000
0000
,
1000
0000
0000
0000
,
0001
0000
0000
0000
,
0100
0000
0000
0000
,
0010
0000
0000
0000
,
1000
0000
0000
0000
,
0100
0000
0000
0000
,
0001
0000
0000
0000
,
0100
0000
0100
0000
,
0100
0000
0000
0000
,
1000
0000
0000
0000
,
0010
0000
0000
0000
,
0100
0000
0000
0000
,
0001
0000
0000
0000
,
0010
0000
0000
0000
,
1000
0000
0000
0000
,
0010
0000
0010
0000
,
0010
0000
0000
0000
,
0001
0000
0010
0000
,
0001
0000
0100
0000
,
0010
0000
1000
0000
,
0100
0000
0100
0000
,
0010
0000
0001
0000
,
1000
0000
0010
0000
,
1000
0000
0001
0000
,
0100
0000
0100
0000
,
1001
0000
0000
0000
,
1001
0000
0000
0000
,
0010
0000
0100
0000
,
0010
0000
0100
0000
,
0110
0000
0000
0000
,
0110
0000
0000
0000
,
1000
0000
0001
0000
,
1000
0000
0001
0000
,
1001
0000
0000
0000
,
0010
0010
0010
0000
,
0010
0000
0000
0000
,
1000
0000
0000
0000
,
0001
0000
0000
0000
,
0100
0000
0000
0000
,
0001
0000
0000
0000
,
0010
0000
0000
0000
,
0100
0000
0000
0000
,
1000
0000
0000
0000
,
1001
0000
0000
0000
,
0000
0000
0000
0000
,
0110
0000
0000
0000
,
0000
0000
0000
0000
,
0001
0000
0001
0000
,
0001
0000
0000
0000
,
1000
0000
1000
0000
,
1000
0000
0000
0000
,
0100
0000
0000
0000
,
1000
0000
0000
0000
,
0001
0000
0000
0000
,
0010
0000
0000
0000
,
0001
0000
0000
0000
,
1000
0000
0000
0000
,
0100
0000
0000
0000
,
0010
0000
0000
0000
,
0110
0000
0000
0000
,
0000
0000
0000
0000
,
1001
0000
0000
0000
,
0000
0000
0000
0000
,
0100
0000
0100
0000
,
0100
0000
0000
0000
,
0010
0000
0010
0000
,
0010
0000
0000
0000
,
1001
0000
0000
0000
,
0000
0000
0000
0000
,
1001
0000
0000
0000
,
0000
0000
0000
0000
,
1000
0000
0000
0000
,
0001
0000
0000
0000
,
1000
0000
0000
0000
,
0001
0000
0000
0000
,
0110
0000
0000
0000
,
0000
0000
0000
0000
,
0110
0000
0000
0000
,
0000
0000
0000
0000
,
0010
0000
0000
0000
,
0100
0000
0000
0000
,
0010
0000
0000
0000
,
0100
0000
0000
0000
,
1001
0000
0000
0000
,
0001
0000
0100
0000
,
1000
0000
0100
0000
,
1001
0000
0000
0000
,
0000
0000
0000
0000
;
#NOTES:
     dance-single:
     :
     Easy:
     9:
     :
0000
0000
0000
0000
,
0000
0000
0000
0000
,
0000
0000
0000
0000
,
0000
0000
0000
0000
,
0000
0000
0000
0000
,
1001
0000
0000
0000
,
1001
0000
0000
0000
,
0010
0000
0000
0010
0000
0000
0010
0000
,
0000
0010
0000
0010
0000
0000
0000
0000
,
1001
0000
0000
0000
,
1001
0000
0000
0000
,
0100
0000
0000
0100
0000
0000
0100
0000
,
0000
0100
0000
0100
0000
0000
0000
0000
,
0001
0100
0001
0000
,
1000
0100
1000
0000
,
1000
0010
1000
0000
,
0001
0010
0001
0000
,
0101
0000
0101
0000
,
1010
0000
1010
0000
,
1100
0000
0101
0000
,
2002
0000
0000
3003
,
0010
1000
0100
0010
,
0001
0100
0010
1000
,
0010
0100
0001
0010
,
0001
0100
0001
0000
,
0010
0001
0100
0010
,
1000
0100
0010
0001
,
0010
0100
1000
0010
,
1000
0100
1000
0000
,
0001
0000
0010
0000
,
0100
0000
1000
0000
,
0001
0000
0010
0000
,
0100
1000
0100
0000
,
1000
0000
0010
0000
,
0100
0000
0001
0000
,
1000
0000
0010
0000
,
0100
0001
0100
0000
,
0010
0000
1000
0000
,
0100
0000
0010
0000
,
0001
0000
0100
0000
,
0010
0100
0010
0000
,
0100
0000
0001
0000
,
0010
0000
0100
0000
,
1000
0000
0010
0000
,
0100
0010
0100
0000
,
0001
0000
0000
0001
,
0000
0000
0000
0000
,
1000
0000
0000
1000
,
0000
0000
0000
0000
,
0010
0000
0000
0100
,
0000
0000
0010
0000
,
0000
0100
0000
0100
,
0000
0000
0000
0000
,
1000
0000
0000
1000
,
0000
0000
0000
0000
,
0001
0000
0000
0001
,
0000
0000
0000
0000
,
0100
0000
0000
0010
,
0000
0000
0100
0000
,
0000
0010
0000
0000
,
1000
0000
0001
0000
,
1000
0000
0000
1010
,
0000
0000
0000
0000
,
0001
0000
0000
0011
,
0000
0000
0000
0000
,
1100
0000
0000
0101
,
0000
0000
1100
0000
,
0000
0001
0000
1000
,
0000
0000
0100
0000
,
1000
0000
0000
1100
,
0000
0000
0000
0000
,
0001
0000
0000
0101
,
0000
0000
0000
0000
,
0010
0000
1000
0000
,
0010
0000
0100
0000
,
0001
0000
1000
0000
,
0001
0000
0000
0000
,
1000
0100
1000
0100
,
0010
0001
1000
0001
,
0100
0010
0100
0010
,
1000
0001
1000
0001
,
1000
0010
1000
0010
,
0100
0001
0010
0100
,
0010
0001
0010
0001
,
0100
0010
1000
0000
,
0001
0000
0000
0100
0000
0000
0010
0000
,
1000
0000
0000
0100
0000
0000
0001
0000
,
0100
0000
0000
1000
0000
0000
0001
0000
,
0000
0100
0000
0000
0010
0000
1000
0000
,
0100
0000
0000
0010
0000
0000
0001
0000
,
1000
0000
0000
0010
0000
0000
0001
0000
,
0010
0000
1000
0001
1000
0000
0001
1000
,
0001
0100
0010
0000
,
0220
0000
0330
0000
,
1000
0000
0010
0000
1000
0001
1000
0000
,
0010
0000
0100
0000
,
0001
0000
0010
0000
,
0001
0000
1000
0000
,
0010
0100
0010
0000
,
1000
0000
0001
0000
,
0100
0000
0010
0000
,
1000
0000
0001
0000
,
0010
0000
0100
0000
,
1100
0000
0000
0000
,
0010
0000
0100
0000
,
0101
0000
0000
0000
,
0010
0000
0100
0000
,
1100
0000
0000
0000
,
0011
0000
0000
0000
,
1000
0000
1000
0000
,
1000
0000
0000
0000
,
0010
0000
1000
0000
,
0001
0010
0001
0000
,
0100
0000
0001
0000
,
1000
0100
1000
0000
,
0100
0000
1000
0000
,
0001
0000
0010
0000
,
0001
1000
0001
1000
,
0001
0000
0000
0000
,
1001
0000
0000
0000
,
0010
0000
0100
0000
,
0110
0000
0000
0000
,
1000
0000
0001
0000
,
1001
0000
0000
0000
,
0110
0000
0000
0000
,
0010
0000
0010
0000
,
0010
0000
0010
0000
,
1000
0000
0000
1000
,
0000
0000
0000
0000
,
0001
0000
0000
0001
,
0000
0000
0000
0000
,
0010
0000
0000
0010
,
0000
0000
0010
0000
,
0000
0100
0000
0100
,
0000
0000
1001
0000
,
0010
0000
0000
0010
,
0000
0000
0000
0000
,
0100
0000
0000
0100
,
0000
0000
0000
0000
,
0001
0000
0010
0100
,
1000
0000
0010
0100
,
0001
0000
0001
0000
,
1000
0000
1000
0000
,
2002
0000
3003
0000
,
0010
0000
1000
0000
0100
0000
0001
0100
,
1000
0001
0010
0100
,
1000
2002
0000
0000
,
0000
0000
0000
0000
,
0000
0000
0000
0000
,
0000
0000
3003
0000
,
0000
0000
0000
0000
;
#NOTES:
     dance-single:
     :
     Medium:
     13:
     :
0000
0000
0000
0000
,
0000
0000
0000
0000
,
0000
0000
0000
0000
,
0000
0000
0000
0000
,
0000
0000
0000
0000
,
0001
0000
0000
1000
0000
0000
0000
0000
,
0001
0000
0000
1000
0000
0000
0000
0000
,
0010
0000
0000
0100
0000
0000
0010
0000
,
0000
0100
0000
0010
0000
0000
1001
0000
,
1000
0000
0000
0001
0000
0000
0000
0000
,
1000
0000
0000
0001
0000
0000
0000
0000
,
0100
0000
0000
0010
0000
0000
0100
0000
,
0000
0010
0000
0100
0000
0000
1001
0000
,
0001
0000
0100
0000
0010
1000
0010
0000
,
1000
0000
0100
0000
0010
0001
0010
0000
,
0001
0000
1000
0000
0100
0010
0100
0000
,
1000
0000
0001
0000
0100
0010
0100
0000
,
1010
1000
1100
1000
,
0011
0001
0101
0001
,
1000
0001
1000
0001
1000
0001
1000
0001
,
1000
0010
0100
1001
,
1000
0010
1000
0000
0010
1000
0010
0000
,
0100
0001
0100
0000
0001
0100
0001
0000
,
1000
0100
1000
0000
0100
1000
0100
0000
,
0010
0001
0010
0000
0001
0010
0001
0000
,
1000
0010
1000
0010
0100
0000
1001
0000
,
0001
0010
0001
0010
0100
0000
1001
0000
,
0110
0000
1000
0100
0010
0000
0001
0100
,
0010
0000
1000
0100
0010
0000
1001
0000
,
0001
0010
0001
0100
,
0001
0010
0001
0000
,
1000
0100
0001
0000
,
1000
0010
0001
0000
,
1000
0010
1000
0100
,
1000
0010
1000
0000
,
0001
0100
1000
0000
,
0001
0010
1000
0000
,
0100
0000
1000
0001
,
1000
0000
1001
0000
,
0010
0000
0100
0010
,
0100
0000
0110
0000
,
1001
0000
0001
0100
,
0010
0000
1000
0100
,
0010
0000
0001
0100
,
0010
0000
1000
0000
,
1001
0000
0000
1001
,
0000
0000
0000
0000
,
0110
0000
0000
0110
,
0000
0000
0000
0000
,
1001
0000
0000
1001
,
0000
0000
0110
0000
,
0000
0110
0000
0110
,
0000
0000
1001
0000
,
0011
0000
0000
0101
,
0000
0000
0000
0000
,
1010
0000
0000
1100
,
0000
0000
0000
0000
,
1001
0000
0010
1000
,
0100
0000
0010
0001
,
0100
0000
0010
1000
,
0100
0000
1001
0000
,
0100
1000
0010
0100
,
0001
0000
1001
0000
,
0010
0001
0100
0010
,
1000
0000
1001
0000
,
0110
0000
0010
1000
,
0100
0000
0010
0001
,
0100
0000
0010
1000
,
0100
0000
1001
0000
,
0001
0100
0001
0100
,
0010
0000
1001
0000
,
1000
0100
1000
0100
,
0010
0000
1001
0000
,
0100
1000
0001
0000
,
0100
0001
1000
0000
,
0001
0000
0010
0000
,
0100
0000
1001
0000
,
1000
0010
1000
0010
0100
0001
0100
0000
,
0001
0010
0001
0010
0100
1000
0100
0000
,
1000
0001
1000
0001
0100
0010
0100
0000
,
0001
1000
0001
1000
0100
0010
0100
0000
,
1000
0100
0010
0001
0010
0100
1000
0000
,
0001
0010
0100
1000
0100
0010
0001
0000
,
1000
0010
0100
0001
0100
0010
1000
0000
,
0001
0100
0010
1000
0010
0100
0001
0000
,
0011
0000
0000
0011
0000
0000
1000
0000
,
1100
0000
0000
1100
0000
0000
1000
0000
,
1010
0000
0000
1010
0000
0000
0001
0000
,
0000
0101
0000
0000
0101
0000
1001
0000
,
1000
0000
0000
0100
0000
0000
0010
0000
0001
0000
0000
1000
0000
0000
0100
0000
,
1000
0000
0000
0010
0000
0000
0100
0000
0001
0000
0000
1000
0000
0000
0010
0000
,
1000
0000
0100
0010
0001
0000
0100
0010
,
1000
0100
0010
0110
,
2002
0000
0000
3003
,
0001
0000
1000
0010
0100
0000
0001
0010
0100
0000
1000
0000
0010
0000
1001
0000
,
0001
0010
0100
1000
,
0010
0100
0001
0000
,
1000
0100
0010
0001
,
0100
0010
1000
0000
,
0001
0100
0001
0100
,
1000
0100
1000
0100
,
0001
1000
0001
0000
,
1000
0001
1000
0000
,
0110
0000
1000
0100
,
0010
0001
0000
0001
,
0100
0000
0010
1000
,
0001
0100
0000
0100
,
0010
0000
1000
0100
,
0001
0000
1000
0010
,
0001
0000
0100
0000
,
0010
0000
1001
0000
,
0010
1000
0100
1000
,
0010
1000
0100
0010
,
0002
0000
0103
0010
,
1000
0010
0100
0010
,
2000
0000
3001
0010
,
0100
1000
0010
0100
,
0001
1000
0001
0000
,
1000
0001
1000
0000
,
1100
0000
0100
0010
,
0100
0010
0000
0010
,
0100
0000
1000
0001
,
1000
0001
0000
0001
,
1000
0000
0010
1000
,
0100
0000
0010
0001
,
0100
0000
0010
0000
,
1000
0000
1001
0000
,
0010
0000
1000
0001
,
0000
0000
1001
0000
,
0010
0000
0001
1000
,
0000
0000
1001
0000
,
0010
0000
1000
0100
,
0000
0010
0001
0000
,
1000
0100
0000
0010
,
0001
0000
1001
0000
,
0010
0000
1000
0100
,
0000
0000
1001
0000
,
0010
0000
0001
0100
,
0000
0000
1001
0000
,
1000
0000
0001
0100
,
0000
0010
1000
0000
,
0001
0100
0000
0010
,
1000
0000
0001
0000
,
2002
0000
3003
0000
,
1000
0000
0001
0010
1000
0000
0001
0100
,
1000
0000
0010
0000
0100
0001
0100
0001
,
1000
2002
0000
0000
,
0000
0000
0000
0000
,
0000
0000
0000
0000
,
0000
0000
3003
0000
,
0000
0000
0000
0000
;
#NOTES:
     dance-single:
     :
     Hard:
     16:
     :
0000
0000
0000
0000
,
0000
0000
0000
0000
,
0000
0000
0000
0000
,
0000
0000
0000
0000
,
0000
0000
0000
0000
,
0001
0000
0000
1001
0000
0000
0000
0000
,
1000
0000
0000
1001
0000
0000
0000
0000
,
0001
0000
0000
1001
0000
0000
0001
0100
,
0000
0100
0000
0100
0010
0000
1001
0000
,
1000
0000
0000
1001
0000
0000
0000
0000
,
0001
0000
0000
1001
0000
0000
0000
0000
,
1000
0000
0000
1001
0000
0000
1000
0100
,
0000
0100
0000
0100
0010
0000
1001
0000
,
0010
0001
0010
0001
0100
0001
0100
0001
,
1000
0010
1000
0010
1000
0100
1000
0100
,
0010
0001
1000
0010
0100
0001
1000
0100
,
1000
0010
0100
0001
0010
0001
0100
0000
,
0010
0000
0000
0010
0000
0000
0010
0000
1000
0000
0000
1000
0000
0000
1000
0000
,
0001
0000
0000
0001
0000
0000
0001
0000
0100
0000
0000
0100
0000
0000
0100
0000
,
0001
0010
0100
1000
0001
0010
0100
1000
,
0010
0010
0010
1001
,
1000
0010
0100
0001
0010
0100
1000
0010
,
0100
0001
0010
0100
1000
0001
0010
0100
,
1000
0000
0010
0000
0100
0000
0010
0000
1000
0000
0000
0000
0001
1000
0001
0000
,
0000
0000
0100
0010
0100
0000
0000
0000
0002
0000
0000
0000
1003
0000
0000
0000
,
0001
0000
0100
0000
0010
0000
1000
0000
0001
0000
0000
0001
0000
0000
0001
0000
,
1000
0000
0100
0000
1000
0000
0000
1000
0000
0000
1000
0000
1000
0000
0000
0000
,
0010
0000
0100
0001
0100
0000
0001
0000
0100
0000
0000
0000
0010
0000
1000
0000
,
0010
0000
0100
0001
0100
0000
1001
0000
,
0010
1000
0100
0010
,
0001
0100
0010
1000
,
0100
0010
0001
0100
,
0010
0010
1000
1000
,
0100
0010
0001
0100
,
0010
1000
0100
0010
,
0001
0100
0010
1000
,
0100
0100
0010
0010
,
0001
0010
1000
0001
,
0100
1000
0001
0001
,
1000
0010
0001
1000
,
0100
0001
1000
1000
,
0010
0000
0100
0001
0100
0000
0001
0000
,
1000
0000
0100
0010
0100
0000
1000
0000
,
0001
0010
0100
1000
,
0001
0000
1000
0000
,
1010
0000
0000
0101
,
0000
0000
1001
0000
,
0011
0000
0000
1100
,
0000
0000
1001
0000
,
0110
0000
1000
0100
,
0010
0000
0000
0000
0001
0100
0001
0000
,
0000
0000
0100
0010
0100
0000
0010
0000
,
1000
0000
0010
0000
,
0101
0000
0000
1010
,
0000
0000
1001
0000
,
1100
0000
0000
0011
,
0000
0000
1001
0000
,
0010
0000
1000
0010
1000
0000
0010
0000
,
0100
0000
0001
0100
0001
0000
0100
0000
,
0001
0000
0010
0100
0010
0000
0001
0000
,
1000
0000
0001
0000
,
0110
0000
0001
0100
,
0000
1000
0100
0000
,
0110
0000
0001
0010
,
0000
1000
0010
0000
,
1001
0000
0010
1000
,
0001
0000
0010
0000
0100
1000
0100
0000
,
0010
0000
0001
0100
0001
0000
0010
0000
,
0100
0100
0100
0000
,
1001
0000
0100
0001
,
0000
0100
1000
0000
,
1001
0000
0010
0001
,
0000
0010
1000
0000
,
0001
0000
0100
0010
0100
0000
0001
0000
,
1000
0000
0100
0000
0010
0100
0010
0000
,
0001
0000
0001
0000
,
0001
0000
1001
0000
,
0001
0100
0010
1000
0001
0100
0010
1000
,
0001
0100
0010
1000
0001
0100
0010
1000
,
0001
0010
0100
1000
0001
0010
0100
1000
,
0001
0010
0100
1000
0001
0010
0100
0000
,
1000
0100
0010
0001
1000
0100
0010
0001
,
1000
0100
0010
0001
1000
0100
0010
0001
,
1000
0010
0100
0001
1000
0010
0100
0001
,
1000
0010
0100
0001
1000
0010
0100
0000
,
0001
0000
0000
0100
0000
0000
0100
0000
0010
0000
0000
0100
0000
0000
0010
0000
,
1000
0000
0000
0100
0000
0000
0100
0000
0010
0000
0000
0100
0000
0000
0010
0000
,
0001
0000
0000
1000
0000
0000
0010
0000
1000
0000
0000
0001
0000
0000
0010
0100
,
0010
0000
0000
0001
0000
0000
0100
0000
0010
0000
0000
1000
0000
0000
0100
1000
,
0100
0000
0000
0010
0000
0000
0010
0000
0001
0000
0000
0010
0000
0000
0100
0000
,
1000
0000
0000
0010
0000
0000
0010
0000
0100
0000
0000
0010
0000
0000
1000
0000
,
0001
0000
0000
0100
0000
0000
0001
0000
1000
0000
0000
0010
0000
0000
1000
0000
,
0100
0000
0000
0010
0000
0000
0010
0000
0100
0000
0000
0100
0000
0000
0010
0000
,
0220
0000
0000
0330
,
1000
0000
0100
0000
0010
0000
0001
0000
0100
0000
0100
0000
0010
1000
0010
1000
0001
0000
0100
0000
0010
0000
1000
0000
0100
0000
0000
0000
1001
0000
0000
0000
,
0010
1000
0100
0010
,
0001
0100
1000
0100
,
0001
1000
0001
1000
0001
0000
0010
0000
,
0100
1000
0010
1000
,
0001
0010
0100
0001
,
0100
1000
0001
0100
,
0020
0000
0130
0000
,
1000
0001
1000
0001
1000
0000
0000
0000
,
1001
0000
0000
0000
0010
1000
0010
1000
,
0010
1000
0000
1000
,
1001
0000
0000
0000
0010
0001
0010
0001
,
0010
0001
0000
0001
,
1001
0000
0000
0000
0001
0100
0001
0100
,
0001
0000
0000
0000
1000
0100
1000
0100
,
1000
0000
0100
0000
,
0010
0000
1001
0000
,
0001
0000
1000
0100
0000
1000
0100
0000
,
0010
0000
0100
1000
0000
0100
1000
0000
,
0010
0000
0100
0001
0000
0100
0001
0000
,
0010
0000
0001
0100
0000
0001
0100
0000
,
0010
0000
1000
0100
0000
0010
0001
0000
,
1000
0000
0001
0010
0000
0100
1000
0000
,
0001
1000
0001
1000
0001
0000
0000
0000
,
0100
0010
0100
0010
0100
0000
0000
0000
,
1001
0000
0000
0000
0100
1000
0100
1000
,
0100
0010
0000
0010
,
1001
0000
0000
0000
0100
0001
0100
0001
,
0100
0010
0000
0010
,
1001
0000
0000
0000
0010
0100
0010
0100
,
0010
0000
0000
0000
0100
0010
0100
0010
,
0100
0000
0100
0000
,
0100
0000
1001
0000
,
0001
1000
0100
1100
,
0000
0001
0100
0000
,
1000
0001
0100
0101
,
0000
1000
0100
0000
,
0001
0010
0000
0001
,
0100
0000
0001
0011
,
0000
0001
0101
0000
,
0010
0000
1001
0000
,
1000
0001
0010
0011
,
0000
1000
0010
0000
,
0001
1000
0010
1010
,
0000
0001
0010
0000
,
1000
0010
0000
1000
,
0100
0000
1000
1010
,
0000
1000
0100
0010
,
0001
0000
0110
0000
,
2002
0000
3003
0000
,
0010
0000
0100
0000
0001
0000
1000
0000
0100
0000
0010
0000
0001
1000
0001
1000
,
0001
0000
0000
1001
0000
0000
1000
0100
0001
0100
1000
0001
,
1000
2002
0000
0000
,
0000
0000
0000
0000
,
0000
0000
0000
0000
,
0000
0000
3003
0000
,
0000
0000
0000
0000
;
#NOTES:
     dance-double:
     :
     Easy:
     9:
     :
00000000
00000000
00000000
00000000
,
00000000
00000000
00000000
00000000
,
00000000
00000000
00000000
00000000
,
00000000
00000000
00000000
00000000
,
00000000
00000000
00000000
00000000
,
00001001
00000000
00000000
00000000
,
00000110
00000000
00000000
00000000
,
00001000
00000000
00000000
00001000
00000000
00000000
00010000
00000000
,
00000000
00100000
00000000
00100000
00000000
00000000
00000000
00000000
,
10010000
00000000
00000000
00000000
,
01100000
00000000
00000000
00000000
,
00010000
00000000
00000000
00010000
00000000
00000000
00001000
00000000
,
00000000
00000010
00000000
00000010
00000000
00000000
00000000
00000000
,
00000001
00000010
00000001
00000000
,
00001000
00000100
00001000
00000000
,
00010000
00001000
00010000
00000000
,
01000000
00010000
01000000
00000000
,
00100000
00000000
00100000
00000000
,
01000000
00000000
01000000
00000000
,
00000100
00000000
00000100
00000000
,
00000220
00000000
00000000
00000330
,
00000010
00000001
00000010
00000001
,
00001000
00000010
00001000
00000010
,
00010000
00001000
00010000
00001000
,
01000000
00010000
01000000
00000000
,
00100000
10000000
00100000
10000000
,
00010000
00100000
00010000
00100000
,
00001000
00010000
00001000
00010000
,
00000100
00001000
00000100
00000000
,
00000010
00000000
00000001
00000000
,
00000100
00000000
00001000
00000000
,
00000100
00000000
00000001
00000000
,
00000010
00000000
00000100
00000000
,
00001000
00000000
00000001
00000000
,
00000100
00000000
00001000
00000000
,
00010000
00000000
00100000
00000000
,
10000000
00010000
10000000
00000000
,
00100000
00000000
10000000
00000000
,
01000000
00000000
00010000
00000000
,
01000000
00000000
10000000
00000000
,
00100000
00000000
01000000
00000000
,
00010000
00000000
10000000
00000000
,
01000000
00000000
00010000
00000000
,
00001000
00000000
00000010
00000000
,
00000001
00001000
00000001
00000000
,
00000010
00000000
00000000
00000010
,
00000000
00000000
00000000
00000000
,
00000100
00000000
00000000
00000100
,
00000000
00000000
00000000
00000000
,
01000000
00000000
00000000
01000000
,
00000000
00000000
01000000
00000000
,
00000000
00100000
00000000
00100000
,
00000000
00000000
00000000
00000000
,
00100000
00000000
00000000
00100000
,
00000000
00000000
00000000
00000000
,
01000000
00000000
00000000
01000000
,
00000000
00000000
00000000
00000000
,
00000100
00000000
00000000
00000100
,
00000000
00000000
00000100
00000000
,
00000000
00000010
00000000
00000000
,
00000010
00000000
00000000
00000000
,
00000001
00000000
00000000
00000010
,
00000000
00000000
00000000
00000000
,
00000100
00000000
00000000
00001000
,
00000000
00000000
00000000
00000000
,
00010000
00000000
00000000
00100000
,
00000000
00000000
00010000
00000000
,
00000000
10000000
00000000
01000000
,
00000000
00000000
00000000
00000000
,
10000000
00000000
00000000
00100000
,
00000000
00000000
00000000
00000000
,
01000000
00000000
00000000
00010000
,
00000000
00000000
00000000
00000000
,
00001000
00000000
00000000
00000010
,
00000000
00000000
00001000
00000000
,
00000001
00000000
00000100
00000000
,
00000001
00000000
00000000
00000000
,
00001000
00000001
00001000
00000010
,
00000100
00001000
00010000
00001000
,
01000000
00010000
00100000
00010000
,
01000000
00100000
10000000
00000000
,
00010000
10000000
00010000
00100000
,
01000000
00010000
00001000
00010000
,
00000100
00001000
00000010
00001000
,
00000100
00000010
00000001
00000000
,
00000100
00000000
00000000
00000100
00000000
00000000
00000000
00000000
,
00000010
00000000
00000000
00000010
00000000
00000000
00000000
00000000
,
00010000
00000000
00000000
00001000
00000000
00000000
00010000
00000000
,
00000000
00001000
00000000
00000000
00011000
00000000
00000000
00000000
,
01000000
00000000
00000000
01000000
00000000
00000000
00000000
00000000
,
00100000
00000000
00000000
00100000
00000000
00000000
00000000
00000000
,
00010000
00000000
00001000
00010000
00001000
00000000
00010000
00001000
,
00010000
00001000
00010000
00000000
,
00022000
00000000
00033000
00000000
,
00000010
00000100
00001000
00010000
,
00100000
00000000
10000000
00000000
,
01000000
00000000
00010000
00000000
,
01000000
00000000
00100000
00000000
,
00001000
00010000
00001000
00000000
,
00010000
00000000
00000010
00000000
,
00001000
00000000
00000100
00000000
,
00000010
00000001
00000010
00000000
,
00000100
00000000
00001000
00000000
,
00001100
00000000
00000000
00000000
,
00010000
00000000
00001000
00000000
,
00011000
00000000
00000000
00000000
,
00100000
00000000
01000000
00000000
,
01100000
00000000
00000000
00000000
,
10010000
00000000
00000000
00000000
,
10000000
00000000
10000000
00000000
,
10000000
00000000
00000000
00000000
,
01000000
00000000
00100000
00000000
,
00001000
00010000
00001000
00000000
,
00000010
00000000
00000001
00000000
,
00001000
00000010
00001000
00000000
,
00000001
00000000
00000100
00000000
,
00001000
00000000
00010000
00000000
,
00100000
01000000
00100000
01000000
,
00100000
00000000
00000000
00000000
,
10010000
00000000
00000000
00000000
,
01000000
00000000
00010000
00000000
,
00011000
00000000
00000000
00000000
,
00000100
00000000
00001000
00000000
,
00011000
00000000
00010000
00000000
,
00000010
00000000
00000100
00000000
,
00000010
00000000
00000010
00000000
,
00000010
00000000
00000000
00000000
,
00000001
00000000
00000000
00000001
,
00000000
00000000
00000000
00000000
,
00001000
00000000
00000000
00001000
,
00000000
00000000
00000000
00000000
,
00010000
00000000
00000000
00010000
,
00000000
00000000
00010000
00000000
,
00000000
10000000
00000000
10000000
,
00000000
00000000
01100000
00000000
,
10000000
00000000
00000000
10000000
,
00000000
00000000
00000000
00000000
,
00010000
00000000
00000000
00010000
,
00000000
00000000
00000000
00000000
,
00001000
00000000
00000000
00001000
,
00000000
00000000
00001000
00000000
,
00000000
00000001
00000000
00000000
,
00001000
00000000
00000001
00000000
,
00002002
00000000
00003003
00000000
,
00000001
00000000
00000010
00000000
00001000
00000000
00010000
01000000
,
10000000
00100000
00010000
00001000
,
00010000
00022000
00000000
00000000
,
00000000
00000000
00000000
00000000
,
00000000
00000000
00000000
00000000
,
00000000
00000000
00033000
00000000
,
00000000
00000000
00000000
00000000
;
#NOTES:
     dance-double:
     :
     Medium:
     13:
     :
00000000
00000000
00000000
00000000
,
00000000
00000000
00000000
00000000
,
00000000
00000000
00000000
00000000
,
00000000
00000000
00000000
00000000
,
00000000
00000000
00000000
00000000
,
00000010
00000000
00000000
00000010
00000000
00000000
00000000
00000000
,
00000100
00000000
00000000
00000100
00000000
00000000
00000000
00000000
,
00001000
00000000
00000000
00001000
00000000
00000000
00001000
00000000
,
00000000
00010000
00000000
00010000
00000000
00000000
00000000
00000000
,
00100000
00000000
00000000
00100000
00000000
00000000
00000000
00000000
,
01000000
00000000
00000000
01000000
00000000
00000000
00000000
00000000
,
00010000
00000000
00000000
00010000
00000000
00000000
00010000
00000000
,
00000000
00001000
00000000
00001000
00000000
00000000
00000000
00000000
,
00000010
00000000
00000001
00000000
00000100
00000010
00000100
00000000
,
00000001
00000100
00001000
00010000
,
00100000
00000000
10000000
00000000
01000000
00100000
01000000
00000000
,
10000000
01000000
00010000
00001000
,
00000010
00000001
00000101
00000000
,
00001000
00000100
00010100
00000000
,
00001000
00010000
00001000
00010000
00001000
00010000
00001000
00010000
,
00001000
00001000
00010000
00011000
,
00100000
00000000
00010000
00000000
01000000
00100000
01000000
00000000
,
00100000
00000000
10000000
00000000
01000000
00100000
01000000
00000000
,
00010000
00000000
00001000
00000000
00000010
00000001
00000010
00000000
,
00000001
00000000
00001000
00000000
00000010
00000100
00000010
00000000
,
00001000
00000010
00000100
00000010
00001000
00000000
00000100
00000000
,
00010000
00001000
00100000
00001000
00010000
00000000
01000000
00000000
,
10000000
00000000
00100000
10000000
01000000
00000000
00100000
00010000
,
01000000
00100000
01000000
10010000
,
00100000
00010000
01000000
00100000
,
10000000
01000000
00010000
00001000
,
00000010
00000001
00000100
00000010
,
00001000
00000000
00001001
00000000
,
00000010
00001000
00000100
00000010
,
00000001
00000100
00001000
00010000
,
00100000
10000000
01000000
00100000
,
00010000
00000000
10010000
00000000
,
00100000
00000000
01000000
00010000
,
00001000
00000000
00000000
00000000
,
00000010
00000000
00000100
00001000
,
00010000
00000000
00000000
00000000
,
00011000
00000000
00100000
00010000
,
00001000
00000000
00000010
00001000
,
00010000
00000000
00100000
00010000
,
00001000
00000000
00011000
00000000
,
00000100
00000000
00000000
00000101
,
00000000
00000000
00000000
00000000
,
00000010
00000000
00000000
00001010
,
00000000
00000000
00000000
00000000
,
00010000
00000000
00000000
00001000
,
00000000
00000000
00011000
00000000
,
00000000
00010000
00000000
00001000
,
00000000
00000000
00011000
00000000
,
01000000
00000000
00000000
11000000
,
00000000
00000000
00000000
00000000
,
00100000
00000000
00000000
00110000
,
00000000
00000000
00000000
00000000
,
00001000
00000000
00000000
00010000
,
00000000
00000000
00011000
00000000
,
00000000
00001000
00000000
00000000
,
00010000
00000000
00011000
00000000
,
00000100
00001000
00000010
00001000
,
00000100
00000000
00000110
00000000
,
00000001
00000100
00000001
00001000
,
00000100
00000000
00010100
00000000
,
00011000
00000000
00010000
00001000
,
00100000
00000000
00010000
00100000
,
00001000
00000000
00010000
00001000
,
00100000
00000000
01100000
00000000
,
00100000
00010000
01000000
00010000
,
00100000
00000000
01100000
00000000
,
10000000
00100000
10000000
00010000
,
00100000
00000000
00101000
00000000
,
00011000
00000000
00001000
00010000
,
00000100
00000000
00001000
00000100
,
00010000
00000000
00001000
00000000
,
00000010
00000000
00000110
00000000
,
00000001
00000100
00000010
00000000
00000100
00000010
00001000
00000000
,
00000100
00010000
00000100
00010000
00001000
00010000
00001000
00000000
,
00100000
00010000
01000000
00000000
00010000
01000000
00100000
00000000
,
10000000
01000000
10000000
01000000
00100000
01000000
00100000
00000000
,
00010000
01000000
00100000
01000000
00010000
00100000
01000000
00000000
,
00010000
00001000
00010000
00001000
00010000
00000010
00001000
00000000
,
00000100
00001000
00000010
00000100
00000001
00000100
00000010
00000000
,
00001000
00000001
00001000
00000001
00000010
00000100
00000010
00000000
,
00000100
00000000
00000000
00001100
00000000
00000000
00010000
00000000
,
00001000
00000000
00000000
00011000
00000000
00000000
01000000
00000000
,
00010000
00000000
00000000
00110000
00000000
00000000
01100000
00000000
,
00000000
11000000
00000000
00000000
10000000
00000000
00010000
00000000
,
10000000
00000000
00000000
00100000
00000000
00000000
10000000
00000000
00010000
00000000
00000000
00100000
00000000
00000000
00001000
00000000
,
00010000
00000000
00000000
00000100
00000000
00000000
00001000
00000000
00000010
00000000
00000000
00001000
00000000
00000000
00000010
00000000
,
00000100
00000000
00000001
00000010
00000100
00000000
00001000
00000001
,
00000100
00001000
00010000
00001000
,
00022000
00000000
00000000
00033000
,
00010000
00000000
01000000
10000000
00100000
00000000
01000000
00010000
00100000
00000000
01000000
00000000
10000000
00000000
01000000
00000000
,
00010000
00001000
00000010
00000001
,
00001000
00000100
00000010
00000000
,
00000001
00000100
00001000
00000100
,
00000001
00001000
00000001
00000000
,
00000100
00001000
00000100
00001000
,
00010000
00100000
00010000
00100000
,
10000000
00010000
10000000
00000000
,
00010000
10000000
00010000
00000000
,
01100000
00000000
00100000
01000000
,
00010000
00001000
00000000
00001000
,
00010000
00000000
00000010
00000100
,
00001000
00010000
00000000
00010000
,
00100000
00000000
10000000
01000000
,
00010000
00000000
00001000
00000010
,
00000001
00000000
00000001
00000000
,
00000001
00000000
00001001
00000000
,
00000100
00000010
00001000
00000100
,
00000010
00000100
00001000
00000010
,
00000200
00000000
00001300
00010000
,
00100000
01000000
00100000
10000000
,
00200000
00000000
01300000
00010000
,
10000000
01000000
00100000
00000000
,
00001000
00010000
00001000
00000000
,
00010000
00001000
00010000
00000000
,
00011000
00000000
00000010
00000100
,
00001000
00010000
00000000
00010000
,
00001000
00000000
00100000
01000000
,
00010000
00001000
00000000
00001000
,
00000100
00000000
00000001
00000010
,
00001000
00000000
00010000
01000000
,
10000000
00000000
00100000
00000000
,
00010000
00000000
00011000
00000000
,
00000010
00000000
00000100
00000010
,
00000000
00000000
00000100
00000000
,
00001000
00000000
00010000
00001000
,
00000000
00000000
00010000
00000000
,
01000000
00000000
00100000
01000000
,
00000000
00010000
01000000
00000000
,
10000000
01000000
00000000
00100000
,
00010000
00000000
10010000
00000000
,
00100000
00000000
01000000
00100000
,
00000000
00000000
01000000
00000000
,
00001000
00000000
00010000
00001000
,
00000000
00000000
00010000
00000000
,
00000100
00000000
00000010
00000100
,
00000000
00000001
00000100
00000000
,
00001000
00000100
00000000
00000010
,
00000001
00000000
00001000
00000000
,
00002002
00000000
00003003
00000000
,
00001000
00000000
00000001
00000100
00001000
00000000
00010000
00100000
,
10000000
00000000
01000000
00000000
00010000
00001000
00010000
00001000
,
00010000
00022000
00000000
00000000
,
00000000
00000000
00000000
00000000
,
00000000
00000000
00000000
00000000
,
00000000
00000000
00033000
00000000
,
00000000
00000000
00000000
00000000
;
#NOTES:
     dance-double:
     :
     Hard:
     16:
     :
00000000
00000000
00000000
00000000
,
00000000
00000000
00000000
00000000
,
00000000
00000000
00000000
00000000
,
00000000
00000000
00000000
00000000
,
00000000
00000000
00000000
00000000
,
00000010
00000000
00000000
00000011
00000000
00000000
00000000
00000000
,
00000100
00000000
00000000
00000101
00000000
00000000
00000000
00000000
,
00000010
00000000
00000000
00001001
00000000
00000000
00000100
00010000
,
00000000
00001000
00000000
01000000
00010000
00000000
10010000
00000000
,
00100000
00000000
00000000
10100000
00000000
00000000
00000000
00000000
,
01000000
00000000
00000000
11000000
00000000
00000000
00000000
00000000
,
00100000
00000000
00000000
10010000
00000000
00000000
01000000
00001000
,
00000000
00010000
00000000
00000100
00001000
00000000
00001001
00000000
,
00000100
00000001
00000100
00000001
00001000
00000010
00001000
00000010
,
00010000
00001000
00010000
00001000
00100000
00010000
01000000
00100000
,
10000000
01000000
10000000
01000000
00100000
00010000
00100000
00001000
,
00010000
00001000
00010000
00000100
00001000
00000010
00000100
00000001
,
00000010
00000000
00000000
00000010
00000000
00000000
00000010
00000000
00000001
00000000
00000000
00000001
00000000
00000000
00000001
00000000
,
00000100
00000000
00000000
00000100
00000000
00000000
00000100
00000000
00001000
00000000
00000000
00001000
00000000
00000000
00001000
00000000
,
00010000
00100000
00010000
00100000
01000000
00100000
01000000
00100000
,
10000000
10000000
10000000
10010000
,
10000000
00100000
01000000
00010000
10000000
00100000
01000000
00010000
,
00100000
01000000
00010000
00000000
00001000
00000100
00000010
00000000
,
00001000
00000100
00000010
00000001
00001000
00000100
00000010
00000001
,
00000010
00000100
00001000
00000000
00000010
00000100
00001000
00000000
,
00010000
00000000
00100000
00000000
10000000
00000000
00100000
00000000
01000000
00000000
00000000
01000000
00000000
00000000
01000000
00000000
,
00010000
00000000
00100000
00000000
00001000
00000000
00000000
00010000
00000000
00000000
00000010
00000000
00000010
00000000
00000000
00000000
,
00001000
00000000
00000100
00000010
00000100
00000000
00000010
00000000
00000100
00000000
00000000
00000000
00001000
00000000
00000001
00000000
,
00000100
00000000
00001000
00010000
00001000
00000000
00011000
00000000
,
00010000
00100000
01000000
00010000
,
00100000
01000000
00010000
00001000
,
00000010
00000100
00001000
00000010
,
00000100
00001000
00010000
00100000
,
01000000
00100000
00010000
00001000
,
00000100
00000010
00001000
00000100
,
00000010
00001000
00010000
01000000
,
00100000
00010000
01000000
00100000
,
00010000
00001000
00000100
00000001
,
00000010
00000100
00001000
00001000
,
00000001
00000100
00001000
00010000
,
00100000
10000000
00010000
00010000
,
10000000
00000000
00100000
10000000
00100000
00000000
01000000
00000000
,
00010000
00000000
00100000
00001000
00100000
00000000
00001000
00000000
,
00010000
00000100
00001000
00000100
,
00000010
00000000
00000001
00000000
,
00000101
00000000
00000000
00000101
,
00000000
00000000
00001000
00000000
,
00011000
00000000
00000000
00011000
,
00000000
00000000
00100000
00000000
,
01100000
00000000
10000000
01000000
,
10000000
00000000
00000000
00000000
00010000
01000000
00010000
00000000
,
00000000
00000000
00100000
00001000
00100000
00000000
00001000
00000000
,
00010000
00000000
00011000
00000000
,
00010010
00000000
00000000
00010010
,
00000000
00000000
00001000
00000000
,
00001100
00000000
00000000
00001100
,
00000000
00000000
00000010
00000000
,
00000001
00000000
00001000
00000010
00001000
00000000
00000100
00000000
,
00010000
00000000
00001000
00010000
00001000
00000000
01000000
00000000
,
00010000
00000000
00100000
01000000
00100000
00000000
00010000
00000000
,
10000000
00000000
00100000
00000000
,
01000000
00000000
00001000
00010000
,
00000000
00001000
00010000
00000000
,
00000100
00000000
00010000
00001000
,
00000000
00010000
00001000
00000000
,
00011000
00000000
00000010
00000100
,
00000001
00000000
00000000
00000000
00001000
00000001
00001000
00000000
,
00000000
00000000
00000001
00000010
00000001
00000000
00001000
00000000
,
00000100
00010000
00001000
00000000
,
00100000
00000000
00001000
00010000
,
00000000
00001000
00010000
00000000
,
00000010
00000000
00010000
00001000
,
00000000
00010000
00001000
00000000
,
00010000
00000000
00100000
01000000
00100000
00000000
10000000
00000000
,
00010000
00100000
00000000
00100000
,
00010000
00000000
00010000
00000000
,
00010000
00000000
00011000
00000000
,
00000100
00001000
00000100
00001000
00000001
00000010
00000100
00001000
,
00000001
00000100
00000010
00000000
00000100
00001000
00010000
00000000
,
00100000
10000000
00100000
10000000
01000000
10000000
00010000
00100000
,
00001000
00010000
00001000
00000000
00100000
00010000
10000000
00000000
,
01000000
00100000
01000000
00100000
00001000
00010000
00001000
00010000
,
00000100
00000010
00001000
00000000
00010000
00000100
00001000
00000000
,
00000010
00000100
00000010
00000100
00001000
00010000
00001000
00010000
,
00100000
01000000
00010000
00000000
00100000
01000000
00010000
00000000
,
00001000
00000000
00000000
00000010
00000000
00000000
00000010
00000000
00000001
00000000
00000000
00001000
00000000
00000000
00000001
00000000
,
00000100
00000000
00000000
00001000
00000000
00000000
00001000
00000000
00010000
00000000
00000000
00001000
00000000
00000000
00010000
00000000
,
01000000
00000000
00000000
10000000
00000000
00000000
00100000
00000000
01000000
00000000
00000000
00010000
00000000
00000000
10000000
00010000
,
10000000
00000000
00000000
01000000
00000000
00000000
00010000
00000000
00001000
00000000
00000000
00010000
00000000
00000000
00001000
00010000
,
00001000
00000000
00000000
00010000
00000000
00000000
00010000
00000000
00000010
00000000
00000000
00000100
00000000
00000000
00000100
00000000
,
00000001
00000000
00000000
00001000
00000000
00000000
00001000
00000000
00000100
00000000
00000000
00010000
00000000
00000000
00001000
00000000
,
01000000
00000000
00000000
00010000
00000000
00000000
00100000
00000000
01000000
00000000
00000000
10000000
00000000
00000000
00100000
00000000
,
00010000
00000000
00000000
00001000
00000000
00000000
00001000
00000000
00010000
00000000
00000000
00010000
00000000
00000000
00001000
00000000
,
00022000
00000000
00000000
00033000
,
00000010
00000001
00000100
00000010
00001000
00000100
00010000
00001000
00100000
00010000
01000000
00100000
10000000
00000000
10010000
00000000
,
00100000
00010000
10000000
00100000
,
00010000
00001000
00010000
00000010
,
00001000
00000010
00001000
00000010
00001000
00000000
00000001
00000000
,
00000010
00000100
00001000
00000010
,
00000100
00001000
00000100
00001000
,
00010000
00100000
01000000
00100000
,
00020000
00000000
00031000
00000000
,
00010000
00001000
00010000
00001000
00010000
00000000
00000000
00000000
,
00011000
00000000
00000000
00000000
00000100
00000010
00000100
00000000
,
00000010
00000100
00000000
00010000
,
00001000
00000000
00000000
00000000
01000000
00100000
01000000
00000000
,
00100000
01000000
00000000
00001000
,
00010000
00000000
00000000
00000000
00001000
00010000
00001000
00010000
,
00001000
00000000
00000000
00000000
00010000
00001000
00010000
00001000
,
00010000
00000000
00010000
00000000
,
00001000
00000000
00011000
00000000
,
00000010
00000000
00000001
00000100
00000000
00000001
00000100
00000000
,
00000010
00010000
00001000
00100000
,
00010000
00000000
01000000
00010000
00000000
01000000
00010000
00000000
,
00100000
01000000
10000000
01000000
,
00100000
00000000
00001000
00010000
00000000
00000100
00001000
00000000
,
00000010
00000000
00000100
00000001
00000000
00001000
00000100
00000000
,
00000010
00000100
00000010
00000100
00000010
00000000
00000000
00000000
,
00000001
00001000
00000001
00001000
00000001
00000000
00000000
00000000
,
00000110
00000000
00000000
00000000
00001000
00000010
00001000
00000000
,
00000010
00010000
00000000
00001000
,
00010000
00000000
00000000
00000000
00001000
00100000
00001000
00000000
,
00100000
00001000
00000000
00010000
,
00001000
00000000
00000000
00000000
00010000
00001000
00010000
00001000
,
00010000
00000000
00000000
00000000
00001000
00010000
00001000
00010000
,
00001000
00000000
00001000
00000000
,
00001000
00000000
00011000
00000000
,
00001000
00000010
00000001
00000100
,
00000000
00001000
00010000
00000000
,
00010000
00100000
10000000
01000000
,
00000000
00010000
00001000
00000000
,
01000000
00001000
00000000
00010000
,
00000010
00000000
00000100
00000001
,
00000000
00000010
00000100
00000000
,
00010000
00000000
00011000
00000000
,
00010000
01000000
10000000
00100000
,
00000000
00010000
00001000
00000000
,
00001000
00000100
00000001
00000010
,
00000000
00001000
00010000
00000000
,
00001000
01000000
00000000
00010000
,
00000100
00000000
00001000
00100000
,
00000000
00010000
00000010
00000100
,
00000001
00000000
00000010
00000000
,
00000220
00000000
00000330
00000000
,
10000000
00000000
01000000
00000000
00001000
00000000
00010000
00000000
00000010
00000000
00000001
00000000
00000100
00000000
00001000
00010000
,
00001000
00000000
00000000
00011000
00000000
00000000
00001000
00010000
01000000
10000000
00100000
00010000
,
00001000
00022000
00000000
00000000
,
00000000
00000000
00000000
00000000
,
00000000
00000000
00000000
00000000
,
00000000
00000000
00033000
00000000
,
00000000
00000000
00000000
00000000
;
