
//----- song ID: meh4 -----//
#TITLE:melody H4CKER;
#ARTIST:Moe Shop;
#BANNER:melody H4CKER.png;
#BACKGROUND:melody H4CKER-bg.png;
#CDTITLE:./CDTitles/DANCERUSH STARDOM.png;
#MUSIC:melody H4CKER.ogg;
#SAMPLESTART:26.322;
#SAMPLELENGTH:15;
#BPMS:0=155;
#BGSTAGE:15;
#NOTES:
     dance-single:
     :
     Beginner:
     2:
     :
0000
0000
0000
0000
,
0000
0000
0000
0000
,
0000
0000
0000
0000
,
0000
0000
0000
0000
,
0000
0000
0000
0000
,
0001
0000
0001
0000
,
0010
0000
0000
0000
,
0010
0000
0010
0000
,
1000
0000
0000
0000
,
2000
0000
0000
0000
,
3000
0000
0000
0000
,
0020
0000
0000
0000
,
0030
0000
0000
0000
,
0002
0000
0000
0000
,
0003
0000
0000
0000
,
0020
0000
0000
0000
,
0030
0000
0000
0000
,
1000
0000
1000
0000
,
0010
0000
0000
0000
,
0100
0000
0000
0000
,
0000
0000
0000
0000
,
0001
0000
0001
0000
,
0010
0000
0000
0000
,
0100
0000
0000
0000
,
0000
0000
0000
0000
,
1001
0000
0000
0000
,
0001
0000
0010
0000
,
0001
0000
0000
0000
,
0001
0000
0001
0000
,
0010
0000
0000
0000
,
0010
0000
1000
0000
,
0010
0000
0000
0000
,
0010
0000
0010
0000
,
1000
0000
0000
0000
,
0000
0000
0000
0000
,
0100
0000
0000
0000
,
0000
0000
0000
0000
,
0010
0000
0000
0000
,
0000
0000
0000
0000
,
0001
0000
0000
0000
,
0000
0000
0000
0000
,
1001
0000
0000
0000
,
0000
0000
0000
0000
,
1001
0000
0000
0000
,
0000
0000
0000
0000
,
0001
0000
0010
0000
,
0001
0000
0000
0000
,
0001
0000
0001
0000
,
0010
0000
0000
0000
,
1000
0000
0000
0000
,
1000
0000
0000
0000
,
1000
0000
1000
0000
,
1000
0000
0000
0000
,
0010
0000
0000
0000
,
0010
0000
0000
0000
,
0010
0000
0010
0000
,
0010
0000
0000
0000
,
0100
0000
0000
0000
,
0100
0000
0000
0000
,
0100
0000
0100
0000
,
0100
0000
0000
0000
,
0001
0000
0000
0000
,
0001
0000
0000
0000
,
0001
0000
0001
0000
,
0001
0000
0000
0000
,
1001
0000
0000
0000
,
0000
0000
0000
0000
;
#NOTES:
     dance-single:
     :
     Easy:
     6:
     :
0000
0000
0000
0000
,
0000
0000
0000
0000
,
0000
0000
0000
0000
,
0000
0000
0000
0000
,
0000
0000
0000
0000
,
0002
0000
0013
0000
,
2000
0000
3010
0000
,
0002
0000
1003
0001
,
1000
0001
1001
0000
,
2000
0000
3100
0000
,
0002
0003
2000
3000
,
0002
0000
0103
0000
,
2000
3000
0002
0003
,
2000
0000
0010
3010
,
0002
0000
0010
0013
,
1000
0001
0100
0010
,
0220
0330
0010
0100
,
0001
0001
1000
1000
,
0010
0100
0110
1001
,
2000
0000
0100
3100
,
0002
0000
0100
0103
,
1000
0100
0010
0001
,
1000
0001
0110
1001
,
0002
0000
0010
0013
,
1000
0001
0110
1001
,
1000
0100
0010
0001
,
0001
0010
1000
0010
,
0002
0000
0103
0000
,
2000
0000
3010
0000
,
0001
0010
0100
1000
,
1000
0010
0001
0010
,
1000
0001
0110
1001
,
0001
1000
1001
0000
,
0002
0000
0013
0000
,
2000
0000
3100
0000
,
0002
0000
0100
0103
,
2000
0000
0010
3010
,
0002
0000
0013
0000
,
2000
0000
3100
0000
,
0002
0000
0100
0103
,
2000
0000
0002
3003
,
0002
0000
0000
0003
,
2000
0000
0000
3000
,
0220
0000
0000
0330
,
2002
0000
0000
3003
,
0002
0000
0013
0000
,
2000
0000
3100
0000
,
2002
3003
0110
0000
,
2002
0000
0000
3003
,
0002
0000
0103
0000
,
0002
0000
0103
0000
,
0002
0000
0103
0000
,
2000
0000
3100
0000
,
0002
0103
2000
3100
,
0001
0010
0100
1000
,
2000
3100
0002
0103
,
1000
0001
1001
0000
,
2000
0000
3100
0000
,
2000
0000
3100
0000
,
2000
0000
3100
0000
,
0002
0000
0103
0000
,
2000
3100
0002
0103
,
1000
0100
0010
0001
,
0002
0103
2000
3100
,
0001
1000
0110
1001
,
0110
0000
0000
0000
,
0000
0000
0000
0000
;
#NOTES:
     dance-single:
     :
     Medium:
     12:
     :
0000
0000
0000
0000
,
0000
0000
0000
0000
,
0000
0000
0000
0000
,
0000
0000
0000
0000
,
0000
0000
0000
0000
,
0001
0100
0010
1000
0001
0100
1000
0100
,
0001
0001
0100
0000
1000
1000
0100
0000
,
0001
0100
0010
1000
0001
0010
1000
0010
,
0001
0001
1000
1000
0100
0010
0110
0000
,
0001
0010
0001
0010
0001
0100
0001
0100
,
0010
1000
0010
1000
0100
1000
0100
0000
,
1000
0010
1000
0010
1000
0100
1000
0100
,
0010
0001
0010
0001
0100
0001
0100
0000
,
0001
0100
0010
0000
1000
0100
0010
0000
,
0001
0010
0100
0000
1000
0010
0100
0000
,
0001
0100
1000
0100
0001
1000
0010
0100
,
0002
0000
0000
0003
,
0201
1000
0001
1000
,
0301
0000
1001
0100
1001
0000
1001
0000
,
1200
0001
1000
0001
,
1300
0000
1001
0100
1001
0000
1001
0000
,
0021
1000
0001
1000
,
0031
0000
1001
0010
1001
0000
1001
0000
,
1020
0001
1000
0001
,
1030
0000
1001
0010
1001
0000
1001
0000
,
2000
3100
0200
0310
0020
0031
0002
1003
,
0100
0000
1001
0000
0100
0010
1001
0000
,
0002
0103
0200
0310
0020
1030
2000
3001
,
0100
0000
1001
0000
0100
0010
1001
0000
,
0001
0100
0010
0100
1000
0100
0001
0000
,
1000
0100
0010
0100
0001
0100
1000
0000
,
0002
0010
1000
0103
,
2000
0010
0002
3003
,
0001
0010
0100
1000
0001
0002
0010
0103
,
0002
0010
0103
0002
0010
0103
0001
0000
,
1000
0010
0100
0001
1000
1000
0020
0100
,
1030
0020
0100
1030
0020
0100
1030
0000
,
0001
0100
0010
1000
0001
0002
0100
0013
,
0002
0100
0013
0002
0100
0013
0001
0000
,
1000
0100
0010
0001
1000
2000
0100
3010
,
2000
0100
3010
2000
0100
3010
1000
0000
,
0002
0100
0010
1000
,
0203
1000
0010
0301
,
2000
0100
0010
0001
,
3200
0001
0010
1300
,
0001
0100
0010
0100
0001
0100
0010
0000
,
1000
0100
0010
0100
1000
0100
0010
0000
,
0001
0100
0010
1000
0100
0010
0001
0100
,
0020
0000
0000
0030
,
1001
0000
1001
0000
0001
1000
0010
0000
,
1001
0000
1001
0000
1000
0001
0010
0000
,
1001
0000
1001
0000
0001
1000
0100
0000
,
1001
0000
1001
0000
1000
0001
0100
0000
,
0001
0010
0100
0010
1000
0010
0100
0010
,
0001
1000
0100
0010
0001
1000
0001
0000
,
1000
0010
0100
0010
0001
0010
0100
0010
,
1000
0001
0100
0010
1000
0001
0000
0000
,
1000
0010
0001
0010
1000
0002
0010
1003
,
0002
0010
1003
0002
0010
1003
0001
1000
,
0001
0010
1000
0010
0001
2000
0010
3001
,
2000
0010
3001
2000
0010
3001
1000
0001
,
1000
0100
0010
0100
1000
0020
0100
1030
,
0020
0100
1030
0020
0100
1030
1000
0000
,
0001
0010
0100
0010
0001
1000
0100
0010
,
0001
1000
0001
0000
0100
0000
0010
0000
1000
0000
0001
1000
0000
0000
0000
0000
,
1001
0000
0000
0000
,
0000
0000
0000
0000
;
#NOTES:
     dance-single:
     :
     Hard:
     15:
     :
0000
0000
0000
0000
,
0000
0000
0000
0000
,
0000
0000
0000
0000
,
0000
0000
0000
0000
,
0000
0000
0000
0000
,
0001
0000
0100
0010
1000
0000
0001
0000
0100
0000
1000
0000
0100
0000
0001
0000
,
1000
0010
1000
0000
0100
0000
1000
0000
0010
0000
0100
0000
0010
0000
0100
0000
,
0001
0000
0100
0010
1000
0000
0001
0000
0100
0000
1000
0000
0100
0000
0001
0000
,
0010
0000
0010
0100
0010
0000
0001
0000
1000
0001
1000
0000
0001
1000
0001
1000
,
0001
0000
0010
1000
0010
0000
0001
0000
1000
0100
0010
0000
0001
0000
0001
0000
,
0100
0010
1000
0010
0100
0001
1001
0000
,
1000
0000
0010
0001
0010
0000
1000
0000
0001
0100
0010
0000
1000
0000
1000
0000
,
0100
0000
0010
0001
0010
0000
0100
0000
0001
0100
1000
0000
0100
0000
0000
0000
,
1000
0100
1000
0100
1000
0010
1000
0010
,
0100
1000
0100
1000
0100
0001
0100
0001
,
1000
0010
1000
0010
0100
0001
0100
0000
0001
0010
0001
0010
0100
1000
0100
0000
,
2000
0000
0000
3000
,
0001
0100
1000
0000
1000
0100
0001
0000
,
1001
0100
1001
0100
1001
0100
1001
0000
,
1000
0100
0001
0000
0001
0100
1000
0000
,
0001
0100
0010
0000
1000
0100
0010
0000
2002
0000
0000
0000
3003
0000
0000
0000
,
0001
0010
1000
0000
1000
0010
0001
0000
,
1001
0010
1001
0010
1001
0010
1001
0000
,
1000
0010
0001
0000
0001
0010
1000
0000
,
0010
0010
0100
0100
2002
0000
3003
0000
,
1000
0000
0100
0010
0001
0000
1000
0010
1000
0010
1000
0100
1000
0000
0100
1000
,
0000
0001
0100
0000
0001
0010
0001
0010
0000
0001
1000
0001
1000
0000
0000
0000
,
0001
0000
0010
0100
0010
0000
0001
1000
0001
0000
0100
0010
0000
1000
0010
0000
,
1000
0000
0000
0000
0000
0000
0100
0000
0000
0001
0000
0000
0000
0000
0000
0100
0000
0000
1000
0000
0000
0000
0000
0000
0002
0000
0000
0000
0000
0000
0000
0000
0000
0000
0000
0000
0013
0000
0000
0000
0100
0000
0000
0000
0010
0000
0000
0000
,
0001
0000
0100
0010
1000
0000
0001
0010
0001
0010
0001
0100
0001
0000
0100
0001
,
0000
1000
0100
0000
1000
0010
1000
0010
0000
1000
0001
1000
0001
0000
0000
0000
,
1000
0000
0010
0100
0010
0000
1000
0001
1000
0000
0100
0010
0000
0001
0010
0000
,
0001
0000
0100
1000
0000
0100
0001
0000
2000
0000
0000
0000
0000
0000
0000
0000
,
3001
0100
1000
0100
0001
0010
0010
0100
,
1000
0000
0100
0000
0001
0000
1000
0000
0010
0000
0001
0000
1000
0001
1000
0001
,
1000
0100
0001
0100
1000
0010
0010
0100
,
0001
0000
0100
0000
1000
0000
0001
0000
0010
0000
1000
0000
0001
1000
0001
1000
,
0010
0100
1000
0100
0010
1000
0100
0010
,
0001
0000
0100
0000
0010
0000
0001
0000
0010
0000
0100
0000
0001
1000
0001
1000
,
0010
0100
1000
0100
0010
1000
0100
0010
,
0001
0000
0100
0000
0010
0000
0001
0000
1000
0000
0100
0000
0001
1000
0001
1000
,
0100
1000
0001
0010
0001
0100
1000
0001
,
0100
0000
1000
0000
0001
0000
0100
0000
1000
0000
0001
0000
1000
0001
0000
0001
,
0100
1000
0001
0010
0001
0100
1000
0001
,
0100
0000
1000
0000
0001
0000
0100
0000
1000
0000
0001
0000
1000
0001
0000
0001
,
1000
0010
1000
0010
0100
0001
0100
0000
0001
0010
0001
0010
0100
1000
0100
0000
,
1000
0100
0010
0001
1000
0100
0010
0000
0001
0100
0010
1000
0001
0100
0010
0000
,
1000
0010
0100
0001
1000
0100
0010
0001
1000
0010
0100
0001
0100
0000
0110
0000
,
0010
1000
0010
1000
0010
1000
0010
1000
0010
1000
0010
1000
0010
0000
0000
0000
,
1000
0010
0100
0000
0001
0010
0100
0000
1000
0100
0010
0000
0001
0100
0010
0000
,
1000
0001
0100
0000
0010
1000
0100
0000
0010
0001
0000
0000
0010
0001
0000
0000
,
0001
0010
0100
0000
1000
0010
0100
0000
0001
0100
0010
0000
1000
0100
0010
0000
,
0001
1000
0100
0000
0010
0001
0100
0000
0010
1000
0000
0000
0010
1000
0000
0000
,
0001
0100
0010
0000
1000
0010
0001
0000
0010
0100
1000
0000
0100
0010
1000
0010
,
0100
0001
1000
0000
0100
0010
0001
0000
1000
0010
0000
0000
1000
0100
0000
0000
,
1000
0100
0010
0000
0001
0010
1000
0000
0010
0100
0001
0000
0100
0010
0001
0010
,
0100
1000
0001
0000
0100
0010
1000
0000
0001
0010
0000
0010
0000
0000
0001
0000
,
0101
0100
1000
0010
0100
0101
0100
1000
,
0101
0000
0100
0000
1000
0000
0101
0000
0100
0000
1000
0000
0001
0010
0001
0000
,
0101
0100
1000
0010
0100
0101
0100
1000
,
0101
0000
0100
0000
1000
0000
0101
0000
0100
0000
1000
0000
0001
0010
0001
0000
,
1000
0100
0010
0000
0001
1000
0001
0100
0000
0001
0010
0001
0000
0010
0100
1000
,
0100
1000
0100
0000
1000
0010
0100
0001
0000
0010
0001
0010
0000
0001
1000
0000
,
0101
0100
1000
0010
0100
0101
0100
1000
,
0010
1000
0010
1000
0010
1000
0010
1000
0010
1000
0010
0000
1000
0100
0010
0001
,
1000
0000
0000
0000
,
0000
0000
0000
0000
;
#NOTES:
     dance-double:
     :
     Easy:
     6:
     :
00000000
00000000
00000000
00000000
,
00000000
00000000
00000000
00000000
,
00000000
00000000
00000000
00000000
,
00000000
00000000
00000000
00000000
,
00000000
00000000
00000000
00000000
,
00002000
00000000
00013000
00000000
,
00020000
00000000
00031000
00000000
,
00002000
00000000
00013000
00000010
,
00001000
00000001
00001001
00000000
,
00002000
00000000
00003100
00000000
,
00000200
00000300
00020000
00030000
,
00002000
00000000
00013000
00000000
,
00200000
00300000
00020000
00030000
,
02000000
00000000
00100000
03100000
,
00020000
00000000
10000000
10030000
,
10000000
01000000
00100000
00001000
,
00022000
00033000
00001000
00010000
,
00000010
00000010
00001000
00001000
,
00000010
00000100
00000110
00001001
,
00002000
00000000
00000100
00003100
,
00000020
00000000
00010000
00010030
,
00010000
00100000
00010000
00001000
,
01000000
00010000
01100000
10010000
,
00020000
00000000
00100000
00130000
,
10000000
00010000
01100000
10010000
,
10000000
01000000
00010000
00001000
,
00001000
00010000
00100000
00010000
,
00002000
00000000
00013000
00000000
,
00020000
00000000
00031000
00000000
,
00001000
00010000
00100000
10000000
,
10000000
01000000
00010000
01000000
,
10000000
00010000
01100000
10010000
,
00010000
00100000
00001000
00000000
,
00002000
00000000
00013000
00000000
,
00020000
00000000
00030100
00000000
,
00000200
00000000
00001000
00001300
,
00002000
00000000
00000010
00003010
,
00000002
00000000
00000103
00000000
,
00002000
00000000
00003100
00000000
,
00000200
00000000
00010000
00010300
,
00020000
00000000
00002000
00033000
,
00002000
00000000
00000000
00003000
,
02000000
00000000
00000000
03000000
,
02200000
00000000
00000000
03300000
,
20020000
00000000
00000000
30030000
,
00020000
00000000
01030000
00000000
,
02000000
00000000
03001000
00000000
,
00022000
00033000
00011000
00000000
,
00022000
00000000
00000000
00033000
,
00000020
00000000
00001030
00000000
,
00000020
00000000
00001030
00000000
,
00000002
00000000
00000103
00000000
,
00002000
00000000
00003100
00000000
,
00000002
00000103
00002000
00003100
,
00000001
00000010
00001000
00010000
,
00200000
00310000
00002000
00013000
,
00100000
01000000
01100000
00000000
,
20000000
00000000
31000000
00000000
,
20000000
00000000
31000000
00000000
,
20000000
00000000
31000000
00000000
,
00020000
00000000
01030000
00000000
,
20000000
31000000
00020000
01030000
,
10000000
01000000
00010000
00001000
,
00002000
00013000
00020000
00031000
,
00001000
00010000
00000100
00000110
,
00001001
00000000
00000000
00000000
,
00000000
00000000
00000000
00000000
;
#NOTES:
     dance-double:
     :
     Medium:
     11:
     :
00000000
00000000
00000000
00000000
,
00000000
00000000
00000000
00000000
,
00000000
00000000
00000000
00000000
,
00000000
00000000
00000000
00000000
,
00000000
00000000
00000000
00000000
,
00001000
00010000
00001000
00010000
00100000
01000000
00100000
00000000
,
10000000
10000000
01000000
00000000
00010000
00010000
01000000
00000000
,
10000000
01000000
00100000
00010000
00100000
00001000
00010000
00001000
,
00010000
00010000
00000100
00000100
00001000
00000000
00000110
00000000
,
00000001
00000100
00000001
00000100
00001000
00000100
00001000
00010000
,
00001000
00010000
00001000
00010000
00100000
00010000
00100000
00000000
,
10000000
01000000
10000000
01000000
00010000
01000000
00010000
00001000
,
00010000
00001000
00010000
00001000
00000010
00001000
00000010
00000000
,
00000001
00000100
00000010
00000000
00001000
00000100
00000010
00000000
,
00000001
00000100
00001000
00000000
00010000
00000000
00011000
00000000
,
00010000
00001000
00010000
00100000
00010000
00001000
00010000
00100000
,
20000000
00000000
00000000
30000000
,
12000000
00010000
10000000
00010000
,
13000000
00000000
10010000
01000000
10010000
00000000
10010000
00000000
,
10000000
01000000
00010000
00000000
00001000
00010000
00001000
00000000
,
00011000
00010000
00011000
00000000
00022000
00000000
00033000
00000000
,
00010000
00001000
00000100
00000000
00000001
00001000
00000001
00000000
,
00001001
00000000
00001001
00000100
00001001
00000000
00001001
00000000
,
00000201
00001000
00000001
00001000
,
00000301
00000000
00001001
00000100
00001001
00000000
00001001
00000000
,
00000001
00000100
00001000
00000000
00010000
00001000
00010000
00000000
,
00011000
00001000
00011000
00000000
00011000
00010000
00011000
00000000
,
00001000
00010000
00100000
00000000
10000000
00010000
10000000
00000000
,
10010000
01000000
10010000
01000000
20020000
00000000
30030000
00000000
,
10000000
00100000
01000000
00100000
00010000
00001000
00010000
00000000
,
00001000
00000010
00000100
00000010
00000001
00001000
00000001
00000000
,
00000002
00000010
00002003
00000010
,
00003200
00010300
00022000
00033000
,
00001000
00010000
00100000
01000000
00001000
00001000
00010000
00100000
,
01000000
00100000
00010000
00001000
00010000
00100000
01000000
00000000
,
00010000
01000000
10000000
01000000
00010000
10000000
01000000
00010000
,
00001000
00010000
01000000
10000000
01000000
00010000
00001000
00000000
,
00010000
00001000
00000100
00000010
00010000
00010000
00001000
00000100
,
00000010
00000100
00001000
00010000
00001000
00000100
00000010
00000000
,
00001000
00000010
00000001
00000010
00001000
00000001
00000010
00001000
,
00010000
00001000
00000010
00000001
00000010
00001000
00010000
00000000
,
00022000
00000000
00000000
00000000
,
00000000
00000000
00000000
00000000
00033000
00000000
00000000
00000100
,
00000220
00000000
00000000
00000000
,
00000000
00000000
00000000
00000330
,
00000001
00000100
00000010
00000100
00001000
00010000
00001000
00000000
,
00010000
00001000
00010000
01000000
00100000
01000000
10000000
00000000
,
10000000
01000000
00100000
00010000
00001000
00000100
00000010
00000000
,
00000002
00000000
00000000
00000003
,
00001001
00000100
00001001
00000000
00001001
00000100
00001001
00000000
,
00000001
00000000
00000100
00000000
00001000
00010000
00001000
00000000
,
00011000
00010000
00011000
00000000
00011000
00001000
00011000
00000000
,
00001000
00010000
00100000
00000000
20000000
00000000
30010000
00000000
,
10010000
01000000
10010000
00000000
10010000
01000000
10010000
00000000
,
10000000
00000000
01000000
00000000
00010000
00001000
00010000
00000000
,
00011000
00001000
00011000
00000000
00011000
00010000
00011000
00000000
,
00010000
00001000
00000010
00000000
00000001
00001000
00000000
00000000
,
00000001
00000100
00001000
00000100
00000001
00000010
00000100
00001000
,
00000010
00000100
00001000
00000100
00001000
00010000
00001000
00000000
,
00010000
00001000
00100000
00010000
01000000
00100000
00010000
00001000
,
00100000
00010000
01000000
00100000
00010000
00001000
01000000
00000000
,
00010000
01000000
10000000
01000000
00010000
10000000
01000000
00010000
,
00001000
00010000
01000000
00010000
00001000
01000000
00010000
00000000
,
10000000
00100000
10000000
00100000
00010000
00001000
00010000
00001000
,
00000010
00000000
00000001
00000000
00000010
00000000
00000001
00000000
00000100
00000000
00000010
00001000
00000000
00000000
00000000
00000000
,
00001001
00000000
00000000
00000000
,
00000000
00000000
00000000
00000000
;
#NOTES:
     dance-double:
     :
     Hard:
     15:
     :
00000000
00000000
00000000
00000000
,
00000000
00000000
00000000
00000000
,
00000000
00000000
00000000
00000000
,
00000000
00000000
00000000
00000000
,
00000000
00000000
00000000
00000000
,
00000001
00000000
00000100
00000010
00001000
00000000
00000001
00000000
00000010
00000000
00001000
00000000
00010000
00000000
01000000
00000000
,
10000000
00100000
10000000
00000000
01000000
00000000
00010000
00000000
01000000
00000000
10000000
00000000
00010000
00000000
01000000
00000000
,
00100000
00000000
00010000
00001000
00010000
00000000
00001000
00000000
00000010
00000000
00000001
00000000
00001000
00000000
00000100
00000000
,
00000010
00000000
00000010
00000001
00000010
00000000
00000001
00000000
00001000
00000001
00001000
00000000
00000010
00000100
00000010
00000000
,
00001000
00000000
00000100
00010000
00000100
00000000
00001000
00000000
00000010
00000100
00000010
00000000
00000100
00000000
00001000
00000000
,
00010000
00100000
01000000
00100000
10000000
00010000
00200000
00000000
,
01300000
00000000
10000000
00100000
10000000
00000000
01000000
00000000
00100000
00001000
00010000
00000000
00001000
00000000
00001000
00000000
,
00010000
00000000
00000010
00001000
00000010
00000000
00000100
00000000
00000001
00000010
00000100
00000000
00001001
00000000
00000000
00000000
,
00000001
00000100
00001000
00010000
00001000
00000010
00001000
00010000
,
01000000
00010000
00001000
00010000
00100000
10000000
00010000
01000000
,
00100000
10000000
00100000
00000000
01000000
00010000
01000000
00000000
00010000
00100000
00001000
00010000
00000100
00001000
00000100
00000000
,
00000020
00000000
00000000
00000030
,
00000001
00000100
00001000
00000000
00001000
00000100
00000001
00000000
,
00001001
00000100
00001001
00000100
00001001
00000100
00001001
00000000
,
00000001
00000100
00001000
00010000
00011000
00001000
00011000
00000000
,
00010000
00001000
00010000
00000000
00001000
00000000
01000000
00010000
02000000
00000000
00000000
00000000
03000000
00000000
00000000
00000000
,
00010000
01000000
10000000
00000000
10000000
01000000
00010000
00000000
,
10010000
01000000
10010000
01000000
10010000
01000000
10010000
00000000
,
10000000
01000000
00010000
00001000
00011000
00010000
00011000
00000000
,
00001000
00000000
00001000
00000000
00010000
00000000
00000100
00001000
00000200
00000000
00000000
00000000
00000300
00000000
00000000
00000000
,
00000110
00000000
00000001
00001000
00000001
00000000
00000100
00000010
00000100
00000000
00000010
00001000
00000010
00000000
00001000
00000100
,
00000000
00010000
00001000
00000000
00001000
00010000
00001000
00010000
00000000
00001000
01000000
00001000
01000000
00000000
00000000
00000000
,
00010000
00000000
00100000
01000000
00100000
00000000
00010000
10000000
00010000
00000000
01000000
00100000
00000000
00100000
00010000
00000000
,
00001000
00000000
00000000
00000000
00000000
00000000
00000100
00000000
00000000
00000001
00000000
00000000
00000000
00000000
00000000
00000001
00000000
00000000
00001000
00000000
00000000
00000000
00000000
00000000
00000200
00000000
00000000
00000000
00000000
00000000
00000000
00000000
00000000
00000000
00000000
00000000
00000310
00000000
00000000
00000000
00000001
00000000
00000000
00000000
00001000
00000000
00000000
00000000
,
00000010
00000000
00000100
00000010
00001000
00000000
00000100
00001000
00000100
00000000
00010000
00001000
00010000
00000000
00001000
00100000
,
00000000
00010000
01000000
00000000
00010000
00100000
00010000
00100000
00000000
01000000
10000000
01000000
10000000
00000000
00000000
00000000
,
10000000
00000000
00010000
01000000
00010000
00000000
10000000
00000000
01000000
00000000
00010000
00001000
00000000
00001000
00000010
00000000
,
00000001
00000000
00000100
00001000
00000000
00000100
00000001
00000000
00002000
00000000
00000000
00000000
00000000
00000000
00000000
00000000
,
00003100
00000010
00001000
00010000
00001000
00000100
00000010
00010000
,
00000100
00000000
00000010
00000000
00001000
00000000
00000010
00000000
00000100
00000000
00010000
00000000
00001000
00010000
00001000
00010000
,
00001000
00010000
00100000
01000000
00001000
00010000
01000000
00100000
,
00010000
00000000
01000000
00000000
00100000
00000000
00010000
00000000
00100000
00000000
01000000
00000000
00010000
10000000
00010000
10000000
,
01000000
00010000
00001000
00000010
00001000
00010000
00001000
00000100
,
00001000
00000000
00010000
00000000
00100000
00000000
01000000
00000000
00001000
00000000
00010000
00000000
00100000
01000000
00100000
01000000
,
00100000
00010000
00001000
00000100
00000010
00001000
00000100
00000010
,
00001000
00000000
00010000
00000000
00001000
00000000
00000100
00000000
00001000
00000000
00010000
00000000
00100000
01000000
00100000
00000000
,
10000000
01000000
00010000
01000000
10000000
00010000
01000000
10000000
,
00010000
00000000
01000000
00000000
10000000
00000000
00010000
00000000
01000000
00000000
10000000
00000000
00010000
10000000
00000000
10000000
,
00010000
01000000
00100000
00010000
00001000
00000010
00000100
00001000
,
00000010
00000000
00000100
00000000
00001000
00000000
00010000
00000000
00001000
00000000
00000010
00000000
00000001
00001000
00000000
00001000
,
00000001
00000100
00001000
00000100
00000001
00001000
00000100
00000001
,
00001000
00000000
00000100
00000000
00000001
00000000
00001000
00000000
00000100
00000000
00000001
00000000
00001000
00000001
00000000
00000001
,
00001000
00000010
00000100
00000010
00001000
00000010
00000100
00000000
00001000
00010000
00001000
00010000
00001000
01000000
00010000
00000000
,
00100000
01000000
00100000
01000000
00100000
01000000
00100000
01000000
00100000
01000000
00100000
01000000
00100000
00000000
00000000
00000000
,
00010000
00100000
01000000
00000000
10000000
00100000
01000000
00000000
00010000
00100000
00001000
00000000
00010000
00000100
00001000
00000000
,
00000010
00001000
00000100
00000000
00000010
00000001
00000100
00000000
00000010
00001000
00000000
00000000
00000010
00001000
00000000
00000000
,
00001000
00000010
00000100
00000000
00000001
00000010
00000100
00000000
00001000
00000010
00010000
00000000
00001000
01000000
00010000
00000000
,
00100000
00010000
01000000
00000000
00100000
10000000
01000000
00000000
00100000
00010000
00000000
00000000
00100000
00010000
00000000
00000000
,
00010000
01000000
00100000
00000000
00010000
00001000
00010000
00000000
00000100
00000010
00001000
00000000
00010000
00001000
00010000
00000000
,
00001000
00100000
01000000
00000000
00100000
00001000
00010000
00000000
00001000
00010000
00000000
00000000
00001000
00010000
00000000
00000000
,
00010000
00000100
00000010
00000000
00001000
00010000
00001000
00000000
01000000
00100000
00010000
00000000
00001000
00010000
00001000
00000000
,
00010000
00000010
00000100
00000000
00000010
00010000
00001000
00000000
00010000
00001000
00000000
00001000
00000000
00000000
00010000
00000000
,
00011000
00001000
01000000
00100000
01000000
01100000
00100000
00010000
,
00011000
00000000
00001000
00000000
00010000
00000000
00011000
00000000
00001000
00000000
00000010
00000000
00000100
00000010
00000100
00000000
,
00000110
00000010
00001000
00010000
00001000
00011000
00010000
00100000
,
01100000
00000000
01000000
00000000
00100000
00000000
01100000
00000000
01000000
00000000
00001000
00000000
00010000
00001000
00010000
00000000
,
00001000
00010000
00000010
00000000
00001000
00000100
00000010
00000000
00000001
00000100
00000001
00000000
00000010
00000100
00001000
00000100
,
00010000
00000000
00001000
00100000
00001000
00000000
00010000
00000000
00100000
01000000
00100000
00000000
10000000
00010000
00000000
00010000
,
10000000
01000000
10000000
01000000
00100000
00000000
00100000
00000000
00001000
00010000
00001000
00010000
00000100
00000000
00000100
00000000
,
00000010
00000001
00000010
00000001
00000010
00000001
00000010
00000001
00000010
00000001
00000010
00000000
00000001
00000100
00001000
00000000
,
00011000
00000000
00000000
00000000
,
00000000
00000000
00000000
00000000
;
