
//----- song ID: mago -----//
#TITLE:mathematical good-bye;
#ARTIST:三代目 ADULTIC TEACHERS feat. BEMANI Sound Team "スコーピオン志村";
#ARTISTTRANSLIT:Sandaime ADULTIC TEACHERS feat. BEMANI Sound Team "Scorpion Shimura";
#BANNER:mathematical good-bye.png;
#BACKGROUND:mathematical good-bye-bg.png;
#CDTITLE:./CDTitles/DDR A3.png;
#MUSIC:mathematical good-bye.ogg;
#SAMPLESTART:13.353;
#SAMPLELENGTH:15;
#BPMS:0=182;
#BGSTAGE:16;
#NOTES:
     dance-single:
     :
     Beginner:
     3:
     :
0000
0000
0000
0000
,
0000
0000
0000
0000
,
0000
0000
0000
0000
,
0000
0000
0000
0000
,
0000
0000
0000
0000
,
0000
0000
0000
0000
,
0000
0000
0000
0000
,
0000
0000
0000
0000
,
0000
0000
0000
0000
,
0000
0000
0000
0000
,
1000
0000
0001
0000
,
1000
0000
0000
0000
,
0010
0000
0100
0000
,
0010
0000
0000
0000
,
1000
0000
0100
0000
,
0010
0000
0001
0000
,
1000
0000
0001
0000
,
1000
0000
0000
0000
,
0100
0000
0010
0000
,
0100
0000
0000
0000
,
1000
0000
0001
0000
,
1000
0000
0000
0000
,
0001
0000
1000
0000
,
1001
0000
0000
0000
,
1000
0000
0001
0000
,
0010
0000
0000
0000
,
0001
0000
0001
0000
,
1000
0000
1000
0000
,
0001
0000
0010
0000
,
0100
0000
1000
0000
,
1000
0000
0100
0000
,
0010
0000
0001
0000
,
1000
0000
0001
0000
,
1000
0000
1001
0000
,
0001
0000
0000
0000
,
1000
0000
0000
0000
,
0100
0000
0000
0000
,
0010
0000
0000
0000
,
0001
0000
0000
0000
,
0100
0000
0000
0000
,
0010
0000
0000
0000
,
1000
0000
0000
0000
,
1001
0000
0000
0000
,
0001
0000
0000
0000
,
0010
0000
0000
0000
,
0100
0000
0000
0000
,
1000
0000
0000
0000
,
0010
0000
0000
0000
,
0100
0000
0000
0000
,
0110
0000
0000
0000
,
0000
1000
0000
0000
,
0001
0000
0000
1001
,
0000
1000
0000
0000
,
0001
0000
0000
1001
,
0000
0000
0000
0000
,
1000
0000
0000
0000
,
0010
0000
0000
0000
,
0100
0000
0000
0000
,
0001
0000
0000
1001
,
0000
0000
0000
0000
,
1000
0000
0000
1001
,
0000
0000
0000
0000
,
1000
0000
0000
0000
,
0100
0000
0000
0000
,
0010
0000
0000
0000
,
0001
0000
0000
0000
,
1000
0000
1000
0000
,
0001
0000
0000
0000
,
0001
0000
0001
0000
,
1000
0000
0000
0000
,
0010
0000
1000
0000
,
0001
0000
0000
0000
,
0010
0000
0001
0000
,
1000
0000
1001
0000
,
0000
0000
0001
0000
,
0010
0000
0100
0000
,
1000
0000
0000
0000
,
0002
0000
0003
0000
,
1000
0000
1000
0000
,
0100
0000
0010
0000
,
0001
0000
0000
0000
,
2000
0000
3000
0000
,
0001
0000
0001
0000
,
0010
0000
0100
0000
,
1000
0000
0000
0000
,
0001
0000
0000
0000
,
1001
0000
0000
0000
,
0100
0000
0000
0000
,
0010
0000
0100
0000
,
0110
0000
0110
0000
,
1001
0000
0000
0000
,
0000
0000
0000
0000
;
#NOTES:
     dance-single:
     :
     Easy:
     10:
     :
0000
0000
0000
0000
,
0000
0000
0000
0000
,
0000
0000
0000
0000
,
0000
0000
0000
0000
,
0000
0000
0000
0000
,
0000
0000
0000
0000
,
0000
0000
0000
0000
,
0000
0000
0000
0000
,
0000
0000
0000
0000
,
0000
0000
0000
0000
,
1000
0100
0010
0001
,
1000
0000
0100
0010
0001
0000
1001
0000
,
0001
0100
0010
1000
,
0001
0000
0100
0010
1000
0000
1001
0000
,
1000
0010
0001
0010
,
1000
0000
0010
0100
0001
0000
1001
0000
,
0001
0010
1000
0010
,
0001
0000
0010
0100
1000
0000
1001
0000
,
0000
0000
1001
0000
1000
0100
0000
0022
,
0000
0000
0033
0001
1000
0001
1000
0001
,
0000
0100
0010
1000
0100
0010
0001
2000
,
3000
0001
1000
0001
0010
0100
0010
0100
,
0000
0000
0110
0000
0100
0020
0030
2002
,
0000
0000
3003
0001
1000
0001
1000
0001
,
0000
0010
0001
0000
1000
0100
0000
0020
,
0000
0030
0001
0000
1000
0001
1000
0000
,
0100
0010
0100
0000
0110
0000
1000
0002
,
0003
1000
0100
0000
0010
0001
0000
2000
,
3000
0001
0100
0000
0100
0002
0003
1000
,
0100
1000
0001
0100
0001
0200
0300
0001
,
1000
0000
1000
0001
0010
0001
0010
0001
,
1000
0100
1000
0000
0001
0010
0002
0003
,
0000
1000
0001
0000
0010
0002
0003
0001
,
0010
0001
1000
0010
1000
0002
0000
0003
,
0000
1000
0100
2000
0000
3001
0100
0002
,
0000
0013
0100
2000
0000
3010
0100
0002
,
0000
1003
0100
0020
0000
0031
0100
0020
,
0000
1030
0001
0200
0000
0301
1000
0200
,
0000
0300
0020
0030
0001
1000
0000
2002
,
3003
0000
1000
0000
0100
0010
0000
0022
,
0000
0000
0000
0033
0000
0000
1000
0010
,
0000
1000
0000
0001
0010
0100
1000
0001
,
0000
0000
1000
0000
0010
0100
0000
0002
,
0000
0000
0000
0000
0000
1003
0100
2000
,
0000
0000
0000
0000
0000
3000
0002
0000
,
1000
0000
0000
0000
0100
0003
0000
0000
,
0000
0001
1000
0200
0000
0310
0001
0100
,
0020
0000
0000
0130
0000
0110
0000
0002
,
2000
0000
0000
3003
,
0110
0110
1001
1001
,
0000
1000
0100
0000
0001
0100
0000
1000
,
0100
0000
0001
0100
0000
0110
0110
0000
,
0000
1000
0010
0000
0001
0010
0000
1000
,
0010
0000
0001
0010
0000
0110
0110
0000
,
0000
0001
0010
0200
0000
1300
0010
0100
,
0002
0000
0000
2003
0000
3002
0000
0000
,
0200
0000
0000
0303
,
0001
0100
0010
1000
,
1001
0000
0000
0110
0000
0000
1001
0000
,
0000
0110
0000
0000
1001
0000
0000
0000
,
1001
0000
0000
0110
0000
0000
1001
0000
,
0000
0110
0000
0000
1001
0000
0000
0000
,
1000
0001
0100
0001
,
2000
0000
0000
3100
0000
0010
0000
0001
,
0020
0000
0000
0130
2000
0000
0000
3000
,
0002
0003
0200
0300
0020
0030
2000
3000
,
2020
0000
0000
3030
0110
0000
0000
0000
,
1000
0001
1000
0000
0001
0010
0100
0000
,
2000
0000
3000
0000
0010
0100
0001
0000
,
0200
0000
0300
0000
0010
0100
0010
0000
,
0200
0000
0300
0000
0001
0010
0001
0000
,
2000
0000
3000
0000
0001
0100
0001
0000
,
1000
0000
1001
0000
,
1000
0001
1000
0001
0100
0010
0100
0000
,
0000
0000
0002
0000
,
0023
0000
0230
0000
,
2300
0000
0000
0000
3000
0000
0100
0020
,
0000
0000
0000
0030
0000
0000
0000
0000
,
1100
0000
2000
0000
,
3200
0000
0320
0000
,
0032
0000
0203
0320
0000
2030
0000
3200
,
0000
0000
0000
0300
,
0011
0000
0002
0000
,
0203
0000
0320
0000
,
2030
0000
0000
0000
0000
0000
3100
0020
,
0000
0000
0031
0200
0000
0310
1000
0200
,
0000
0300
0110
0000
,
1001
0000
1001
0000
,
1000
0100
0010
0001
,
1001
0000
1001
0000
1000
0001
1000
0000
,
1001
0000
0000
0000
,
0000
0000
0000
0000
;
#NOTES:
     dance-single:
     :
     Medium:
     14:
     :
0000
0000
0000
0000
,
0000
0000
0000
0000
,
0000
0000
0000
0000
,
0000
0000
0000
0000
,
0000
0000
0000
0000
,
0000
0000
0000
0000
,
0001
0010
0100
1000
0001
1000
0100
0010
,
0001
0100
0010
1000
0001
1000
0010
0100
,
0220
0330
0220
0330
,
2002
0000
0000
3003
,
0001
0010
0100
1000
0001
0100
0010
1000
,
0001
0000
1000
0010
1000
0000
0010
0000
0100
0000
0001
0000
0100
0000
0001
0000
,
1000
0100
0010
0001
1000
0010
0100
0001
,
1000
0000
0001
0100
0001
0000
0100
0000
0010
0000
1000
0000
0010
0000
1000
0000
,
0001
0010
0001
1000
0010
0100
0010
1000
,
0010
0000
0100
0010
0100
0000
0010
0000
1000
0000
0100
0000
1000
0000
0100
0000
,
0010
0001
1000
0100
1000
0001
0100
0010
,
1000
0000
0010
0100
0010
0000
0100
0000
0001
0000
0010
0000
0001
0000
0010
0000
,
0011
0000
0001
0000
0100
0010
0000
2020
,
0000
0000
3030
1000
0010
0001
0010
1000
,
0000
0001
0010
1000
0010
0001
0100
2000
,
3000
0100
0001
0001
0100
0100
0010
0020
,
0000
0030
0200
0300
0001
0200
0300
2020
,
0000
0000
3030
1000
0100
0001
0100
1000
,
0000
1000
1000
0000
0001
0001
0000
0200
,
0000
0000
0302
0000
0013
0100
0010
0100
,
1000
0010
0100
0001
0010
0100
1000
2000
,
3000
0100
1000
0001
0100
0010
1000
2000
,
3000
0001
0100
1000
0100
0020
0030
1000
,
0100
0001
0100
1000
0010
0200
0300
0001
,
0001
0001
1000
0010
0001
0010
1000
0100
,
1000
0001
0010
0010
0001
1000
0002
0003
,
0000
1000
0010
0100
0001
0002
0003
0010
,
0100
1000
0010
0100
0001
0002
0000
0003
,
0000
1000
0100
0002
0000
0103
1000
0020
,
0000
0130
0001
0020
0000
0031
0100
2000
,
0000
3100
0001
0020
0000
0130
1000
0020
,
0000
1030
0100
0002
0000
1003
0010
0002
,
0000
0003
2000
3000
0100
0010
0000
0022
,
0033
0000
0101
0000
0010
1000
0000
2020
,
0000
0000
0000
3030
0000
0000
0001
0100
,
0000
0110
0000
1000
0010
0001
0010
1000
,
0000
0000
0101
0000
0010
1000
0000
0002
,
0000
0000
0000
0000
0000
1003
0100
0020
,
0000
0000
0000
0000
0000
0030
0002
0000
,
0010
0000
1000
0000
0100
0103
0000
0000
,
0000
0001
0010
2000
0000
3010
0001
0100
,
0020
0000
0000
1030
0000
0101
0000
0002
,
2000
0000
0003
3020
0200
0000
0330
0000
,
0101
0011
1100
1010
,
0000
0100
0101
0000
0100
1100
0000
0100
,
0101
0000
0100
1100
0000
1002
1000
1003
,
0000
0010
0011
0000
0010
1010
0000
0010
,
0011
0000
0010
1010
0000
0110
0100
0001
,
0001
1000
0100
0010
0001
0100
0010
1000
,
0200
0000
0000
2300
0000
3002
0000
0010
,
0023
0000
0000
0130
0220
0000
0000
0330
,
0010
0100
0010
0000
0100
0010
0100
0000
1000
0001
1000
0000
0001
1000
0001
0000
,
1000
0100
0100
0001
0100
0100
1000
0100
,
0100
0001
0100
0100
0010
0100
0010
0000
,
0001
0010
0010
1000
0010
0010
0001
0010
,
0010
1000
0010
0010
0100
0010
0100
0000
,
1000
0100
1000
0001
0100
0001
1000
0001
,
2002
0000
3003
1000
0200
0000
0000
0301
,
0200
0000
0000
1300
0200
0000
0000
0300
,
2000
3020
0032
0023
,
2030
0000
0000
0000
0001
0000
3000
0000
0001
1000
0001
0000
1000
0000
0001
0000
,
1000
0100
1000
0000
0100
0010
0100
0000
0010
0001
0010
0000
0002
0000
0000
0000
,
0003
1000
0010
1000
0010
0100
0002
0003
,
0100
0001
0100
0000
0010
0100
0010
0000
1000
0010
1000
0000
0020
0000
0030
0000
,
1000
0100
1000
0000
0001
0100
0001
0000
1000
0000
0010
0000
0200
0000
0300
0000
,
0001
0100
0001
0000
1000
0100
1000
0000
0001
0000
0010
0000
0200
0000
0000
0000
,
0300
0010
0001
0010
0001
0100
0010
1000
,
0001
0001
1000
1000
0010
0100
0220
0330
,
0001
0000
0100
0000
0010
0000
1000
0000
0100
0000
0000
0100
0000
0000
0100
0000
,
1000
0000
0100
0000
0010
0000
0001
0000
0100
0000
0000
0100
0000
0000
0100
0000
,
0101
0000
0000
0001
0000
0000
0001
0000
1001
0000
0000
1000
0000
0000
1000
0000
,
0000
0000
0001
0000
1000
0000
0100
0000
1000
0001
1000
0001
1000
0000
0001
0000
,
1000
0000
0010
0000
1000
0000
0010
0000
1000
0000
0000
1000
0000
0000
1000
0000
,
0001
0000
0010
0000
0001
0000
0010
0000
0001
0000
0000
0001
0000
0000
0001
0000
,
0011
0000
0000
0001
0000
0000
0001
0000
1001
0000
0000
1000
0000
0000
1000
0000
,
0000
0000
2020
0000
0030
0000
3001
0000
1000
0001
1000
0001
1000
0000
0010
0000
,
1000
0010
0100
0001
1000
0010
0001
0010
,
1000
0100
0001
0100
1000
0010
0001
1000
,
0100
0001
1000
0010
0100
0001
0010
0100
,
0110
0000
0000
1000
0100
0000
0000
0001
0100
0000
1000
0000
0001
0000
0010
0100
,
0020
0000
0032
0000
,
0203
0000
0320
0000
,
1030
0100
0010
1000
0010
0100
1000
0001
,
1000
0000
0100
0000
0010
0000
0001
0000
1000
0001
0000
1000
0001
1000
0001
1000
,
0002
0000
0000
0000
0000
0003
0000
0000
0000
0000
0000
0000
0000
0000
0000
0000
,
0000
0000
0000
0000
;
#NOTES:
     dance-single:
     :
     Hard:
     17:
     :
0000
0000
0000
0000
,
0000
0000
0000
0000
,
0000
0000
0000
0000
,
0000
0000
0000
0000
,
0000
0000
0000
0000
,
0000
0000
0000
0000
,
0002
0023
2030
3020
0032
0203
2300
3200
,
0302
2003
3200
0320
2030
3020
0230
2300
,
3002
0023
0230
0302
0203
0320
0032
0203
,
0020
0000
0000
0330
,
0001
0000
0100
0000
0010
0000
1000
0000
0001
0000
0010
0100
1000
0000
1100
0000
,
1000
0100
0010
0000
0001
0100
0010
0000
1000
0100
0010
0000
0001
0100
0010
0000
,
1000
0000
0010
0000
0001
0000
0010
0000
1000
0000
0010
0100
0001
0000
0101
0000
,
0001
0100
0010
0000
1000
0100
0010
0000
0001
0100
0010
0000
1000
0100
0010
0000
,
0100
0000
1000
0000
0010
0000
1000
0000
0001
0000
0100
0010
1000
0000
1010
0000
,
0010
1000
0100
0000
0010
0001
0100
0000
0010
1000
0100
0000
0010
0001
0100
0000
,
0001
0000
0010
0000
0100
0000
1000
0000
0010
0000
1000
0001
0100
0000
0101
0000
,
0100
0001
0010
0000
0100
1000
0010
0000
0100
0001
0010
0000
0100
1000
0010
0000
,
0100
0000
0010
0100
0010
0000
0100
0000
0001
1000
0001
0000
1000
0000
0200
0000
,
0300
0000
1000
0100
0010
0000
0100
0010
0001
0000
0010
0001
0100
0000
0001
0000
,
1000
0000
0001
1000
0001
0000
1000
0000
0100
0010
0100
1000
0100
0000
2000
0000
,
3000
0000
0001
0100
0001
0000
0100
0010
0100
0000
0010
1000
0010
0000
1000
0000
,
0100
0000
1000
0100
1000
0000
0001
0000
0010
0100
0010
0001
0010
0100
0020
0000
,
0030
0000
0001
0010
0100
0000
0010
0100
1000
0000
0100
1000
0010
0000
1000
0000
,
0001
0000
1000
0100
2000
0000
3010
0000
0100
0001
0100
0000
0010
0000
1000
0000
,
0100
0000
1000
0100
0010
0000
0001
0100
0010
0000
1000
0100
0010
0000
0001
0000
,
1001
0000
0001
0100
0010
0000
1000
0000
0001
0010
0100
1000
0010
0000
0100
0000
,
0010
0000
0100
0001
0010
0000
0100
0000
0010
0001
0100
0000
0001
0000
0100
0010
,
1000
0000
0010
0000
0100
0001
0010
0000
0001
0000
1001
0000
1000
0000
0100
1000
,
0010
0000
1000
0000
0001
0000
0100
0000
0010
1000
0100
0000
0010
0000
0011
0000
,
0001
1000
1100
0100
0010
0001
1000
0101
,
0110
0000
1010
0000
0001
0000
1000
0000
0100
0010
0100
0000
0110
0000
0010
0000
,
0001
0010
0100
1000
0001
0010
0100
1000
0001
0100
0010
1000
0001
0100
0010
1000
,
0001
1000
0010
0100
0001
1000
0010
0100
0001
1000
0100
0010
0001
1000
0100
0010
,
0001
0000
0100
0000
0010
0000
1000
0000
0001
0000
0100
0010
0100
0000
0110
0000
,
1000
0000
0100
0000
0010
0000
0001
0000
1000
0000
0100
0010
0100
0000
0110
0000
,
0001
0000
0010
0000
0100
0000
1000
0000
0001
0000
0010
0100
0010
0000
0110
0000
,
1000
0000
0010
0000
0100
0000
0001
0000
1000
0000
0010
0100
0010
0000
0220
0000
,
0000
0000
0330
0000
0010
0000
0100
0010
1000
0000
0100
0000
0010
0000
0100
0010
,
0002
0000
0000
0000
1003
0000
0010
1000
0100
0000
1000
0010
1000
0000
0001
0100
,
0002
0000
0100
0000
0000
0000
0100
0000
0000
0000
0103
0000
0010
0000
1000
0100
,
0010
0000
0001
0100
0010
0000
1000
0010
0100
0000
0001
0010
0100
0000
2200
0000
,
0000
0000
3300
0000
1000
0000
0100
0000
0010
0000
0001
0010
0001
0000
0010
0000
,
0001
0100
0010
0000
0200
0000
0310
0000
1000
0100
0010
0000
0200
0000
0310
0000
,
0001
0000
0100
0001
0010
0000
0100
1000
0010
0000
0100
0001
0010
0000
0001
0000
,
1000
0000
0010
1000
0100
0000
0010
0001
0100
0000
0010
1000
0100
0000
0010
0000
,
0001
0010
1000
2020
0030
3010
0001
0100
,
0220
0300
0000
2030
0000
3020
0030
0102
,
0200
0000
0303
2100
0200
0000
3300
0000
,
0202
0303
0022
0033
2200
3300
2020
3030
,
0000
1100
0202
0303
0101
2200
3300
1100
,
0202
0303
0101
2200
3300
0110
1002
1000
,
1003
1010
0022
0033
0011
2020
3030
1010
,
0022
0033
0011
2020
3030
0110
2002
0003
,
3001
0000
1000
0000
0010
0000
0100
0010
1000
0000
0001
0000
1000
0100
0010
0001
,
0100
0000
0001
0000
0101
0000
0001
0100
0010
0000
1010
0000
1000
0010
0100
0001
,
1000
0000
0001
0000
0010
0001
0100
0010
1000
0100
0010
0000
0100
0000
0011
0000
,
0010
0100
1000
0000
0010
0100
0001
0000
0010
0001
0100
0000
0010
1000
0100
0000
,
1000
0000
0100
0010
0100
0000
0001
0000
0100
0010
0100
0000
1000
0000
0100
0010
,
0100
0000
0001
0000
0100
0010
0100
0000
1000
0000
0001
0000
0201
0000
0000
0000
,
0301
0000
0100
0010
0100
0000
1000
0000
0100
0010
0100
0000
0001
0000
0100
0010
,
0100
0000
1000
0000
0100
0010
0100
0000
0001
0000
1000
0000
0021
0000
0000
0000
,
0130
0000
0010
0000
0001
0000
1000
0100
0001
0000
0100
0000
0001
0100
1000
0000
,
2002
0000
3003
1200
0020
0000
0330
0120
,
0002
0000
0033
0201
0020
0000
0000
0330
,
2001
3000
0210
0300
0120
0030
1002
0003
,
2200
0000
0300
0000
0002
0000
3003
0000
0001
0010
0100
1000
0001
0100
0010
1000
,
0100
1000
0100
1000
0010
1000
0010
1000
0001
0100
1000
0100
0002
0000
0000
0000
,
0003
0011
0110
1100
0010
0110
0002
0003
,
0010
0001
0100
0010
1000
0100
0010
0001
0010
1000
0010
0001
0020
0000
0030
0000
,
0100
1000
0010
0000
0100
0001
0010
0000
0011
0000
1100
0000
0220
0000
0330
0000
,
0001
0010
0001
0100
0010
1000
0100
1000
0010
0000
0101
0000
0220
0000
0000
0000
,
0330
0110
0110
0110
1010
1010
1100
1100
,
1000
0100
0010
0001
0100
0010
1000
0001
0010
0001
0100
0001
0020
0000
0030
0000
,
0001
0000
0100
0000
1000
0000
0100
0000
1100
0000
0000
0101
0000
0000
0011
0000
,
1000
0000
0100
0000
0001
0000
0100
0000
0101
0000
0000
1100
0000
0000
1010
0000
,
1100
0000
0000
0011
0000
0000
0110
0000
0101
0000
0000
1010
0000
0000
0110
0000
,
0000
0000
1000
0000
0100
0000
1000
0000
0001
0100
1000
0100
0001
0000
1001
0000
,
0001
0000
0100
0000
1000
0000
0100
0000
0101
0000
0000
0011
0000
0000
0101
0000
,
1000
0000
0100
0000
0001
0000
0100
0000
1100
0000
0000
1010
0000
0000
1100
0000
,
0011
0000
0000
1001
0000
0000
0101
0000
1010
0000
0000
1001
0000
0000
1100
0000
,
0000
0000
0220
0000
0330
0000
0011
0000
0001
0100
0010
1000
0100
0010
0100
0000
,
1000
0010
0100
0001
2001
0010
0001
3100
,
1002
0010
1000
0103
2010
0001
0100
3001
,
1000
0010
0100
0001
1000
0100
0010
0001
,
1001
0000
0000
0000
0000
0000
0000
0000
0000
1000
0000
0000
0100
0000
0000
0000
0000
0000
0000
0000
0000
0001
0000
0000
0100
0000
0000
0000
0000
0000
1000
0000
0000
0000
0000
0000
0001
0000
0000
0000
0000
0000
1000
0000
0100
0000
0010
0000
,
0002
2000
3000
0200
0300
2000
3003
1010
,
0210
0002
0003
0002
0303
0110
1010
0101
,
0012
0200
0303
1010
0210
0002
0003
0302
,
1003
0000
0100
0000
0001
0000
0100
0000
1000
0100
0000
0001
0100
1000
0010
0001
,
0020
0000
0000
0000
0000
0030
0000
0000
0000
0000
0000
0000
0000
0000
0000
0000
,
0000
0000
0000
0000
;
#NOTES:
     dance-double:
     :
     Easy:
     10:
     :
00000000
00000000
00000000
00000000
,
00000000
00000000
00000000
00000000
,
00000000
00000000
00000000
00000000
,
00000000
00000000
00000000
00000000
,
00000000
00000000
00000000
00000000
,
00000000
00000000
00000000
00000000
,
00000000
00000000
00000000
00000000
,
00000000
00000000
00000000
00000000
,
00000000
00000000
00000000
00000000
,
00000000
00000000
00000000
00000000
,
00010000
00001000
00000010
00000001
,
00000100
00001000
00001000
00010000
,
00001000
00010000
00100000
10000000
,
01000000
00010000
00010000
00001000
,
00010000
00001000
00000100
00000001
,
00000010
00001000
00001000
00010000
,
00001000
00010000
01000000
10000000
,
00100000
00010000
00010000
00011000
,
00011000
00000000
00010000
00000000
00001000
00000010
00000000
00000220
,
00000000
00000000
00000000
00000000
00000000
00000000
00000000
00000330
,
00000000
00000001
00000010
00000000
00000100
00010000
00000000
00002000
,
00000000
00000000
00000000
00000000
00000000
00000000
00000000
00003000
,
00000000
00000000
00001000
00000000
00001000
00200000
00300000
00020000
,
00000000
00000000
00000000
00000000
00000000
00000000
00000000
00030000
,
00000000
00010000
00100000
00000000
01000000
10000000
00000000
00200000
,
00000000
00000000
00300000
00000000
00000000
10000000
00100000
10000000
,
00100000
10000000
00100000
00000000
01000000
00000000
00010000
00200000
,
00300000
00001000
00010000
00000000
00000010
00001000
00000000
00000002
,
00000003
00000100
00001000
00000000
00001000
00020000
00030000
00001000
,
00010000
00001000
01000000
00010000
01000000
00200000
00300000
10000000
,
01000000
00000000
01000000
00010000
00000000
00010000
00001000
00000000
,
00001000
00000010
00000000
00000010
00000001
00000000
00002000
00003000
,
00000000
00000001
00000010
00000000
00000010
00000200
00000300
00001000
,
00000100
00001000
00000100
00010000
00001000
00020000
00000000
00030000
,
00000000
00001000
00010000
00000020
00000000
00010030
00001000
00200000
,
00000000
00301000
00010000
00000200
00000000
00010300
00001000
02000000
,
00000000
03001000
00010000
00200000
00000000
10300000
01000000
00020000
,
00000000
00031000
00010000
00002000
00000000
00013000
00001000
00000020
,
00000000
00000030
00000002
00000003
00000010
00000100
00000000
00002002
,
00003003
00000000
00000001
00000000
00000010
00001000
00000000
00022000
,
00000000
00000000
00000000
00033000
00000000
00000000
00001000
00100000
,
00000000
00010000
00000000
10000000
00100000
00000000
01000000
00001000
,
00000000
00000000
00010000
00000000
00001000
00000010
00000000
00000002
,
00000000
00000000
00000000
00000000
00000000
00000013
00000100
00002000
,
00000000
00000000
00000000
00000000
00000000
00003000
00000200
00000000
,
00010000
00000000
00000000
00000000
00010000
00000300
00000000
00000000
,
00000000
00000100
00010000
00002000
00000000
00103000
00000000
00100000
,
00020000
00000000
00000000
01030000
00000000
00100000
00000000
20000000
,
00020000
00000000
00000000
30030000
,
10000000
01000000
00010000
00001000
,
00000000
00001000
00000010
00000000
00000010
00000001
00000000
00000001
,
00000100
00000000
00000100
00001000
00000000
00001000
00010000
00000000
,
00000000
00010000
00100000
00000000
00100000
10000000
00000000
10000000
,
01000000
00000000
01000000
00010000
00000000
00010000
00001000
00000000
,
00000000
00010000
00001000
00000020
00000000
00000031
00000100
00001000
,
00020000
00000000
00000000
00030200
00000000
00020300
00000000
00000000
,
00032000
00000000
00203000
00000000
,
00301000
00010000
00100000
10000000
,
01000000
00010000
00000000
00001000
00000100
00000000
00000001
00000010
,
00000000
00001000
00010000
00000000
00011000
00000000
00000000
00000000
,
00001000
00010000
00000000
01000000
10000000
00000000
00100000
00010000
,
00000000
00001000
00000010
00000000
00000110
00000000
00000000
00000000
,
00000001
00000100
00000010
00010000
,
00002000
00000000
00000000
00013000
00000000
00001000
00000000
00010000
,
02000000
00000000
00000000
13000000
20000000
00000000
00000000
30000000
,
02000000
03000000
00020000
00030000
00002000
00003000
00000200
00000300
,
00000002
00000000
00000000
00000003
00000011
00000000
00000000
00000000
,
00000001
00001000
00000001
00000000
00010000
00000100
00010000
00000000
,
00002000
00000000
00003000
00000000
00100000
00001000
00010000
00000000
,
00002000
00000000
00003000
00000000
00001000
00010000
00100000
00000000
,
02000000
00000000
03000000
00000000
01000000
00100000
10000000
00000000
,
00020000
00000000
00030000
00000000
01000000
00001000
01000000
00000000
,
00011000
00000000
00011000
00000000
,
00001000
00010000
00100000
00000000
00010000
00001000
00000010
00000000
,
00000000
00000000
00002000
00000000
,
00023000
00000000
02030000
00000000
,
03200000
00000000
00000000
00000000
00000000
00000000
00310000
20000000
,
00000000
00000000
00000000
30000000
00000000
00000000
00000000
00000000
,
10010000
00000000
20000000
00000000
,
32000000
00000000
03020000
00000000
,
00032000
00000000
00013000
00000200
00000000
00000320
00000000
00000230
,
00000000
00000000
00000000
00000300
,
00000110
00000000
00000002
00000000
,
00000023
00000000
00002030
00000000
,
00023000
00000000
00000000
00000000
00000000
00000000
00031000
00200000
,
00000000
00000000
00301000
02000000
00000000
03010000
10000000
02000000
,
00000000
03000000
11000000
00000000
,
01010000
00000000
00011000
00000000
,
00010000
00001000
00000100
00000001
,
00000101
00001100
00011000
01010000
,
11000000
00000000
00000000
00000000
,
00000000
00000000
00000000
00000000
;
#NOTES:
     dance-double:
     :
     Medium:
     14:
     :
00000000
00000000
00000000
00000000
,
00000000
00000000
00000000
00000000
,
00000000
00000000
00000000
00000000
,
00000000
00000000
00000000
00000000
,
00000000
00000000
00000000
00000000
,
00000000
00000000
00000000
00000000
,
00001000
00010000
01000000
00100000
00010000
10000000
00100000
01000000
,
00001000
00010000
00001000
00000100
00000010
00001000
00000001
00001000
,
00000002
00000003
00000220
00000330
,
00022000
00000000
00000000
00033000
,
00001000
00010000
01000000
00100000
00010000
10000000
01000000
00010000
,
00001000
00010000
00000010
00001000
00000001
00000100
00001000
00010000
,
00001000
00010000
00100000
10000000
01000000
00010000
00001000
00010000
,
01000000
00010000
00001000
00000100
00000001
00000010
00001000
00010000
,
00001000
00010000
00001000
00000010
00001000
00010000
00100000
10000000
,
00010000
01000000
00001000
00100000
00001000
00010000
01000000
00010000
,
00001000
00010000
00001000
00000010
00000001
00001000
00000001
00000100
,
00001000
00010000
00100000
01000000
00010000
10000000
01000000
00100000
,
00010000
00000000
00100000
00000000
00001000
00010000
00000000
00022000
,
00000000
00000000
00033000
00001000
00000010
00000001
00000100
00001000
,
00000000
00010000
01000000
00010000
00001000
00000100
00001000
00020000
,
00030000
00001000
00010000
00010000
00001000
00010000
01000000
20000000
,
00000000
30000000
02000000
03000000
00010000
00002000
00003000
00022000
,
00000000
00000000
00033000
00001000
00000010
00000001
00000010
00001000
,
00000000
00001000
00010000
00000000
00010000
00100000
00000000
20000000
,
00000000
00000000
32000000
00000000
03100000
01000000
00010000
01000000
,
10000000
00100000
01000000
00001000
00010000
00001000
00000100
00000020
,
00000030
00001000
00000001
00000100
00001000
00000100
00000010
00000200
,
00000300
00001000
00010000
00100000
00010000
00002000
00003000
00010000
,
01000000
10000000
00100000
10000000
01000000
00020000
00030000
00001000
,
00010000
00001000
00000010
00001000
00010000
00001000
00000100
00000010
,
00001000
00000100
00000010
00001000
00010000
00001000
02000000
03000000
,
00100000
10000000
01000000
00100000
01000000
00020000
00030000
00001000
,
00000100
00000010
00000100
00001000
00010000
00002000
00000000
00003000
,
00000000
00010000
01000000
20000000
00000000
30100000
00010000
00002000
,
00000000
00003100
00000001
00000020
00000000
00001030
00010000
02000000
,
00000000
13000000
00100000
00020000
00000000
00031000
00000010
00000002
,
00000000
00000103
00001000
00020000
00000000
01030000
10000000
00200000
,
00000000
00300000
00020000
00030000
00001000
00010000
00000000
00002000
,
00003000
00000000
01000000
00000000
00010000
00100000
00000000
00202000
,
00000000
00000000
00000000
00303000
00000000
00000000
00100000
00001000
,
00000000
00010000
00000000
00001000
00000100
00000010
00001000
00010000
,
00000000
00000000
01000000
00000000
00100000
10000000
00000000
00020000
,
00000000
00000000
00000000
00000000
00000000
00130000
00001000
00020000
,
00000000
00000000
00000000
00000000
00000000
00030000
00002000
00000000
,
00010000
00000000
01000000
00000000
00010000
00013000
00000000
00000000
,
00000000
00001000
00000100
00000002
00000000
00000013
00001000
00010000
,
00200000
00000000
00000000
10300000
00000000
01010000
00000000
00020000
,
20000000
00000000
00000000
30030000
,
10100000
01001000
00010100
00000011
,
00000000
00000001
00000100
00000000
00000100
00001000
00000000
00001000
,
00010000
00000000
00010000
01000000
00000000
01000000
10000000
10000000
,
00000000
10000000
01000000
00000000
01000000
00010000
00000000
00010000
,
00001000
00000000
00001000
00000100
00000000
00000100
00000001
00000001
,
00000000
00001000
00000100
00000010
00001000
00010000
01000000
00100000
,
00020000
00000000
00000000
00230000
00000000
00302000
00000000
00013000
,
00000200
00000000
00000000
00001300
00000002
00000000
00000000
00000003
,
00000001
00000010
00001000
00010000
,
00001000
00010000
00100000
00010000
00100000
01000000
00100000
01000000
,
10000000
01000000
00100000
01000000
00001000
00010000
00001000
00000000
,
00010000
00001000
00000100
00001000
00000100
00000010
00000100
00000010
,
00000001
00000010
00000100
00000010
00010000
00001000
00010000
00000000
,
00001000
00010000
01000000
10000000
01000000
00010000
01000000
10000000
,
00200000
00000000
00000000
10300000
02000000
00000000
00000000
03010000
,
00002000
00000000
00000000
00003100
00000002
00000000
00000000
00000003
,
00000020
00000230
00002300
00023000
,
00230000
00000000
00001000
00300000
00001000
00010000
01000000
00010000
,
00001000
00000010
00000001
00000100
00001000
00010000
00022000
00000000
,
00033000
00001000
00100000
00001000
00100000
01000000
00020000
00030000
,
00001000
00000010
00000100
00010000
00001000
00100000
02000000
03000000
,
10000000
10000000
01000000
01000000
00100000
00010000
00002000
00003000
,
00000100
00000100
00000010
00000010
00000001
00000100
00002000
00000000
,
00003000
00100000
00001000
00100000
00010000
01000000
00100000
10000000
,
00100000
00100000
00010000
00010000
00001000
00010000
00022000
00033000
,
00001000
00000000
00000100
00000000
00000010
00000000
00001000
00000000
00000001
00000000
00000000
00000010
00000000
00000000
00001000
00000000
,
00010000
00000000
01000000
00000000
00100000
00000000
00010000
00000000
10000000
00000000
00000000
00100000
00000000
00000000
00010000
00000000
,
00011000
00000000
00000000
00010000
00000000
00000000
00000010
00000000
00011000
00000000
00000000
00001000
00000000
00000000
00100000
00000000
,
00000000
00010000
00100000
01000000
10000000
00100000
00010000
00100000
,
10000000
00000000
00100000
00000000
01000000
00000000
00100000
00000000
00010000
00000000
00000000
00001000
00000000
00000000
00000010
00000000
,
00000001
00000000
00000010
00000000
00000100
00000000
00000010
00000000
00001000
00000000
00000000
00010000
00000000
00000000
00100000
00000000
,
10100000
00000000
00000000
10000000
00000000
00000000
01000000
00000000
01010000
00000000
00000000
00010000
00000000
00000000
00001000
00000000
,
00000000
00022000
00030000
00013000
00010100
00000000
00000110
00000000
,
00000001
00000010
00000100
00001000
00000010
00000100
00001000
00010000
,
00000100
00001000
00010000
00100000
00001000
00010000
00100000
01000000
,
00010000
00100000
01000000
10000000
00100000
00010000
10000000
01000000
,
00010000
00000000
00000000
01000000
00001000
00000000
00000000
00010000
00000100
00000000
00001000
00000000
00000100
00000000
00010000
00001000
,
00020000
00000000
00032000
00000000
,
00003020
00000000
00000032
00000000
,
00001003
00000010
00000100
00001000
00010000
01000000
10000000
00010000
,
10000000
00000000
01000000
00000000
00100000
00000000
00010000
00000000
00100000
00001000
00000000
00010000
00001000
00010000
00001000
00010000
,
00002000
00000000
00000000
00000000
00000000
00003000
00000000
00000000
00000000
00000000
00000000
00000000
00000000
00000000
00000000
00000000
,
00000000
00000000
00000000
00000000
;
#NOTES:
     dance-double:
     :
     Hard:
     17:
     :
00000000
00000000
00000000
00000000
,
00000000
00000000
00000000
00000000
,
00000000
00000000
00000000
00000000
,
00000000
00000000
00000000
00000000
,
00000000
00000000
00000000
00000000
,
00000000
00000000
00000000
00000000
,
00020000
00030200
00000320
00002030
00023000
02030000
23000000
30200000
,
02300000
03002000
00023000
00032000
00003200
00000320
00020030
00032000
,
00023000
00230000
02300000
03020000
20030000
32000000
03020000
00032000
,
00020000
00000000
00000000
00033000
,
00001000
00000000
00010000
00000000
01000000
00000000
00100000
00000000
10000000
00000000
00100000
10000000
00100000
00000000
01000000
00000000
,
10000000
01000000
00100000
00000000
01000000
00100000
00010000
00000000
00100000
00010000
00001000
00000000
00010000
00001000
00000100
00000000
,
00010000
00000000
00001000
00000000
00000100
00000000
00000010
00000000
00000001
00000000
00000010
00000001
00000010
00000000
00000100
00000000
,
00000001
00000100
00000010
00000000
00000100
00000010
00001000
00000000
00000010
00001000
00010000
00000000
00001000
00010000
01000000
00000000
,
00001000
00000000
00010000
00000000
00100000
00000000
01000000
00000000
10000000
00000000
01000000
10000000
01000000
00000000
00100000
00000000
,
10000000
00100000
01000000
00000000
00100000
01000000
00010000
00000000
01000000
00010000
00001000
00000000
00010000
00001000
00000010
00000000
,
00010000
00000000
00001000
00000000
00000010
00000000
00000100
00000000
00000001
00000000
00000100
00000001
00000100
00000000
00000010
00000000
,
00000001
00000010
00000100
00000000
00000010
00000100
00001000
00000000
00000100
00001000
00010000
00000000
00001000
00010000
00100000
00000000
,
00001000
00000000
00010000
00001000
00100000
00000000
00010000
00000000
10000000
00010000
01000000
00001000
01000000
00000000
00002000
00000000
,
00000000
00000000
00013000
00000100
00010000
00000000
00000100
00000010
00000100
00000000
00000010
00000001
00000010
00000000
00000001
00000000
,
00000100
00000000
00001000
00010000
00001000
00000000
00100000
00000000
00010000
00100000
00010000
10000000
01000000
00000000
20000000
00000000
,
30000000
00000000
00010000
00100000
00001000
00000000
00100000
00001000
00010000
00000000
00001000
00010000
00000010
00000000
00002000
00000000
,
00000000
00000000
00003001
00000100
00000001
00000000
00000100
00000000
00001000
00010000
00001000
00010000
00001000
00000000
00022000
00000000
,
00003000
00000000
00031000
01000000
00010000
00000000
01000000
00010000
00100000
00000000
00010000
10000000
01000000
00000000
00010000
00000000
,
00001000
00000000
00000100
00001000
00000100
00000000
00000010
00000000
00000100
00000001
00001000
00000001
00001000
00000000
00000010
00000000
,
00010000
00000000
00001000
00010000
01000000
00000000
00010000
01000000
10000000
00000000
01000000
00000000
00100000
00000000
00010000
00000000
,
00001000
00000000
00000100
00001000
00000100
00000000
00000010
00000000
00000001
00000100
00000010
00000000
00001000
00000000
00000010
00000000
,
00001000
00000000
00010000
00000000
01000000
00010000
01000000
00000000
00100000
10000000
00100000
00000000
01000000
00000000
00020000
00000000
,
00030000
00000000
10000000
00000000
01000000
00000000
00100000
00000000
00001000
00000000
00010000
00000000
00000010
00000000
00000100
00000001
,
00000010
00000100
00010000
00001000
01000000
00020000
00030000
10000000
,
01000000
00010000
00001000
00000010
00000001
00000100
00000010
00010000
,
00001000
00000010
00000100
00001000
00000010
00001000
00020000
00030000
,
10000000
00000000
00100000
01000000
00010000
00000000
00100000
00000000
01000000
00010000
00001000
00010000
00001000
00000000
00010000
00000000
,
00001000
00010000
00000100
00000000
00001000
00000100
00000010
00000000
00000001
00000100
00002000
00000000
00000000
00000000
00003000
00000000
,
00010000
00000000
00001000
00000000
00000010
00000000
00000100
00000000
00000010
00000000
00000001
00000100
00000010
00000000
00010000
00000000
,
00001000
00000000
00010000
00000000
00100000
00000000
01000000
00000000
00100000
00000000
10000000
01000000
00100000
00000000
00001000
00000000
,
00010000
00000000
00001000
00000000
00000100
00000000
00001000
00000000
00010000
00000000
00001000
00010000
00001000
00000000
00010000
00000000
,
00001000
00000000
00010000
00000000
01000000
00000000
00010000
00000000
00001000
00000000
00010000
00001000
00010000
00000000
00022000
00000000
,
00000000
00000000
00033000
00000000
00010000
00000000
00001000
00010000
00001000
00000000
00010000
00100000
00010000
00000000
00100000
10000000
,
00100000
00000000
10000000
00000000
01000000
00000000
00010000
01000000
00010000
00000000
00001000
00010000
00001000
00000000
00000100
00001000
,
00000100
00000000
00001000
00000000
00010000
00000000
00001000
00000000
00000010
00000000
00001000
00000000
00010000
00000000
00100000
10000000
,
00100000
00000000
01000000
00010000
01000000
00000000
00001000
01000000
00001000
00000000
00010000
00000100
00010000
00000000
00022000
00000000
,
00000000
00000000
00033000
00000000
00001000
00000000
00000100
00000000
00000010
00000000
00001000
00000010
00001000
00000000
00000100
00000000
,
00000001
00000000
00000100
00000010
00000100
00000000
00000010
00000000
00001000
00000000
00010000
00001000
00010000
00000000
00001000
00000000
,
00100000
00000000
01000000
00100000
01000000
00000000
10000000
00000000
01000000
00000000
00010000
01000000
00010000
00000000
00001000
00000000
,
00010000
00100000
00010000
00001000
00000010
00001000
00010000
01000000
,
00010000
00001000
00000100
00000002
00000000
00001003
00000100
00000010
,
00002000
00000000
00000000
00203000
00300000
00110000
00000000
01020000
,
20000000
00000000
00000000
30030000
,
11000000
00101000
00010010
00000101
,
00000000
00000001
00000101
00000000
00000010
00010010
00000000
00001000
,
01001000
00000000
00100000
10100000
00000000
00010000
10000000
10010000
,
00000000
10000000
11000000
00000000
00100000
00101000
00000000
00010000
,
00010100
00000000
00000010
00000011
00000000
00001000
00000001
00001001
,
00000000
00000000
00000001
00000000
00000100
00000000
00000010
00000100
00001000
00000000
00010000
00000000
00100000
10000000
01000000
10000000
,
01000000
00000000
10000000
00000000
01000000
00000000
00100000
00001000
00010000
00000000
00001000
00000000
00010000
00000010
00001000
00000000
,
00000010
00000000
00001000
00000010
00001000
00000000
00000001
00000010
00000002
00000000
00000000
00000000
00000000
00000000
00000003
00000000
,
00000010
00000100
00001000
00000000
00000100
00001000
00010000
00000000
00001000
00010000
00100000
00000000
00010000
00100000
01000000
00000000
,
00010000
00000000
01000000
10000000
00100000
00000000
00010000
00000000
00100000
00010000
00001000
00000000
00010000
00000000
00001000
00000100
,
00000010
00000000
00000100
00000000
00000001
00000100
00001000
00000000
00010000
00000000
00001000
00000000
00022000
00000000
00003000
00000000
,
00031000
00000000
00000100
00000001
00000010
00000000
00001000
00000000
00000010
00001000
00010000
00000000
00001000
00000000
00010000
01000000
,
00100000
00000000
01000000
00000000
10000000
01000000
00010000
00000000
00001000
00000000
00010000
00000000
00002000
00000000
00003000
00000000
,
00010000
00000000
00001000
00000000
00000100
00000000
00000001
00000010
00000100
00000000
00010000
00000000
00001000
00010000
00100000
00000000
,
02000000
00000000
03000000
10200000
02000000
00000000
03300000
02010000
,
00002000
00000000
03003000
00010020
00002000
00000000
00000000
00003030
,
00000002
00000203
00002300
00023000
,
00230000
00000000
00000000
00000000
20000000
00000000
30300000
00000000
10000000
01000000
00100000
00000000
01000000
00010000
00001000
00000000
,
00010000
00001000
00000010
00000000
00000100
00000010
00000001
00000000
00001000
00000000
00000010
00000000
00002000
00000000
00000000
00000000
,
00003000
00000010
00010000
00000100
00100000
01000000
00020000
00030000
,
00001000
00010000
00000010
00000000
00001000
00000001
00000100
00000000
00000010
00010000
00001000
00100000
00020000
00000000
00030000
00000000
,
10000000
01000000
00100000
00000000
01000000
00010000
00001000
00000000
00100000
00000000
00010000
00000000
00002000
00000000
00003000
00000000
,
00000001
00000100
00000010
00000000
00000100
00001000
00010000
00000000
00000010
00000000
00001000
00000000
00020000
00000000
00000000
00000000
,
00030000
01000000
00001000
00100000
00010000
01000000
10000000
01000000
,
00100000
10000000
01000000
00000000
00100000
00001000
01000000
00000000
00000010
00010000
00000100
00000000
00020200
00000000
00030300
00000000
,
00010000
00000000
00001000
00000000
00000010
00000000
00000001
00000000
00000011
00000000
00000000
00001010
00000000
00000000
00011000
00000000
,
00001000
00000000
00010000
00000000
00100000
00000000
10000000
00000000
10100000
00000000
00000000
00110000
00000000
00000000
00011000
00000000
,
00010010
00000000
00000000
00001000
00000000
00000000
00000100
00000000
00101000
00000000
00000000
00010000
00000000
00000000
01000000
00000000
,
00000000
00000000
00001000
00000000
00100000
00000000
01000000
00000000
10000000
00100000
00010000
00100000
10000000
00000000
01000000
00000000
,
10000000
00000000
01000000
00000000
00010000
00000000
00001000
00000000
00011000
00000000
00000000
00001100
00000000
00000000
00000101
00000000
,
00000001
00000000
00000100
00000000
00001000
00000000
00010000
00000000
00011000
00000000
00000000
01010000
00000000
00000000
11000000
00000000
,
10100000
00000000
00000000
01001000
00000000
00000000
00101000
00000000
00010100
00000000
00000000
00010010
00000000
00000000
00000101
00000000
,
00000000
00000000
00002002
00000000
00000003
00000000
00000010
00000000
00003010
00010000
00001000
00000000
01000000
00001000
00010000
00000000
,
00001000
00010000
00100000
10000000
00020000
00100000
10000000
10030000
,
10000000
01000000
00010000
00001000
00000200
00000010
00000001
00000301
,
00000001
00000100
00001000
00010000
00000100
00001000
00010000
00100000
,
00010000
00000000
00000000
10000000
01000000
00000000
00000000
00100000
00001000
00000000
00010000
00000000
00000100
00000000
00010000
00001000
,
02000000
00200000
00300000
03200000
20300000
02000000
03000000
32000000
,
03200000
00002000
00003000
00302000
00023000
00000200
00000300
00030200
,
00001300
00000001
00000100
00001000
00010000
00100000
10000000
01000000
,
00010000
00000000
00001000
00000000
00000100
00000000
00001000
00000000
00010000
00001000
00000000
00010000
00001000
00000010
00000001
00000100
,
00002000
00000000
00000000
00000000
00000000
00003000
00000000
00000000
00000000
00000000
00000000
00000000
00000000
00000000
00000000
00000000
,
00000000
00000000
00000000
00000000
;
