
//----- song ID: lits -----//
#TITLE:little steps;
#ARTIST:Freeman;
#BANNER:little steps.png;
#BACKGROUND:little steps-bg.png;
#CDTITLE:./CDTitles/DDR HOTTEST PARTY.png;
#MUSIC:little steps.ogg;
#SAMPLESTART:41.807;
#SAMPLELENGTH:15;
#BPMS:0=155;
#STAGE:16;
#NOTES:
     dance-single:
     :
     Beginner:
     3:
     :
0000
0000
0000
0000
,
0000
0000
0000
0000
,
0000
0000
0000
0000
,
0000
0000
0000
0000
,
0000
0000
0000
0000
,
0001
0000
0000
0000
,
1000
0000
0000
0000
,
0001
0000
0000
0000
,
0010
0000
0000
0000
,
0001
0000
0001
0000
,
0100
0000
0100
0000
,
0010
0000
0100
0000
,
0010
0000
0000
0000
,
1000
0000
1000
0000
,
0010
0000
0010
0000
,
0100
0000
0010
0000
,
0100
0000
0000
0000
,
0001
0000
0001
0000
,
1000
0000
0010
0000
,
0100
0000
0010
0000
,
1000
0000
0001
0000
,
1000
0000
1000
0000
,
1001
0000
0000
0000
,
0010
0000
0100
0000
,
0010
0000
0100
0000
,
0220
0000
0000
0000
,
0330
0000
0000
0000
,
1000
0000
1000
0000
,
0001
0000
0001
0000
,
1000
0000
1000
0000
,
0010
0000
0010
0000
,
0100
0000
0100
0000
,
0001
0000
0001
0000
,
0010
0000
0100
0000
,
0110
0000
0000
0000
,
0001
0000
1000
0000
,
0001
0000
0000
0000
,
0100
0000
0010
0000
,
0100
0000
0100
0000
,
0001
0000
1000
0000
,
1001
0000
0000
0000
,
0010
0000
0100
0000
,
0110
0000
0000
0000
,
0001
0000
0001
0000
,
1000
0000
1000
0000
,
0001
0000
0001
0000
,
0100
0000
0100
0000
,
0010
0000
0010
0000
,
1000
0000
1000
0000
,
0100
0000
0010
0000
,
0110
0000
0000
0000
,
1000
0000
0001
0000
,
1000
0000
0000
0000
,
0010
0000
0100
0000
,
0010
0000
0010
0000
,
1000
0000
0001
0000
,
1001
0000
0000
0000
,
0100
0000
0010
0000
,
0110
0000
0000
0000
,
1000
0000
0100
0000
,
0010
0000
0001
0000
,
1000
0000
0100
0000
,
0010
0000
0001
0000
,
0000
0000
0000
0000
;
#NOTES:
     dance-single:
     :
     Easy:
     6:
     :
0000
0000
0000
0000
,
0000
0000
0000
0000
,
0000
0000
0000
0000
,
0000
0000
0000
0000
,
0000
0000
0000
0000
,
2000
3000
0002
0003
,
0200
0300
0002
0003
,
2000
3000
0020
0030
,
0200
0300
0110
0000
,
1000
0000
0010
0100
,
0010
0000
1000
0001
,
0010
0000
0001
0100
,
0010
0010
0100
0100
,
0001
0000
0010
0100
,
0010
0000
0001
1000
,
0100
0000
1000
0010
,
0100
0100
0001
1000
,
0001
0100
0010
0100
,
0010
1000
0100
0010
,
0001
1000
0010
1000
,
0001
0010
0100
1000
,
0001
0100
0010
1000
,
0001
0000
1000
0001
,
1000
0100
0010
0001
,
1001
0000
0110
0000
,
2002
0000
0000
0000
,
0000
0000
0000
3003
,
1000
0010
1000
0001
,
0010
0100
1000
0001
,
1000
0100
1000
0001
,
0100
0010
1000
0001
,
0010
0001
1000
0001
,
1000
0100
0010
0001
,
0010
0100
0010
0100
,
0110
0000
0001
0010
,
0100
0000
0010
1000
,
0000
0000
0001
1000
,
0010
0000
0100
0001
,
1000
0100
0100
0100
,
0010
0000
0000
0001
0000
0000
2002
0000
,
0000
0000
3003
0010
,
0100
0000
0000
0010
0000
0000
2002
0000
,
0000
0000
0000
3003
,
0001
0010
0001
1000
,
0100
0010
0001
1000
,
0001
0100
0001
1000
,
0010
0100
0001
1000
,
0010
1000
0001
0100
,
0001
0010
0100
1000
,
0001
0100
0010
1000
,
1001
0000
0100
0001
,
1000
0000
0010
0100
,
0000
0000
0001
0100
,
0010
0000
1000
0001
,
0100
0010
0010
0010
,
1000
0000
0000
0100
0000
0000
0220
0000
,
0000
0000
0330
0001
,
1000
0000
0000
0010
0000
0000
2002
0000
,
0000
0000
0000
3003
,
0002
0103
0200
0310
,
0020
1030
2000
3001
,
0002
0103
0200
0301
,
1000
0100
0110
1001
,
0000
0000
0000
0000
;
#NOTES:
     dance-single:
     :
     Medium:
     11:
     :
0000
0000
0000
0000
,
0000
0000
0000
0000
,
0000
0000
0000
0000
,
0000
0000
0000
0000
,
0000
0000
0000
0000
,
2000
0000
3000
0000
0001
0100
0001
0100
,
0020
0000
0030
0000
1000
0100
1000
0100
,
0020
0000
0030
0000
0001
1000
0001
1000
,
0200
0000
0310
0000
0110
0000
0001
0010
,
0100
0000
0010
0001
0010
0000
0001
1000
,
0010
0000
1000
0100
1000
0000
1001
0000
,
0001
0000
1000
0100
0010
0000
0100
0000
,
1000
0001
0100
0000
0010
0100
0010
0100
,
0001
0000
1000
0010
1000
0000
0001
0010
,
0100
0000
1000
0100
1000
0000
1001
0000
,
1000
0000
0100
0010
0001
0000
0100
0000
,
0010
1000
0010
0100
0001
0000
1000
0100
,
0010
0000
0001
0100
0001
0000
1000
0001
,
0100
0000
0001
0010
0001
0000
1001
0000
,
1000
0000
0010
0100
0001
0000
1000
0000
,
0001
0010
0100
0010
0001
0000
1000
0000
,
1010
0000
0001
0100
0001
0000
0100
0000
,
0110
0000
0101
0000
1000
0100
0010
0000
,
0110
0000
0010
0001
0010
0000
0100
0000
,
1100
0001
0101
1000
,
0010
0100
0010
0000
1000
0100
0010
0001
,
1000
0100
1000
0000
0001
0100
0001
0000
,
0100
0010
1000
0010
0000
1000
0001
1000
,
0000
0001
0100
0001
0000
1000
0010
0000
,
1000
0100
0010
0100
0000
1000
0010
1000
,
0000
0001
0010
0001
0000
1000
0100
0001
,
0100
0010
0001
0010
0000
0001
0100
0001
,
0000
0100
0010
0100
0000
0010
1000
0100
,
0010
0000
0100
0000
1000
0000
0001
1000
,
0000
0000
0000
0000
0001
0010
0100
1000
,
0001
0000
1000
0100
0000
0001
0100
0000
,
1000
0000
0010
1000
0100
0010
0001
1000
,
0100
0000
1000
0010
0000
0001
0010
0000
,
1000
0001
1000
0010
,
0100
0000
0000
0010
0000
0000
0220
0000
,
0000
0000
0000
0000
0330
1000
0100
0010
,
0001
0000
0000
1000
0000
0000
2002
0000
,
0000
0000
0000
3003
,
0001
0010
0100
0010
0000
0001
1000
0001
,
0000
1000
0010
1000
0000
0001
0100
0000
,
0001
1000
0010
1000
0000
0001
0010
0001
,
0000
1000
0100
1000
0000
0001
0100
1000
,
0100
0010
1000
0010
0000
1000
0100
1000
,
0000
0100
0010
0100
0000
0010
0001
0100
,
0010
0000
0100
0000
0001
0000
1000
0001
,
0000
0000
0000
0000
1000
0100
0010
0001
,
1000
0000
0001
0010
0000
1000
0010
0000
,
0001
0000
0100
0001
0010
0100
1000
0001
,
0010
0000
0001
0100
0000
1000
0100
0000
,
0001
1000
0100
0010
,
0001
0000
0000
0100
0000
0000
0220
0000
,
0000
0000
0000
0000
0330
0001
0010
0100
,
1000
0000
0000
0001
0000
0000
2002
0000
,
0000
0000
0000
3003
,
2000
0000
3100
0000
0010
0001
0100
0001
,
0200
0000
0310
0000
1000
0100
0010
0100
,
2000
0000
3001
0000
0100
0001
0010
0001
,
0200
0310
1010
0101
,
0000
0000
0000
0000
;
#NOTES:
     dance-single:
     :
     Hard:
     15:
     :
0000
0000
0000
0000
,
0000
0000
0000
0000
,
0000
0000
0000
0000
,
0000
0000
0000
0000
,
0000
0000
0000
0000
,
0001
0100
0000
0100
0010
0000
1000
0000
0100
0010
0000
0010
0001
0000
0100
0000
,
0010
1000
0000
1000
0100
0000
0010
0000
0001
0100
0010
0000
1000
0000
0001
0000
,
1000
0100
0000
0100
0010
0000
0001
0000
0100
0010
0000
0010
1000
0000
0100
0000
,
0010
0001
0000
0001
0100
0000
0010
0000
1000
0100
0010
0000
0001
0000
0100
0000
,
0002
0010
0013
0200
1000
1300
0001
0010
,
0200
1000
1300
0020
0100
0130
0002
0000
,
1003
0100
0010
0100
0010
0001
1000
0010
,
0100
0001
0100
0000
0010
0000
1000
0000
0001
0010
0100
0010
0001
0000
0001
0000
,
2000
0010
3010
0200
0001
0301
1000
0100
,
0020
0001
0031
0200
0010
0310
2000
0000
,
3100
0010
0100
1000
0001
0100
0010
1000
,
0001
0010
0001
0000
1000
0000
0010
0000
0100
0001
1000
0001
0100
0000
0100
0000
,
0001
0100
1000
0001
0010
1000
0100
0010
,
0001
1000
0100
0001
1000
0010
0001
0100
,
0010
1000
0100
0010
0001
0100
0010
1000
,
0001
0100
0010
0100
0010
0000
0100
0000
0001
0010
0100
0010
0100
0000
0010
0000
,
0001
0100
0000
0001
1000
0000
0100
0000
1000
0100
0010
0000
0001
0000
0001
0000
,
1000
0010
0000
0100
0010
0000
1000
0000
0001
0010
0100
0000
0010
0000
0010
0000
,
0001
1000
0000
0100
1000
0000
0010
0000
0100
0010
1000
0000
0001
0000
0001
0000
,
0010
0100
0000
0010
0001
0000
1000
0000
0010
0100
0001
0000
1000
0000
1000
0000
,
0010
0100
0000
0001
0100
0000
0010
0000
1000
0000
0001
0010
0100
0010
0001
0000
,
1000
0010
1000
0000
0010
0100
0010
0100
0001
1000
0100
0000
1100
0000
0000
0000
,
0001
0000
0010
0000
0100
0000
1000
0000
0001
0100
0001
0000
0100
0000
0010
0000
,
1000
0010
1000
0000
0010
0000
0100
0000
0001
1000
0100
0000
2000
0000
0000
0000
,
3010
0000
0100
0000
0001
0000
1000
0000
0100
0010
0100
0000
0010
0000
0001
0000
,
1000
0010
1000
0000
0010
0000
0100
0000
0001
0010
0100
0000
0010
0000
0001
0000
,
1000
0000
0100
0000
0010
0000
0001
0000
1000
0100
1000
0000
0100
0000
0010
0000
,
0001
0100
0001
0000
0100
0000
0010
0000
1000
0001
0100
0000
0010
0000
1000
0000
,
1010
0000
0101
0000
0011
0000
1000
0001
,
0100
0000
0001
0000
0010
0000
0001
0010
0001
0010
0100
0000
1000
0000
0010
0000
,
0120
0130
0001
0100
0000
0001
1000
0000
,
0010
0000
0010
0000
0100
0000
0001
0010
0001
0010
0100
0000
1000
0000
0010
0000
,
0120
0130
0001
0010
0000
0100
1000
0000
,
0001
0001
0101
0000
1010
0000
1100
0000
,
0101
0100
0001
0011
0000
0010
0220
0000
,
0000
0000
0000
0000
0330
0001
0100
0010
,
0110
0100
0001
1001
0000
1000
2002
0000
,
0000
0000
0000
3003
,
1000
0000
0100
0000
0001
0000
0100
0000
0010
0001
0010
0000
0001
0000
0100
0000
,
0010
0100
0010
0000
1000
0000
0001
0000
1000
0100
0010
0000
0002
0000
0000
0000
,
1003
0000
0010
0000
0001
0000
0010
0000
0100
0001
0100
0000
0010
0000
1000
0000
,
0100
0010
0100
0000
1000
0000
0010
0000
0100
0001
1000
0000
0010
0000
0100
0000
,
0001
0000
0100
0000
1000
0000
0100
0000
0010
1000
0010
0000
1000
0000
0100
0000
,
0010
0100
0010
0000
0001
0000
1000
0000
0001
0100
0010
0000
1000
0000
0100
0000
,
1100
0000
1001
0000
0110
0000
0001
0100
,
0001
0000
0010
0000
0100
0000
1000
0010
1000
0010
0100
0000
0001
0000
0010
0000
,
0120
0130
1000
0001
0000
0010
0100
0000
,
1000
0000
1000
0000
0001
0000
0100
0010
0100
0010
1000
0000
0100
0000
0010
0000
,
0021
0031
1000
0010
0000
0100
0001
0000
,
1000
1000
1100
0000
0011
0000
0101
0000
,
1010
0010
1000
1001
0000
0100
0220
0000
,
0000
0000
0000
0000
0330
1000
0100
0010
,
0110
0100
1000
1001
0000
0010
0220
0000
,
0000
0000
0000
0330
,
1000
0100
0000
0100
0010
0000
0100
0010
0001
0000
1000
0000
0010
0100
0010
0000
,
0100
0001
0000
0001
1000
0000
0010
1000
0001
0000
0100
0000
0001
1000
0001
0000
,
1000
0010
0000
0010
0100
0000
0001
0010
0001
0000
1000
0000
0100
1000
0100
0000
,
0010
0001
0000
0001
1000
0000
0010
0100
0001
1000
0100
0000
1000
0100
0010
0000
,
0000
0000
0000
0000
;
#NOTES:
     dance-double:
     :
     Easy:
     6:
     :
00000000
00000000
00000000
00000000
,
00000000
00000000
00000000
00000000
,
00000000
00000000
00000000
00000000
,
00000000
00000000
00000000
00000000
,
00000000
00000000
00000000
00000000
,
20000000
30000000
00020000
00030000
,
00200000
00300000
00002000
00003000
,
00020000
00030000
00002000
00003000
,
00000200
00000300
00000110
00000000
,
00000001
00000000
00001000
00000100
,
00001000
00000000
00000100
00010000
,
00001000
00000000
00100000
00010000
,
10000000
10000000
00100000
00100000
,
01000000
00000000
00010000
00100000
,
00001000
00000000
00010000
00001000
,
00010000
00000000
00000100
00001000
,
00000001
00000001
00000100
00000010
,
00001000
00000001
00000010
00000100
,
00001000
00000010
00010000
00001000
,
00010000
00100000
01000000
00010000
,
10000000
01000000
00100000
00010000
,
10000000
01000000
00010000
00001000
,
00000010
00000000
00000001
00001000
,
00000001
00000100
00001000
00010000
,
00100000
00000000
10000000
00000000
,
20020000
00000000
00000000
00000000
,
00000000
00000000
00000000
30030000
,
10000000
00100000
01000000
00100000
,
10000000
01000000
00010000
00001000
,
00010000
00000100
00001000
00000100
,
00000010
00000001
00001000
00000010
,
00000100
00000001
00001000
00000001
,
00000010
00001000
00010000
01000000
,
10000000
00010000
00100000
00001000
,
00011000
00000000
00010000
00001000
,
00000010
00000000
00000001
00001000
,
00000000
00000000
00000001
00000100
,
00001000
00000000
00010000
00001000
,
01000000
00010000
00010000
00010000
,
10000000
00000000
00000000
00100000
00000000
00000000
00020000
00000000
,
00000000
00000000
00030000
00001000
,
00000100
00000000
00000000
00000001
00000000
00000000
00002000
00000000
,
00000000
00000000
00000000
00003000
,
00000001
00000100
00000010
00000100
,
00000001
00000010
00001000
00010000
,
00001000
00100000
00010000
01000000
,
00100000
10000000
01000000
00100000
,
00010000
10000000
00100000
10000000
,
01000000
00010000
00001000
00000010
,
00000001
00001000
00000100
00010000
,
00011000
00000000
00001000
00010000
,
01000000
00000000
10000000
00010000
,
00000000
00000000
10000000
00100000
,
00010000
00000000
00001000
00010000
,
00000010
00001000
00001000
00001000
,
00000001
00000000
00000000
00000100
00000000
00000000
00002000
00000000
,
00000000
00000000
00003000
00010000
,
00100000
00000000
00000000
10000000
00000000
00000000
00020000
00000000
,
00000000
00000000
00000000
00030000
,
20000000
31000000
00020000
00031000
,
00000020
00000031
00002000
00003001
,
00000200
00001300
00020000
00130000
,
10000000
00010000
01000000
00011000
,
00000000
00000000
00000000
00000000
;
#NOTES:
     dance-double:
     :
     Medium:
     11:
     :
00000000
00000000
00000000
00000000
,
00000000
00000000
00000000
00000000
,
00000000
00000000
00000000
00000000
,
00000000
00000000
00000000
00000000
,
00000000
00000000
00000000
00000000
,
00000002
00000000
00000003
00000000
00001000
00000100
00001000
00000100
,
00020000
00000000
00030000
00000000
00001000
00100000
00001000
00100000
,
00020000
00000000
00030000
00000000
10000000
01000000
10000000
01000000
,
00200000
00000000
00310000
00000000
00011000
00000000
00010000
00001000
,
00000100
00000000
00000001
00000100
00000010
00000000
00000001
00000000
,
00000110
00000000
00001000
00010000
00100000
00000000
01100000
00000000
,
10000000
00000000
00010000
00100000
00001000
00000000
00010000
00000000
,
00001000
00010000
00000010
00000000
00001000
00000001
00001000
00000001
,
00000100
00000000
00000010
00001000
00000010
00000000
00010000
00001000
,
00100000
00000000
00010000
01000000
00010000
00000000
10010000
00000000
,
10000000
00000000
01000000
00010000
00001000
00000000
00000010
00000000
,
00000001
00000100
00000001
00000100
00001000
00000000
00010000
00100000
,
10000000
00000000
00010000
01000000
00010000
00000000
00100000
00001000
,
00010000
00000000
00001000
00000100
00000010
00000000
00000110
00000000
,
00000001
00000000
00000100
00001000
00010000
00000000
00001000
00000000
,
00100000
00010000
10000000
00100000
10000000
00000000
01000000
00000000
,
00110000
00000000
00010000
00100000
00001000
00000000
00010000
00000000
,
00000100
00000000
00001000
00000000
00000001
00000010
00000100
00000000
,
00001100
00000000
00001000
00000100
00010000
00000000
00001000
00000000
,
01000000
00010000
10000000
00100000
,
10000000
01000000
00100000
00000000
00010000
01000000
00100000
00010000
,
00001000
00010000
00001000
00000000
00010000
00000010
00001000
00000000
,
00000001
00000100
00000010
00001000
00000000
00000100
00010000
00001000
,
00000000
00010000
00001000
00010000
00000000
00001000
00100000
00000000
,
00010000
10000000
01000000
00100000
00000000
00010000
00100000
00001000
,
00000000
00010000
00001000
00010000
00000000
00001000
00000100
00000001
,
00000010
00000100
00001000
00000100
00000000
00010000
00001000
01000000
,
00000000
00010000
00100000
00010000
00000000
10000000
00100000
01000000
,
00010000
00000000
10000000
00000000
01000000
00000000
00010000
00001000
,
00000000
00000000
00000000
00000000
00100000
00010000
00001000
00000100
,
00000010
00000000
00000001
00000100
00000000
00001000
00010000
00000000
,
00001000
00000000
00010000
00000100
00001000
00010000
00100000
01000000
,
10000000
00000000
00100000
10000000
00000000
01000000
00010000
00000000
,
00001000
00010000
00001000
00000010
,
00000001
00000000
00000000
00001000
00000000
00000000
00002002
00000000
,
00000000
00000000
00000000
00000000
00003003
00001000
00000100
00010000
,
00001000
00000000
00000000
00100000
00000000
00000000
00220000
00000000
,
00000000
00000000
00000000
00330000
,
10000000
01000000
00100000
00010000
00000000
01000000
00001000
00010000
,
00000000
00001000
00010000
00001000
00000000
00010000
00000010
00000000
,
00001000
00000001
00000100
00000010
00000000
00001000
00000010
00010000
,
00000000
00001000
00010000
00001000
00000000
00010000
01000000
10000000
,
00100000
01000000
00010000
01000000
00000000
00001000
00010000
00000100
,
00000000
00001000
00000010
00001000
00000000
00000001
00000010
00000100
,
00001000
00000000
00000001
00000000
00000100
00000000
00001000
00010000
,
00000000
00000000
00000000
00000000
00000100
00001000
00010000
00100000
,
01000000
00000000
10000000
01000000
00000000
00010000
00001000
00000000
,
00010000
00000000
00001000
00100000
00010000
00001000
00000100
00000010
,
00000001
00000000
00000100
00000001
00000000
00000010
00001000
00000000
,
00010000
00001000
00010000
00100000
,
10000000
00000000
00000000
00010000
00000000
00000000
20020000
00000000
,
00000000
00000000
00000000
00000000
30030000
00010000
00100000
00001000
,
00010000
00000000
00000000
00000100
00000000
00000000
00002200
00000000
,
00000000
00000000
00000000
00003300
,
00000002
00000000
00000103
00000000
00000001
00001000
00000100
00010000
,
00002000
00000000
00013000
00000000
00001000
00100000
00010000
10000000
,
02000000
00000000
03100000
00000000
00010000
00100000
00001000
00010000
,
00000020
00001030
00001001
00000110
,
00000000
00000000
00000000
00000000
;
#NOTES:
     dance-double:
     :
     Hard:
     15:
     :
00000000
00000000
00000000
00000000
,
00000000
00000000
00000000
00000000
,
00000000
00000000
00000000
00000000
,
00000000
00000000
00000000
00000000
,
00000000
00000000
00000000
00000000
,
00001000
00010000
00000000
00010000
00000100
00000000
00001000
00000000
00000001
00000010
00000000
00000010
00000100
00000000
00001000
00000000
,
00000010
00010000
00000000
00010000
00001000
00000000
00100000
00000000
00010000
10000000
01000000
00000000
10000000
00000000
00100000
00000000
,
10000000
00010000
00000000
00010000
00100000
00000000
00001000
00000000
00010000
00000100
00000000
00000100
00001000
00000000
00000001
00000000
,
00000100
00000010
00000000
00000010
00001000
00000000
00000100
00000000
00010000
00001000
00010000
00000000
00001000
00000000
01000000
00000000
,
00020000
10000000
10030000
00200000
01000000
01300000
00010000
00100000
,
00002000
00010000
00013000
00000020
00001000
00001030
00000002
00000000
,
00000103
00000010
00000100
00000001
00000010
00001000
00010000
01000000
,
10000000
00000000
00100000
00000000
10000000
00000000
00010000
00000000
01000000
00001000
00010000
00001000
00010000
00000000
00001000
00000000
,
00020000
00000100
00030100
00002000
00000001
00003001
00000010
00000100
,
00002000
00000010
00003010
00020000
00001000
00031000
02000000
00000000
,
03010000
10000000
01000000
10000000
00100000
00010000
00001000
00000100
,
00000001
00000000
00001000
00000000
00000010
00000000
00001000
00000000
00000100
00010000
00001000
00010000
00001000
00000000
00010000
00000000
,
00000010
00001000
00000001
00000010
00000100
00001000
00000010
00000100
,
00001000
00010000
00001000
00100000
00010000
10000000
01000000
00100000
,
00010000
10000000
00100000
00010000
00001000
00000100
00000001
00000100
,
00000010
00001000
00000010
00001000
00000100
00000000
00010000
00000000
00001000
00100000
00001000
00100000
00010000
00000000
10000000
00000000
,
00010000
01000000
00000000
00010000
10000000
00000000
00100000
00000000
01000000
00001000
00010000
00000000
00001000
00000000
00001000
00000000
,
00010000
00000100
00000000
00001000
00000100
00000000
00000010
00000000
00000001
00001000
00000100
00000000
00001000
00000000
00001000
00000000
,
00000010
00010000
00000000
00001000
00010000
00000000
00001000
00000000
00100000
00010000
10000000
00000000
01000000
00000000
01000000
00000000
,
00100000
00010000
00000000
00100000
00001000
00000000
00010000
00000000
00000010
00001000
00000001
00000000
00000100
00000000
00000001
00000000
,
00001000
00000100
00000000
00010000
00000100
00000000
00001000
00000000
00000001
00000000
00001000
00000100
00010000
00001000
00010000
00000000
,
00001000
00100000
00001000
00000000
00100000
00010000
00100000
00010000
10000000
00000000
01000000
00000000
11000000
00000000
00000000
00000000
,
10000000
00000000
01000000
00000000
00100000
00000000
00010000
00000000
01000000
00100000
01000000
00000000
00100000
00000000
00010000
00000000
,
00001000
00010000
00001000
00000000
00010000
00000000
00001000
00000000
00000100
00000000
00000001
00000000
00002000
00000000
00000000
00000000
,
00003001
00000000
00000010
00000000
00000100
00000000
00001000
00000000
00000010
00000100
00000010
00000000
00000100
00000000
00001000
00000000
,
00010000
00001000
00010000
00000000
00001000
00000000
00010000
00000000
00001000
00100000
00010000
00000000
10000000
00000000
01000000
00000000
,
10000000
00000000
00100000
00000000
01000000
00000000
00010000
00000000
00100000
01000000
00100000
00000000
01000000
00000000
00010000
00000000
,
00001000
00010000
00001000
00000000
00010000
00000000
00001000
00000000
00000010
00000000
00000001
00000000
00001000
00000000
00000100
00000000
,
00001100
00000000
00011000
00000000
01010000
00000000
10000000
00010000
,
01000000
00000000
00010000
00000000
00100000
00000000
00001000
00010000
00001000
00010000
00001000
00000000
00010000
00000000
00000010
00000000
,
00001010
00000000
00000001
00001000
00000000
00000001
00000100
00000000
,
00000010
00000000
00001000
00000000
00000010
00000000
00010000
00001000
00010000
00001000
00010000
00000000
00001000
00000000
01000000
00000000
,
01010000
00000000
10000000
00100000
00000000
10000000
00010000
00000000
,
00100000
00100000
00101000
00000000
00011000
00000000
00001010
00000000
,
00000101
00000001
00001000
00001100
00000000
00000100
00020200
00000000
,
00000000
00000000
00000000
00000000
00030300
00010000
00001000
01000000
,
01010000
00010000
10000000
10100000
00000000
00010000
20020000
00000000
,
00000000
00000000
00000000
30030000
,
10000000
00000000
01000000
00000000
00010000
00000000
00001000
00000000
00010000
00001000
00010000
00000000
00001000
00000000
00000010
00000000
,
00000001
00000010
00000001
00000000
00001000
00000000
00000100
00000000
00000010
00000000
00000001
00000000
00002000
00000000
00000000
00000000
,
00003001
00000000
00000100
00000000
00001000
00000000
00010000
00000000
00001000
00010000
00001000
00000000
00010000
00000000
00100000
00000000
,
10000000
00100000
10000000
00000000
00010000
00000000
01000000
00000000
00010000
10000000
01000000
00000000
00100000
00000000
00010000
00000000
,
10000000
00000000
00100000
00000000
00010000
00000000
00001000
00000000
00010000
00001000
00010000
00000000
00001000
00000000
00000100
00000000
,
00000001
00000100
00000001
00000000
00001000
00000000
00000010
00000000
00000100
00000000
00000001
00000000
00001000
00000000
00000010
00000000
,
00001010
00000000
00011000
00000000
00110000
00000000
10000000
00010000
,
00100000
00000000
00010000
00000000
01000000
00000000
00001000
00010000
00001000
00010000
00001000
00000000
00010000
00000000
00000100
00000000
,
00001100
00000000
00000001
00001000
00000000
00000001
00000010
00000000
,
00000100
00000000
00001000
00000000
00000100
00000000
00010000
00001000
00010000
00001000
00010000
00000000
00001000
00000000
00100000
00000000
,
00110000
00000000
10000000
01000000
00000000
10000000
00010000
00000000
,
01000000
01000000
01001000
00000000
00011000
00000000
00001100
00000000
,
00000011
00000001
00001000
00001010
00000000
00000010
00020020
00000000
,
00000000
00000000
00000000
00000000
00030030
00010000
00001000
00100000
,
00110000
00010000
10000000
10100000
00000000
01000000
02200000
00000000
,
00000000
00000000
00000000
03300000
,
00010000
00100000
00000000
00100000
00001000
00000000
00010000
00000100
00001000
00000000
00000001
00000000
00000010
00000001
00000010
00000000
,
00000100
00001000
00000000
00001000
00000010
00000000
00010000
00001000
01000000
00000000
00010000
00000000
10000000
00100000
10000000
00000000
,
01000000
00100000
00000000
00100000
00010000
00000000
01000000
00001000
00010000
00000000
00001000
00000000
00010000
00000100
00010000
00000000
,
00000100
00001000
00000000
00001000
00000001
00000000
00000010
00000001
00001000
00000100
00010000
00000000
00001000
00010000
00001000
00000000
,
00000000
00000000
00000000
00000000
;
