
//----- song ID: inst -----//
#TITLE:insist;
#ARTIST:Tomoyuki Uchida feat.秋成;
#ARTISTTRANSLIT:Tomoyuki Uchida feat. Akinari;
#BANNER:insist.png;
#BACKGROUND:insist-bg.png;
#CDTITLE:./CDTitles/NOSTALGIA Op.2.png.png;
#MUSIC:insist.ogg;
#SAMPLESTART:61.214;
#SAMPLELENGTH:15;
#BPMS:0=136;
#STAGE:17;
#NOTES:
     dance-single:
     :
     Beginner:
     2:
     :
0000
0000
0000
0000
,
0000
0000
0000
0000
,
0000
0000
0000
0000
,
0000
0000
0000
0000
,
0000
0000
0000
0000
,
0000
0000
0000
0000
,
0001
0000
0100
0000
,
0001
0000
0000
0000
,
0010
0000
0010
0000
,
0100
0000
0000
0000
,
2000
0000
0000
0000
,
3000
0000
0000
0000
,
2000
0000
0000
0000
,
3000
0000
0000
0000
,
1000
0000
0000
0000
,
0100
0000
0000
0000
,
0010
0000
0000
0000
,
0000
0000
0000
0000
,
0001
0000
0001
0000
,
0100
0000
0000
0000
,
0001
0000
0000
0000
,
0000
0000
0000
0000
,
0001
0000
0001
0000
,
0010
0000
0000
0000
,
1000
0000
0000
0000
,
0000
0000
0000
0000
,
1000
0000
1000
0000
,
0010
0000
0000
0000
,
1000
0000
0000
0000
,
0000
0000
0000
0000
,
0100
0000
0100
0000
,
0010
0000
0000
0000
,
0001
0000
0000
0000
,
1000
0000
0000
0000
,
1001
0000
0000
0000
,
0001
0000
0001
0000
,
0010
0000
0000
0000
,
0001
0000
0001
0000
,
0100
0000
0000
0000
,
0010
0000
0010
0000
,
1000
0000
0000
0000
,
2000
0000
0000
0000
,
3000
0000
0000
0000
,
1000
0000
1000
0000
,
0100
0000
0000
0000
,
1000
0000
1000
0000
,
0010
0000
0000
0000
,
0100
0000
0100
0000
,
0001
0000
0000
0000
,
0002
0000
0000
0000
,
0003
0000
0000
0000
,
1001
0000
0000
0000
,
0000
0000
0000
0000
,
0001
0000
0001
0000
,
0100
0000
0000
0000
,
0100
0000
0010
0000
,
0100
0000
0000
0000
,
0010
0000
0010
0000
,
1000
0000
0000
0000
,
1001
0000
0000
0000
,
0000
0000
0000
0000
,
1000
0000
0100
0000
,
0010
0000
0000
0000
,
0001
0000
0000
0000
,
2002
0000
0000
0000
,
0000
0000
0000
0000
,
3003
0000
0000
0000
,
0000
0000
0000
0000
;
#NOTES:
     dance-single:
     :
     Easy:
     7:
     :
0000
0000
0000
0000
,
0000
0000
0000
0000
,
0000
0000
0000
0000
,
0000
0000
0000
0000
,
0000
0000
0000
0000
,
0000
0000
0000
0000
,
0001
0000
1000
0000
0010
1000
0100
0000
,
0010
0010
0010
0000
,
1000
0000
0001
0000
0010
0001
0100
0000
,
0010
0010
0010
0000
,
2000
0000
0000
0000
,
3000
0000
0000
0000
,
0002
0000
0000
0000
,
0003
0000
0000
0000
,
1000
0100
0010
0001
,
1000
0000
0100
0000
0010
0001
0010
0000
,
0001
0100
0010
1000
,
0001
0000
0100
0000
0010
1000
0010
0000
,
1000
0100
1000
0001
,
0100
0010
0100
0000
,
0002
0000
0000
0003
,
2000
0000
0000
3000
,
0001
0100
0001
1000
,
0100
0010
0100
0000
,
2000
0000
0000
3000
,
0002
0000
0000
0003
,
0001
0011
0000
0010
,
0001
0100
0110
0000
,
1000
1010
0000
0010
,
1000
0100
0110
0000
,
0001
0100
0001
0100
,
1000
0100
0001
0000
,
1000
0100
1000
0100
,
0001
0100
1000
0000
,
2002
0000
0000
3003
,
1000
0010
0100
0001
,
0010
0000
0100
0000
1000
0100
1000
0000
,
0001
0010
1000
0010
,
0002
0000
0000
0003
,
0001
0010
0100
1000
,
0010
0000
0100
0000
0001
0100
0001
0000
,
1000
0010
0001
0010
,
2000
0000
0000
3000
,
0001
0110
1000
0110
,
0001
0100
0001
0000
1000
0100
1000
0000
,
0002
0003
0200
0300
,
0020
0000
0000
0030
,
1000
0110
0001
0110
,
1000
0010
1000
0000
0001
0010
0001
0000
,
2000
3000
0020
0030
,
0200
0000
0000
0300
,
1001
0000
0000
0000
,
0110
0000
0000
0000
,
0001
0010
0100
0000
,
1000
0010
0100
0000
,
0001
0100
0010
0100
,
0001
0000
1000
0000
0100
0010
0100
0000
,
1000
0010
0100
0001
,
0010
0001
1000
0000
,
0001
0010
0001
0000
1000
0010
1000
0000
,
0100
0100
0100
0000
,
1000
0100
0010
0001
,
0100
0010
0100
0010
,
1000
0000
0001
0001
,
0100
0000
0000
0220
0000
0000
0000
0000
,
0000
0000
0000
0000
,
0330
0000
0000
0000
,
0000
0000
0000
0000
;
#NOTES:
     dance-single:
     :
     Medium:
     12:
     :
0000
0000
0000
0000
,
0000
0000
0000
0000
,
0000
0000
0000
0000
,
0000
0000
0000
0000
,
0000
0000
0000
0000
,
0000
0000
0000
0000
,
0001
1000
0001
1000
0100
0010
0100
0000
,
1000
0010
0100
0010
0100
0001
1000
0000
,
0001
0100
0001
0100
0010
1000
0010
1000
,
0020
0230
0302
1003
,
0002
0000
0000
0000
,
0000
0000
0000
0000
,
2003
0000
0000
0000
,
0000
0000
0000
0000
,
3001
0010
0001
0010
0100
1000
0100
1000
,
0010
1000
0100
0000
0010
0001
0100
0000
,
0001
0100
0001
0100
0010
1000
0010
1000
,
0100
1000
0010
0000
0100
0001
0010
0000
,
0001
0100
1000
0100
0001
0100
0010
0000
,
1000
0100
0001
0100
1000
0100
0010
0000
,
0001
1000
0010
0100
0010
1000
0001
0010
,
0100
0001
0100
1000
0002
0000
1003
0000
,
1000
0010
0001
0010
1000
0010
0100
0000
,
0001
0010
1000
0010
0001
0010
0100
0000
,
1000
0001
0100
0010
0100
0001
1000
0100
,
0010
1000
0010
0001
2000
0000
3001
0000
,
0001
0000
0000
0000
0000
0000
0100
0000
0000
0000
0000
0110
0000
0000
0000
0010
0000
0000
1000
0000
0000
0010
0000
0000
,
0100
0000
0000
0001
0000
1000
0000
0000
0001
0000
0000
1000
0000
0000
0000
0000
0000
0000
0100
0000
0010
0000
0000
0001
,
0000
0000
0000
1000
0000
0000
0010
0000
0000
0100
0000
0010
0000
0000
0000
1000
0000
0000
0001
0000
0000
0100
0000
0000
,
1000
0000
0000
0000
0000
0100
0000
0000
0000
0001
0000
0000
0000
0000
0000
0000
0000
0000
1000
0000
0001
0000
0000
1000
,
0000
0000
0000
0000
0000
0000
0010
0000
0000
0000
0000
0110
0000
0000
0000
0100
0000
0000
0001
0000
0000
1000
0000
0000
,
0001
0000
0000
0010
0000
0100
0000
0000
1000
0000
0000
0001
0000
0000
0000
0000
0000
0000
1000
0000
0100
0000
0000
0010
,
0000
0001
1000
0010
0100
0001
0010
0001
,
1000
0100
1000
0010
0100
0001
0010
0001
,
0000
0000
0000
0000
0000
0000
0000
0000
0000
0000
0000
0000
0000
0000
0000
0000
0000
0000
1000
0000
0010
0000
0000
1000
,
0000
0000
0000
0000
0000
0000
0100
0000
0010
0000
0000
0001
0000
0000
0000
0000
0000
0000
0001
0000
0100
0000
0000
0001
,
0000
0000
0000
1000
0000
0000
0100
0000
0000
0001
0000
0000
0100
0000
0000
1000
0000
0000
0001
0000
0100
0000
0000
0010
,
0000
0000
0000
1000
0000
0000
0010
0000
0000
0100
0000
0010
0000
0000
0000
1000
0000
0000
0001
0000
0000
0200
0000
0000
,
0000
0000
0000
0320
0000
0000
0000
0000
0000
2030
0000
0000
0000
0000
0000
0000
0000
0000
3010
0000
0100
0000
0000
0001
,
0000
0000
0000
0000
0000
0000
0010
0000
0100
0000
0000
1000
0000
0000
0000
0000
0000
0000
1000
0000
0010
0000
0000
1000
,
0000
0000
0000
0001
0000
0000
0010
0000
0000
1000
0000
0000
0010
0000
0000
0001
0000
0000
1000
0000
0010
0000
0000
0100
,
0000
0000
0000
0001
0000
0000
0100
0000
0000
0010
0000
0100
0000
0000
0000
0001
0000
0000
1000
0000
0000
0010
0000
0000
,
1000
0000
0000
0100
0000
0000
0001
0000
0000
0100
0000
0000
2000
0000
0000
0000
0000
0000
3001
0000
1000
0000
0000
0010
,
0000
0000
0000
0000
0000
1000
0001
0000
0100
0000
0000
0010
0000
0000
0000
0000
0000
0000
1000
0000
0001
0000
0000
0010
,
0000
0000
0000
1000
0000
0000
0010
0000
0000
0001
0000
0000
0100
0000
0000
0010
0000
0000
1000
0000
0001
0000
0000
1000
,
0000
0000
0000
0001
0000
0000
0100
0000
0000
0001
0000
0100
0000
0000
0000
0020
0000
0000
0000
0000
0000
2030
0000
0000
,
0000
0000
0000
3002
0000
0000
0003
0000
0000
1001
0000
0000
0000
0000
0000
0000
0000
0000
1000
0000
0001
0000
0000
0100
,
0000
0000
0000
0000
0000
0001
1000
0000
0010
0000
0000
0100
0000
0000
0000
0000
0000
0000
0001
0000
1000
0000
0000
0100
,
0000
0000
0000
0001
0000
0000
0100
0000
0000
1000
0000
0000
0010
0000
0000
0100
0000
0000
0001
0000
1000
0000
0000
0001
,
0000
0000
0000
1000
0000
0000
0010
0000
0000
1000
0000
0010
0000
0000
0000
0100
0000
0000
0001
0000
0000
1000
0000
0000
,
0000
0002
2003
3001
,
1001
0000
0000
0000
0000
0000
0000
0000
0000
0000
0000
0000
0000
0000
0000
0000
0000
0000
0100
0000
0000
0000
0000
0110
,
0000
0000
0000
0000
0000
0000
0000
0000
0000
0000
0000
0000
0000
0000
0000
0001
0000
0000
0000
0000
1000
0000
0000
0000
,
1001
0000
0000
0000
0000
0000
0000
0000
0000
0000
0000
0000
0000
0000
0000
0000
0000
0000
1001
0000
0000
0000
0000
0110
,
0000
0001
0010
0100
1000
0010
0100
0000
,
0001
0100
0010
0100
0001
0010
0100
1000
,
0010
0100
0010
1000
0010
0100
0010
0000
,
1000
0010
0100
0010
1000
0100
0010
0001
,
0100
0010
0100
0001
0100
0010
0100
0000
,
0001
0100
1000
0100
0001
0010
1000
0010
,
0001
0000
0000
0010
0000
0000
0100
0000
0010
0000
0000
0100
0000
0000
0100
0000
0000
0010
0000
0000
0010
0000
0000
0000
,
0001
1000
0100
1000
0001
1000
0001
0010
,
0100
0000
0000
1000
0000
0000
0010
0000
0000
0100
0000
0000
0001
0000
0000
1000
0000
0001
1000
0000
0000
0000
0000
0000
,
0010
0000
0100
0000
0000
0000
0110
0000
0000
1000
0000
0001
1000
0000
0000
0010
0000
0000
0000
0000
0100
0000
0000
0000
,
0010
0000
0000
0010
0000
0000
0220
0000
0000
0000
0000
0000
0000
0000
0000
0000
,
0000
0000
0000
0000
,
0330
0000
0000
0000
,
0000
0000
0000
0000
;
#NOTES:
     dance-single:
     :
     Hard:
     15:
     :
0000
0000
0000
0000
,
0000
0000
0000
0000
,
0000
0000
0000
0000
,
0000
0000
0000
0000
,
0000
0000
0000
0000
,
0000
0000
0000
0000
,
1000
0000
1010
0000
1000
0100
0010
0000
,
0001
0000
0011
0000
0001
0100
0010
0000
,
1000
0100
0001
0000
0001
0100
1000
0000
,
0001
0010
0100
1000
0001
0100
0010
0000
,
2000
0000
0000
0000
,
3200
0000
0000
0000
,
0320
0000
0000
0000
,
0032
0000
0000
0000
,
1003
0100
0010
0100
1000
0100
0001
0100
,
1000
0100
0010
0100
1000
0100
0001
0100
,
1000
0010
0100
0010
1000
0010
0001
0010
,
1000
0010
0100
0010
1000
0010
0001
0010
,
1000
0000
0000
0100
0000
0000
0010
0000
0000
0001
0000
0010
0000
0000
0000
0011
0000
0000
0000
0000
0000
0001
0000
0000
,
0100
0000
0000
0010
0000
0000
1000
0000
0000
0010
0000
0100
0000
0000
0000
0000
0000
0000
1000
0000
0100
0000
0000
0001
,
0000
0000
0000
1000
0000
0000
0100
0000
0000
0010
0000
0100
0000
0000
0000
1000
0000
0000
0000
0000
0000
1010
0000
0000
,
0000
0010
0100
0010
2000
0000
3001
0000
,
0001
0000
0000
0100
0000
0000
0010
0000
0000
1000
0000
0010
0000
0000
0000
1010
0000
0000
0000
0000
0000
1000
0000
0000
,
0100
0000
0000
0010
0000
0000
0001
0000
0000
0010
0000
0100
0000
0000
0000
0000
0000
0000
0001
0000
0100
0000
0000
1000
,
0000
0000
0000
0001
0000
0000
0100
0000
0000
0010
0000
0100
0000
0000
0000
0001
0000
0000
0010
0000
0000
0001
0000
0000
,
1000
0000
0010
1000
0000
0010
1000
0000
0001
0100
0000
0001
0100
0000
0001
0010
0000
0001
0010
0000
0100
1000
0000
0100
,
1000
0000
0000
0000
0000
1001
0000
0000
0001
0100
0000
0010
0000
0000
0000
1000
0000
0010
0000
0000
1000
0010
0000
0100
,
0001
0000
0000
0010
0000
0001
0000
0000
1000
0000
0000
0010
0000
0000
0000
0100
0000
0010
0000
0000
1000
0100
0000
0010
,
0001
0000
0000
0100
0000
0000
1000
0000
0000
0100
0000
0001
0000
0000
0000
1000
0000
0000
0100
0000
0000
0001
0000
0000
,
0100
0000
0000
0000
0000
1000
0000
0000
0000
1001
0000
0000
0000
0000
1000
0100
0000
0010
0001
0000
1000
0100
0000
0010
,
0001
0000
0000
0000
0000
1001
0000
0000
1000
0100
0000
0010
0000
0000
0000
0001
0000
0010
0000
0000
0001
0010
0000
0100
,
1000
0000
0000
0010
0000
1000
0000
0000
0001
0000
0000
0010
0000
0000
0000
0100
0000
0010
0000
0000
0001
0100
0000
0010
,
1000
0000
0000
0100
0000
0000
0001
0000
0000
0100
0000
1000
0000
0000
0000
0001
0000
0000
0000
0000
0100
0000
0000
0000
,
0010
0000
1000
0001
0000
1000
0100
0000
1000
0001
0000
1000
0010
0000
1000
0100
0000
0010
0001
0000
1000
0100
0000
0010
,
0000
0000
0000
0000
0000
0000
0000
0000
0000
0000
0000
0000
0000
0000
0000
0000
0000
0010
0100
0000
0010
0000
0000
1001
,
0000
0000
1000
0010
0000
0100
0001
0000
0100
0000
0000
1001
0000
0000
0001
0010
0000
0100
1000
0000
0100
0000
0000
1001
,
0000
0000
0000
0001
0000
0000
0100
0000
0000
0010
0000
0000
0001
0000
0000
1000
0000
0000
0100
0000
0001
0000
0000
1001
,
0000
0000
0000
1000
0000
0000
0100
0000
0000
0010
0000
0100
0000
0000
0000
0001
0000
0000
0100
0000
0000
1100
0000
0000
,
0000
0000
0000
1010
0000
0000
0000
0000
0000
0011
0000
0000
0000
0000
0000
0000
0000
0100
0010
0000
0100
0000
0000
1001
,
0000
0000
0001
0100
0000
0010
1000
0000
0010
0000
0000
1001
0000
0000
1000
0100
0000
0010
0001
0000
0010
0000
0000
1001
,
0000
0000
0000
1000
0000
0000
0010
0000
0000
0100
0000
0000
1000
0000
0000
0001
0000
0000
0010
0000
1000
0000
0000
1001
,
0000
0000
0000
0001
0000
0000
0010
0000
0000
0100
0000
0010
0000
0000
0000
1000
0000
0000
0010
0000
0000
0001
0000
0000
,
0010
0000
0001
1000
0000
0001
0100
0000
0001
1000
0000
0001
0010
0000
0001
0100
0000
0010
1000
0000
0001
0100
0000
0010
,
0000
0000
1000
0100
0000
0010
0001
0000
0100
0010
0000
1000
0000
0000
0001
0100
0000
0010
1000
0000
0100
0000
0000
0010
,
0000
0000
0000
0001
0000
0000
0100
0000
0000
0001
0000
0000
0010
0000
0000
0100
0000
0000
0001
0000
0100
0000
0000
1000
,
0000
0000
0000
0001
0000
0000
0100
0000
0000
1000
0000
0100
0000
0000
0000
0001
0000
0000
0010
0000
0000
0011
0000
0000
,
0000
0000
0000
1010
0000
0000
0000
0000
0000
1001
0000
0000
0000
0000
0000
0000
0000
0100
0010
0000
0100
0000
0000
1001
,
0000
0000
0001
0010
0000
0100
1000
0000
0010
0100
0000
0001
0000
0000
1000
0010
0000
0100
0001
0000
0010
0000
0000
0100
,
0000
0000
0000
1000
0000
0000
0010
0000
0000
1000
0000
0000
0100
0000
0000
0010
0000
0000
1000
0000
0010
0000
0000
0001
,
0000
0000
0000
1000
0000
0000
0010
0000
0000
0001
0000
0010
0000
0000
0000
1000
0000
0000
0100
0000
0000
1100
0000
0000
,
0000
2000
3200
0320
,
0031
0000
1000
0000
0000
0010
0100
0000
0000
0010
0000
1000
0000
0000
0001
0100
0000
0000
0101
0000
0000
0000
0000
1001
,
0000
0000
1000
0010
0000
0000
0001
0000
0000
0010
0000
1000
0000
0000
0001
0100
0000
0001
0000
0000
1001
0000
0000
0000
,
1001
0000
0000
1000
0000
0100
0000
0000
0010
0000
0000
0001
0000
0000
1000
0000
0000
0100
0000
0000
0010
0000
0000
0001
,
1000
1010
0101
0110
,
1001
0000
0000
0001
0000
0100
0000
0000
0001
0000
0000
1000
0000
0000
0010
1000
0000
0000
0010
0000
0000
0100
0000
0001
,
0000
0000
0000
1000
0000
0100
0000
0000
0010
0000
0000
0100
0000
0000
0000
0110
0000
0000
0001
0000
0000
1000
0000
0000
,
0000
0000
0000
1000
0000
0100
0000
0000
1000
0000
0000
0010
0000
0000
0100
0001
0000
0010
0001
0000
0100
0001
0000
0000
,
1000
0000
0000
0000
0000
0100
0000
0000
0000
0001
0000
0000
0000
0000
0100
0000
0000
0000
1000
0000
0000
1001
0000
0000
,
0001
0000
0000
1000
0000
0010
0100
0000
0001
1000
0000
0100
0010
0000
0001
0100
0000
0010
1000
0000
0100
0001
0000
0100
,
1000
0000
0000
0010
0000
0000
0100
0000
0010
0000
0000
1001
0000
0000
1000
0010
0000
0100
0001
0000
0010
0000
0000
0000
,
0001
0000
0000
0100
0000
1000
0000
0000
0100
0000
0000
0001
0000
0000
0010
0100
0000
0000
1000
0000
0000
0001
0000
0000
,
1000
0000
0000
0100
0000
0001
0000
0000
0100
0000
0000
1000
0000
0000
0001
1000
0000
0001
0000
0000
0001
1000
0000
0000
,
0010
0000
0100
0000
0000
0000
0110
0000
0000
0001
0100
0010
1000
0000
0000
0001
0000
0000
0000
0000
1000
0000
0000
0000
,
0010
0000
0000
0010
0000
0000
0220
0000
0000
0000
0000
0000
0000
0000
0000
0000
,
0000
0000
0000
0000
,
0330
0000
0000
0000
,
0000
0000
0000
0000
;
#NOTES:
     dance-double:
     :
     Easy:
     7:
     :
00000000
00000000
00000000
00000000
,
00000000
00000000
00000000
00000000
,
00000000
00000000
00000000
00000000
,
00000000
00000000
00000000
00000000
,
00000000
00000000
00000000
00000000
,
00000000
00000000
00000000
00000000
,
10000000
00000000
10000000
00000000
01000000
00100000
01000000
00000000
,
00100000
00100000
00001000
00000000
,
00010000
00000000
00010000
00000000
00000010
00001000
00000010
00000000
,
00000100
00000100
00000001
00000000
,
00000001
00000100
00000001
00000000
,
00001000
00000100
00001000
00000000
,
00000100
00010000
00000100
00000000
,
00010000
00001000
00010000
00000000
,
00001000
00100000
00001000
00100000
,
00010000
00100000
00010000
00000000
,
10000000
00010000
10000000
00010000
,
01000000
00100000
10000000
00000000
,
10000000
01000000
00100000
00010000
,
00100000
00001000
00010000
00000000
,
00002000
00000000
00000000
00003000
,
00020000
00000000
00000000
00030000
,
00001000
00010000
00001000
00010000
,
00000010
00001000
00000100
00000000
,
00000020
00000000
00000000
00000030
,
00000002
00000000
00000000
00000003
,
00000001
00000011
00000000
00000001
,
00001000
00001100
00000000
00000100
,
00010000
00011000
00000000
00001000
,
01000000
01010000
00000000
00010000
,
01000000
00100000
01000000
00100000
,
10000000
00010000
10000000
00000000
,
10000000
01000000
00100000
00001000
,
00010000
00000100
00000010
00000001
,
00002000
00000000
00000000
00003000
,
00000001
00000100
00000010
00001000
,
00000001
00000000
00000010
00000000
00000100
00001000
00000100
00000000
,
00010000
00001000
00100000
00001000
,
00020000
00000000
00000000
00000000
,
00031000
01000000
00010000
00100000
,
01000000
00000000
10000000
00000000
00100000
01000000
00100000
00000000
,
10000000
00100000
01000000
00010000
,
00200000
00000000
00000000
00000000
,
00301000
00011000
00010000
00011000
,
00001000
00010000
00000100
00000000
00001000
00000010
00001000
00000000
,
00000001
00000100
00000010
00001000
,
00000200
00000000
00000000
00000300
,
00001000
00000110
00000001
00000110
,
00001000
00000001
00001000
00000000
00000010
00010000
00000010
00000000
,
00010000
00001000
00100000
00010000
,
02000000
00000000
00000000
03000000
,
01100000
00000000
00000000
00000000
,
10010000
00000000
00000000
00000000
,
10000000
01000000
00010000
00000000
,
00001000
00000000
00010000
00000000
,
00001000
00010000
00000010
00010000
,
00000100
00010000
00001000
00000000
,
00010000
00001000
00000010
00000001
,
00000100
00000010
00001000
00000000
,
00000010
00000000
00010000
00000000
00001000
00010000
00001000
00000000
,
00100000
00000000
00010000
00000000
01000000
00100000
01000000
00000000
,
00100000
10000000
00010000
01000000
,
00001000
00010000
00001000
00000000
,
00010000
00010000
00000100
00001000
,
00000010
00000000
00000000
00000220
00000000
00000000
00000000
00000000
,
00000000
00000000
00000000
00000000
,
00000330
00000000
00000000
00000000
,
00000000
00000000
00000000
00000000
;
#NOTES:
     dance-double:
     :
     Medium:
     12:
     :
00000000
00000000
00000000
00000000
,
00000000
00000000
00000000
00000000
,
00000000
00000000
00000000
00000000
,
00000000
00000000
00000000
00000000
,
00000000
00000000
00000000
00000000
,
00000000
00000000
00000000
00000000
,
00010000
00001000
00010000
00000100
00001000
00000100
00000010
00000000
,
00000001
00000100
00000010
00000000
00001000
00000100
00000010
00000000
,
00000001
00000010
00000001
00001000
00000100
00001000
00000100
00000000
,
00020000
00032000
00203000
00310000
,
20000000
00000000
00000000
00000000
,
00000000
00000000
00000000
00000000
,
30020000
00000000
00000000
00000000
,
00000000
00000000
00000000
00000000
,
10030000
00100000
10000000
00100000
01000000
00010000
01000000
00001000
,
00010000
00001000
00010000
00000010
00001000
00000000
00000001
00000000
,
00000001
00000010
00000001
00000010
00000100
00001000
00000100
00010000
,
00001000
00010000
00001000
00100000
00010000
00000000
01000000
00000000
,
00100000
10000000
01000000
00000000
00100000
00010000
01000000
00000000
,
00100000
10000000
01000000
00010000
00001000
00000000
00010000
00001000
,
00000010
00000001
00000010
00000000
00000100
00001000
00000100
00000000
,
00001000
00000010
00010000
00000100
00002000
00000000
00003100
00000000
,
00000010
00000001
00000100
00000000
00000010
00001000
00000100
00000000
,
00000010
00000001
00000100
00001000
00010000
00000000
00001000
00010000
,
00100000
10000000
00100000
00000000
01000000
00010000
01000000
00000000
,
00010000
00100000
00001000
01000000
00020000
00000000
01030000
00000000
,
00100000
00000000
00000000
00000000
00000000
00000000
10000000
00000000
00000000
00000000
00000000
10010000
00000000
00000000
00000000
10000000
00000000
00000000
01000000
00000000
00000000
00010000
00000000
00000000
,
01000000
00000000
00000000
00100000
00000000
00001000
00000000
00000000
00010000
00000000
00000000
00001000
00000000
00000000
00000000
00000000
00000000
00000000
00010000
00000000
00001000
00000000
00000000
00000010
,
00000000
00000000
00000000
00000001
00000000
00000000
00000100
00000000
00000000
00000001
00000000
00000010
00000000
00000000
00000000
00000100
00000000
00000000
00001000
00000000
00000000
00000010
00000000
00000000
,
00001000
00000000
00000000
00000000
00000000
00000100
00000000
00000000
00000000
00010000
00000000
00000000
00000000
00000000
00000000
00000000
00000000
00000000
00001000
00000000
00010000
00000000
00000000
00001000
,
00000000
00000000
00000000
00000000
00000000
00000000
00001000
00000000
00000000
00000000
00000000
00100000
00000000
00000000
00000000
01000000
00000000
00000000
00100000
00000000
00000000
00010000
00000000
00000000
,
10000000
00000000
00000000
00100000
00000000
01000000
00000000
00000000
00010000
00000000
00000000
10000000
00000000
00000000
00000000
00000000
00000000
00000000
10000000
00000000
01000000
00000000
00000000
00100000
,
00000000
00010000
01000000
00010000
00100000
01000000
00010000
00001000
,
00010000
00001000
00000010
00000100
00001000
00000010
00000100
00000010
,
00000000
00000000
00000000
00000000
00000000
00000000
00000000
00000000
00000000
00000000
00000000
00000000
00000000
00000000
00000000
00000000
00000000
00000000
00000001
00000000
00000100
00000000
00000000
00000010
,
00000000
00000000
00000000
00000000
00000000
00000000
00001000
00000000
00000100
00000000
00000000
00000010
00000000
00000000
00000000
00000000
00000000
00000000
00000001
00000000
00000100
00000000
00000000
00001000
,
00000000
00000000
00000000
00010000
00000000
00000000
00100000
00000000
00000000
10000000
00000000
00000000
00100000
00000000
00000000
00010000
00000000
00000000
00100000
00000000
10000000
00000000
00000000
00010000
,
00000000
00000000
00000000
01000000
00000000
00000000
10000000
00000000
00000000
01000000
00000000
00010000
00000000
00000000
00000000
00100000
00000000
00000000
00001000
00000000
00000000
00020000
00000000
00000000
,
00000000
00000000
00000000
00030200
00000000
00000000
00000000
00000000
00000000
00002300
00000000
00000000
00000000
00000000
00000000
00000000
00000000
00000000
00003001
00000000
00000010
00000000
00000000
00000100
,
00000000
00000000
00000000
00000000
00000000
00000000
00001000
00000000
00000010
00000000
00000000
00000100
00000000
00000000
00000000
00000000
00000000
00000000
00000001
00000000
00000010
00000000
00000000
00001000
,
00000000
00000000
00000000
00010000
00000000
00000000
01000000
00000000
00000000
10000000
00000000
00000000
00100000
00000000
00000000
01000000
00000000
00000000
00010000
00000000
00100000
00000000
00000000
00010000
,
00000000
00000000
00000000
01000000
00000000
00000000
00001000
00000000
00000000
00010000
00000000
00001000
00000000
00000000
00000000
00000010
00000000
00000000
00000100
00000000
00000000
00001000
00000000
00000000
,
00000010
00000000
00000000
00000100
00000000
00000000
00001000
00000000
00000000
00010000
00000000
00000000
00200000
00000000
00000000
00000000
00000000
00000000
10300000
00000000
01000000
00000000
00000000
00100000
,
00000000
00000000
00000000
00000000
00000000
00000000
00010000
00000000
01000000
00000000
00000000
00100000
00000000
00000000
00000000
00000000
00000000
00000000
10000000
00000000
01000000
00000000
00000000
00010000
,
00000000
00000000
00000000
00001000
00000000
00000000
00000010
00000000
00000000
00000001
00000000
00000000
00000010
00000000
00000000
00001000
00000000
00000000
00000010
00000000
00000001
00000000
00000000
00001000
,
00000000
00000000
00000000
00000100
00000000
00000000
00000001
00000000
00000000
00000100
00000000
00001000
00000000
00000000
00000000
00000010
00000000
00000000
00010000
00000000
00000000
00002000
00000000
00000000
,
00000000
00000000
00000000
02003000
00000000
00000000
00000000
00000000
00000000
03020000
00000000
00000000
00000000
00000000
00000000
00000000
00000000
00000000
10030000
00000000
00100000
00000000
00000000
01000000
,
00000000
00000000
00000000
00000000
00000000
00000000
00010000
00000000
00100000
00000000
00000000
01000000
00000000
00000000
00000000
00000000
00000000
00000000
10000000
00000000
00100000
00000000
00000000
00010000
,
00000000
00000000
00000000
00001000
00000000
00000000
00000100
00000000
00000000
00000001
00000000
00000000
00000010
00000000
00000000
00000100
00000000
00000000
00001000
00000000
00000010
00000000
00000000
00001000
,
00000000
00000000
00000000
00000100
00000000
00000000
00010000
00000000
00000000
00001000
00000000
00010000
00000000
00000000
00000000
00100000
00000000
00000000
01000000
00000000
00000000
00010000
00000000
00000000
,
00000000
20000000
32000000
03020000
,
00032000
00000000
00000000
00000000
00000000
00000000
00000000
00000000
00000000
00000000
00000000
00000000
00003000
00000000
00000000
00000000
00000000
00000000
00010000
00000000
00000000
00000000
00000000
00011000
,
00000000
00000000
00000000
00000000
00000000
00000000
00000000
00000000
00000000
00000000
00000000
00000000
00000000
00000000
00000000
00000100
00000000
00000000
00000000
00000000
00000010
00000000
00000000
00000000
,
00000110
00000000
00000000
00000000
00000000
00000000
00000000
00000000
00000000
00000000
00000000
00000000
00000000
00000000
00000000
00000000
00000000
00000000
00000001
00000000
00000000
00000000
00000000
00001000
,
00000000
00000001
00000100
00000010
00010000
00001000
01000000
00000000
,
00010000
00100000
01000000
10000000
00100000
01000000
00010000
00100000
,
01000000
00010000
00001000
00100000
00001000
00010000
00000100
00000000
,
00001000
00000010
00000100
00000001
00000010
00000100
00001000
00000010
,
00000100
00001000
00010000
00100000
01000000
00100000
10000000
00000000
,
00010000
01000000
10000000
01000000
00010000
00100000
10000000
00100000
,
00010000
00000000
00000000
00100000
00000000
00000000
00001000
00000000
00010000
00000000
00000000
00001000
00000000
00000000
00001000
00000000
00000000
00010000
00000000
00000000
00010000
00000000
00000000
00000000
,
00001000
00010000
00000100
00001000
00000010
00000100
00000010
00001000
,
00000001
00000000
00000000
00000010
00000000
00000000
00001000
00000000
00000000
00010000
00000000
00000000
01000000
00000000
00000000
10000000
00000000
00010000
10000000
00000000
00000000
00000000
00000000
00000000
,
00100000
00000000
01000000
00000000
00000000
00000000
01100000
00000000
00000000
10000000
00000000
01000000
00100000
00000000
00000000
00001000
00000000
00000000
00000000
00000000
00010000
00000000
00000000
00000000
,
00001000
00000000
00000000
00001000
00000000
00000000
00022000
00000000
00000000
00000000
00000000
00000000
00000000
00000000
00000000
00000000
,
00000000
00000000
00000000
00000000
,
00033000
00000000
00000000
00000000
,
00000000
00000000
00000000
00000000
;
#NOTES:
     dance-double:
     :
     Hard:
     15:
     :
00000000
00000000
00000000
00000000
,
00000000
00000000
00000000
00000000
,
00000000
00000000
00000000
00000000
,
00000000
00000000
00000000
00000000
,
00000000
00000000
00000000
00000000
,
00000000
00000000
00000000
00000000
,
00001000
00010000
00100000
00000000
10000000
00100000
00010000
00000000
,
00001000
00010000
00001000
00000010
00000001
00000010
00001000
00000000
,
00010000
00001000
00000100
00000000
00000001
00000100
00001000
00000000
,
00010000
00001000
00010000
01000000
10000000
01000000
00010000
00000000
,
00002000
00000000
00000000
00000000
,
00023000
00000000
00000000
00000000
,
00032000
00000000
00000000
00000000
,
00023000
00000000
00000000
00000000
,
00031000
00000010
00001000
00000010
00000001
00000100
00000001
00000100
,
00001000
00010000
00001000
00010000
00100000
00010000
00001000
00000000
,
00010000
00100000
00010000
00100000
10000000
01000000
10000000
01000000
,
00010000
00001000
00010000
00001000
00000010
00001000
00010000
00000000
,
00001000
00000000
00000000
00000010
00000000
00000000
00000001
00000000
00000000
00001000
00000000
00000001
00000000
00000000
00000000
00001001
00000000
00000000
00000000
00000000
00000000
00000001
00000000
00000000
,
00000100
00000000
00000000
00000010
00000000
00000000
00001000
00000000
00000000
00000100
00000000
00010000
00000000
00000000
00000000
00000000
00000000
00000000
00010000
00000000
00001000
00000000
00000000
00011000
,
00000000
00000000
00000000
00001000
00000000
00000000
00010000
00000000
00000000
01000000
00000000
10000000
00000000
00000000
00000000
01000000
00000000
00000000
00000000
00000000
00000000
10000000
00000000
00000000
,
00000000
00100000
01000000
00100000
00020000
00000000
00031000
00000000
,
00010000
00000000
00000000
00100000
00000000
00000000
10000000
00000000
00000000
00010000
00000000
10000000
00000000
00000000
00000000
10010000
00000000
00000000
00000000
00000000
00000000
10000000
00000000
00000000
,
01000000
00000000
00000000
00100000
00000000
00000000
00010000
00000000
00000000
01000000
00000000
00001000
00000000
00000000
00000000
00000000
00000000
00000000
00001000
00000000
00010000
00000000
00000000
00011000
,
00000000
00000000
00000000
00010000
00000000
00000000
00001000
00000000
00000000
00000100
00000000
00000001
00000000
00000000
00000000
00000100
00000000
00000000
00000001
00000000
00000000
00001000
00000000
00000000
,
00000001
00000000
00000010
00000001
00000000
00000000
00001000
00000000
00000100
00001000
00000000
00000000
00000100
00000000
00010000
00000100
00000000
00010000
00001000
00000000
00010000
00001000
00000000
00010000
,
00001000
00000000
00000000
00000000
00000000
00011000
00000000
00000000
00001000
01000000
00000000
00100000
00000000
00000000
00000000
10000000
00000000
00100000
00000000
00000000
10000000
01000000
00000000
00100000
,
00010000
00000000
00000000
01000000
00000000
00010000
00000000
00000000
00100000
00000000
00000000
00001000
00000000
00000000
00000000
00000000
00000000
00010000
00000100
00000000
00001000
00000100
00000000
00000010
,
00000001
00000000
00000000
00000100
00000000
00000000
00001000
00000000
00000000
00000100
00000000
00000001
00000000
00000000
00000000
00000010
00000000
00000000
00000100
00000000
00000000
00010000
00000000
00000000
,
00001000
00000000
00000000
00000000
00000000
00010000
00000000
00000000
00000000
00011000
00000000
00000000
00000000
00000000
00001000
01000000
00000000
00010000
00100000
00000000
00001000
01000000
00000000
00010000
,
00100000
00000000
00000000
00000000
00000000
01100000
00000000
00000000
10000000
01000000
00000000
00100000
00000000
00000000
00000000
00010000
00000000
10000000
00000000
00000000
00100000
01000000
00000000
00010000
,
00100000
00000000
00000000
00001000
00000000
00010000
00000000
00000000
00001000
00000000
00000000
00011000
00000000
00000000
00000000
00000000
00000000
00000000
00010000
00000000
00001000
00000000
00000000
00000010
,
00000001
00000000
00000000
00000100
00000000
00000000
00000010
00000000
00000000
00010000
00000000
00001000
00000000
00000000
00000000
01000000
00000000
00000000
00010000
00000000
00100000
00000000
00000000
00000000
,
01000000
00000000
10000000
01000000
00000000
00100000
00010000
00000000
10000000
01000000
00000000
00100000
00010000
00000000
01000000
00001000
00000000
00010000
00001000
00000000
00100000
00001000
00000000
00010000
,
00000000
00000000
00000000
00000000
00000000
00000000
00000000
00000000
00000000
00000000
00000000
00000000
00000000
00000000
00000000
00000000
00000000
00010000
00001000
00000000
00000010
00000000
00000000
00000001
,
00000000
00000000
00001000
00000100
00000000
00000010
00000001
00000000
00001000
00000000
00000000
00000010
00000000
00000000
00000001
00000010
00000000
00001000
00000010
00000000
00000100
00000000
00000000
00000001
,
00000000
00000000
00000000
00000100
00000000
00000000
00001000
00000000
00000000
00010000
00000000
00000000
00100000
00000000
00000000
10000000
00000000
00000000
00010000
00000000
01000000
00000000
00000000
01100000
,
00000000
00000000
00000000
00100000
00000000
00000000
10000000
00000000
00000000
01000000
00000000
00010000
00000000
00000000
00000000
01000000
00000000
00000000
00100000
00000000
00000000
00001000
00000000
00000000
,
00000000
00000000
00000000
00010000
00000000
00000000
00000000
00000000
00000000
00011000
00000000
00000000
00000000
00000000
00000000
00000000
00000000
00001000
00010000
00000000
00100000
00000000
00000000
10000000
,
00000000
00000000
00010000
01000000
00000000
00100000
10000000
00000000
00010000
00000000
00000000
00100000
00000000
00000000
10000000
00100000
00000000
00010000
00100000
00000000
01000000
00000000
00000000
10000000
,
00000000
00000000
00000000
01000000
00000000
00000000
00010000
00000000
00000000
00001000
00000000
00000000
00000010
00000000
00000000
00000001
00000000
00000000
00001000
00000000
00000100
00000000
00000000
00000110
,
00000000
00000000
00000000
00000010
00000000
00000000
00000001
00000000
00000000
00000100
00000000
00001000
00000000
00000000
00000000
00000100
00000000
00000000
00000010
00000000
00000000
00010000
00000000
00000000
,
00001000
00000000
00010000
00001000
00000000
00010000
00001000
00000000
01000000
00010000
00000000
01000000
00010000
00000000
00100000
01000000
00000000
00100000
01000000
00000000
10000000
01000000
00000000
00100000
,
00000000
00000000
00010000
10000000
00000000
00010000
00100000
00000000
00001000
00000000
00000000
00010000
00000000
00000000
00001000
00010000
00000000
00000010
00001000
00000000
00000010
00000000
00000000
00000100
,
00000000
00000000
00000000
00001000
00000000
00000000
00000100
00000000
00000000
00000001
00000000
00000000
00000010
00000000
00000000
00000100
00000000
00000000
00001000
00000000
00000010
00000000
00000000
00000100
,
00000000
00000000
00000000
00000001
00000000
00000000
00000100
00000000
00000000
00001000
00000000
00010000
00000000
00000000
00000000
00001000
00000000
00000000
00010000
00000000
00000000
01000000
00000000
00000000
,
00000000
00000000
00000000
01100000
00000000
00000000
00000000
00000000
00000000
10010000
00000000
00000000
00000000
00000000
00000000
00000000
00000000
10000000
00010000
00000000
01000000
00000000
00000000
00100000
,
00000000
00000000
10000000
01000000
00000000
00100000
00001000
00000000
00010000
00000000
00000000
00001000
00000000
00000000
00010000
00000010
00000000
00001000
00000100
00000000
00000010
00000000
00000000
00000001
,
00000000
00000000
00000000
00000010
00000000
00000000
00001000
00000000
00000000
00000010
00000000
00000000
00000001
00000000
00000000
00001000
00000000
00000000
00000100
00000000
00010000
00000000
00000000
00001000
,
00000000
00000000
00000000
00010000
00000000
00000000
00100000
00000000
00000000
01000000
00000000
00100000
00000000
00000000
00000000
10000000
00000000
00000000
00010000
00000000
00000000
10010000
00000000
00000000
,
00000000
20000000
30200000
00320000
,
00031000
00000000
00010000
00000000
00000000
00000100
00010000
00000000
00000000
00001000
00000000
00010000
00000000
00000000
00001000
00000010
00000000
00000000
00000001
00000000
00000000
00000000
00000000
00001001
,
00000000
00000000
00001000
00000001
00000000
00000000
00000100
00000000
00000000
00000010
00000000
00001000
00000000
00000000
00000100
00000000
00000000
00010000
00000000
00000000
00001000
00000000
00000000
00000000
,
00011000
00000000
00000000
00001000
00000000
00010000
00000000
00000000
00100000
00000000
00000000
01000000
00000000
00000000
00010000
00000000
00000000
00100000
00000000
00000000
01000000
00000000
00000000
10000000
,
00010000
00110000
11000000
10010000
,
00010000
00000000
00000000
10000000
00000000
01000000
00000000
00000000
00001000
00000000
00000000
00000100
00000000
00000000
00010000
00000100
00000000
00000000
00000010
00000000
00000000
00000001
00000000
00001000
,
00000000
00000000
00000000
00000001
00000000
00000100
00000000
00000000
00001000
00000000
00000000
00000100
00000000
00000000
00000000
00000010
00000000
00000000
00001000
00000000
00000000
00000001
00000000
00000000
,
00000100
00000000
00000000
00000001
00000000
00000100
00000000
00000000
00010000
00000000
00000000
01000000
00000000
00000000
00100000
10000000
00000000
00010000
01000000
00000000
00100000
10000000
00000000
00000000
,
00010000
00000000
00000000
00000000
00000000
00100000
00000000
00000000
00000000
00001000
00000000
00000000
00000000
00000000
00000010
00000000
00000000
00000000
00000001
00000000
00000000
00001000
00000000
00000000
,
00001001
00000000
00000000
00000001
00000000
00000010
00000100
00000000
00001000
00000010
00000000
00000100
00001000
00000000
00010000
00100000
00000000
10000000
01000000
00000000
00010000
01000000
00000000
00100000
,
00010000
00000000
00000000
10000000
00000000
00000000
01000000
00000000
00010000
00000000
00000000
00001000
00000000
00000000
00100000
00000000
00000000
00001000
00000000
00000000
00010000
00000100
00000000
00000000
,
00001000
00000000
00000000
00000001
00000000
00000100
00000000
00000000
00000001
00000000
00000000
00000010
00000000
00000000
00000100
00001000
00000000
00000000
00000100
00000000
00000000
00010000
00000000
00000000
,
00001000
00000000
00000000
00100000
00000000
00010000
00000000
00000000
01000000
00000000
00000000
00010000
00000000
00000000
00100000
01000000
00000000
10000000
00010000
00000000
01000000
00100000
00000000
00000000
,
10000000
00000000
00010000
00000000
00000000
00000000
10010000
00000000
00000000
10000000
01000000
00100000
00010000
00000000
00000000
00100000
00000000
00000000
00000000
00000000
00001000
00000000
00000000
00000000
,
00010000
00000000
00000000
00010000
00000000
00000000
00022000
00000000
00000000
00000000
00000000
00000000
00000000
00000000
00000000
00000000
,
00000000
00000000
00000000
00000000
,
00033000
00000000
00000000
00000000
,
00000000
00000000
00000000
00000000
;
