
//----- song ID: chap -----//
#TITLE:chaplet;
#ARTIST:DJ TOTTO;
#BANNER:chaplet.png;
#BACKGROUND:chaplet-bg.png;
#CDTITLE:./CDTitles/jubeat saucer.png;
#MUSIC:chaplet.ogg;
#SAMPLESTART:22.8;
#SAMPLELENGTH:15;
#BPMS:0=200,8=100,42=200,168=100,216=200;
#STOPS:86=0.1,86.3333=0.1,86.6667=0.1,87=0.1,87.3333=0.1,87.6667=0.1,228=0.1,228.3333=0.1,228.6667=0.1,229=0.1,229.3333=0.1,229.6667=0.1;
#STAGE:16;
#NOTES:
     dance-single:
     :
     Beginner:
     3:
     :
0000
0000
0000
0000
,
0000
0000
0000
0000
,
0000
0000
0000
0000
,
0000
0000
0000
0000
,
0000
0000
0000
0000
,
0000
0000
0000
0000
,
0001
0000
0000
0000
,
0010
0000
0000
0000
,
0100
0000
0000
0000
,
2000
0000
0000
0000
,
3000
0000
1000
0000
,
0000
0000
1000
0000
,
0000
0000
0100
0000
,
0000
0000
0000
0000
,
0000
0000
0100
0000
,
0000
0000
0100
0000
,
0000
0000
0010
0000
,
0000
0000
0000
0000
,
0000
0000
0010
0000
,
0000
0000
0010
0000
,
0000
0000
0001
0000
,
0000
0000
0001
0000
,
0000
0000
0000
0000
,
0001
0000
0000
0000
,
0100
0000
0100
0000
,
0001
0000
0000
0000
,
1001
0000
0000
0000
,
0000
0000
0000
0000
,
0001
0000
0001
0000
,
0010
0000
0000
0000
,
1001
0000
0000
0000
,
0000
0000
0000
0000
,
1000
0000
1000
0000
,
0010
0000
0000
0000
,
1000
0000
0000
0000
,
0100
0000
0000
0000
,
1000
0000
1000
0000
,
0100
0000
0000
0000
,
0010
0000
0000
0000
,
0100
0000
0000
0000
,
1001
0000
0000
0000
,
0000
0000
0000
0000
,
1001
0000
0000
0000
,
0000
0000
0000
0000
,
0001
0000
0010
0000
,
0001
0000
0000
0000
,
0100
0000
0010
0000
,
0100
0000
0000
0000
,
0010
0000
0010
0000
,
1000
0000
0000
0000
,
1000
0000
1000
0000
,
0100
0000
0000
0000
,
0100
0000
0100
0000
,
0010
0000
0000
0000
,
0010
0000
0000
0000
,
0010
0000
0000
0000
,
0001
0000
0000
0000
,
0001
0000
0000
0000
,
0000
0000
0001
0000
,
0000
0000
0001
0000
,
0100
0000
0001
0000
,
0000
0000
1001
0000
,
0000
0000
0010
0000
,
0010
0000
1001
0000
,
0000
0000
0100
0000
,
0100
0000
1001
0000
,
0000
0000
1000
0000
,
0100
0000
0010
0000
,
0010
0000
0001
0000
,
0000
0000
1001
0000
,
0000
0000
0000
0000
;
#NOTES:
     dance-single:
     :
     Easy:
     8:
     :
0000
0000
0000
0000
,
0000
0000
0000
0000
,
0000
0000
0000
0000
,
0000
0000
0000
0000
,
0000
0000
0000
0000
,
0000
0000
0000
0000
,
0002
0000
0003
0001
,
2000
0000
3000
1000
,
0020
0030
0200
0300
,
0220
0330
2002
0000
,
3003
0000
1000
1000
,
0100
0100
0010
0001
,
0010
0010
0001
0100
,
1000
0100
0002
0000
,
1003
0000
0001
0001
,
0010
0010
0100
1000
,
0010
1000
0100
0000
,
0110
0000
0001
1000
,
1001
0000
0001
0001
,
0010
0010
0100
1000
,
0100
0100
1000
0010
,
0001
0010
2000
0000
,
3000
0000
1001
0000
,
0100
0000
0110
0000
,
0001
0010
0001
1000
,
0100
0100
0100
0000
,
2000
0000
3200
0000
,
0310
0001
0100
0000
,
0002
0000
0023
0000
,
0130
1000
0010
0000
,
1000
0100
1000
0000
,
0001
0100
0001
0000
,
1000
0010
1000
1000
,
0001
0010
0001
0000
,
0002
0000
0023
0000
,
0130
1000
0010
0000
,
2000
0000
3200
0000
,
0310
0001
0100
0000
,
0001
0010
0001
0000
,
1000
0010
1000
0000
,
0001
0100
0001
0001
,
1000
0100
1000
0000
,
2002
0000
0000
0000
,
3003
0000
0000
0000
,
0001
0010
0001
0000
0100
0000
0000
0000
,
1000
0010
1000
0000
0100
0000
0000
0000
,
0100
0000
1001
0000
0010
0010
1001
0000
,
0100
0000
1001
0000
0010
0010
1001
0000
,
1000
0110
0001
0110
,
2000
0000
0002
3003
,
1000
1000
0100
0100
0010
0001
0010
0010
,
0001
0100
1000
0100
0002
0000
1003
0000
,
0001
0001
0010
0010
0100
1000
0010
1000
,
0100
0000
0110
0000
0001
1000
1001
0000
,
0001
0100
0001
0010
,
0100
1000
0010
0100
,
0001
0010
1000
0010
,
0002
0000
0003
0000
,
0011
0000
1000
0000
,
1010
0000
0001
0000
,
0101
0000
1000
0100
,
1100
0000
0110
0000
,
1001
0000
0010
0010
,
0010
0000
0110
0000
,
1001
0000
0100
0100
,
0100
0000
0011
0000
,
1100
0000
0001
0100
,
0010
0000
1010
0000
,
0101
0000
1000
0100
,
0010
0001
2000
0000
,
0000
0000
0000
0000
,
0000
0000
0000
0000
,
0000
0000
0000
0000
,
0000
0000
3000
0000
,
0000
0000
0000
0000
;
#NOTES:
     dance-single:
     :
     Medium:
     12:
     :
0000
0000
0000
0000
,
0000
0000
0000
0000
,
0000
0000
0000
0000
,
0000
0000
0000
0000
,
0000
0000
0000
0000
,
0000
0000
0000
0000
,
2000
0000
3010
0000
0100
0001
1000
0000
,
0002
0000
0013
0000
0100
1000
0001
0000
,
1000
0010
1000
0000
0001
0010
0001
0000
,
0220
0330
2002
0000
,
3003
0000
1000
1100
,
0100
0000
0000
0110
0000
0000
0001
0000
0001
0010
0000
0010
,
0100
0000
0100
1000
0000
0000
0001
0000
0001
1000
0000
1000
,
0010
0000
0010
0100
0000
0100
0002
0000
0000
0000
0000
0000
,
1003
0000
0000
0000
0000
0000
0001
0000
0001
0100
0000
0000
,
0010
0000
0010
1000
0000
0000
1001
0000
0000
1000
0000
1000
,
0100
0000
0100
0010
0000
0000
0011
0000
0000
0000
0000
0000
,
1010
0000
0101
1100
,
1001
0000
0001
0011
,
0010
0000
0000
0110
0000
0000
1000
0000
1000
0100
0000
0100
,
0010
0000
0010
0001
0000
0000
1000
0000
1000
0001
0000
0001
,
0100
0000
0100
0010
0000
0010
2000
0000
0000
0000
0000
0000
,
3001
0000
0000
0000
0000
0001
0100
0000
0000
0010
0000
0000
,
1000
0000
0000
0000
0000
1000
0100
0000
0000
0010
0000
0000
,
0001
0110
1000
0110
,
0001
0000
0001
0010
0000
0010
0100
0000
0100
1000
0000
0000
,
0002
0000
0203
0000
,
0310
0000
0000
0010
0000
0000
1000
0000
0010
0000
1000
0000
,
0002
0000
0023
0000
,
0130
0000
0000
0100
0000
0000
1000
0000
0010
0000
1000
0000
,
2002
0000
0000
3003
,
1000
0000
0100
0010
0000
0000
0001
0000
1000
0000
0001
0000
,
2000
0000
0000
3000
,
0001
0100
0000
0001
0000
0000
1000
0100
0000
1000
0000
0000
,
2000
0000
3020
0000
,
0130
0000
0000
0100
0000
0000
0001
0000
0100
0000
0001
0000
,
2000
0000
3200
0000
,
0310
0000
0000
0010
0000
0000
0001
0000
0100
0000
0001
0000
,
2002
0000
0000
3003
,
0001
0000
0010
0100
0000
0000
1000
0000
0010
0100
0000
0000
,
0002
0000
0000
0000
0000
0000
0000
0000
0000
0003
1000
0001
,
2000
0000
0000
3000
,
2002
0000
0000
0000
,
0000
0000
0000
3003
,
1000
0100
0010
0000
0001
0100
0010
0000
,
1000
0100
0010
0000
0001
0100
0010
0000
,
1000
0000
0000
0000
1001
0000
0000
0100
0010
0000
0010
0000
1001
0000
0000
0000
,
0001
0000
0000
0000
1001
0000
0000
0100
0010
0000
0010
0000
1001
0000
0000
0000
,
0002
0100
1003
0000
2000
0010
3001
0000
,
1000
0000
0000
0100
0000
0000
0010
0000
0000
0000
0000
0000
0001
0000
0000
0000
0001
0000
1000
0000
0000
0000
1000
0000
0001
0000
0000
0000
0000
0000
0000
0000
0000
0000
0000
0000
0000
0000
0000
0000
0000
0000
0000
0000
0000
0000
0000
0000
,
1000
0000
0000
1100
0000
0000
0100
0000
0000
0110
0000
0000
0001
0000
0001
0010
0000
0010
0100
0000
0100
1000
0000
0000
,
0001
0000
0001
1000
0000
1000
0010
0000
0010
0100
0000
0100
0002
0000
0000
0000
0000
0000
1003
0000
0000
0000
0000
0000
,
0001
0000
0001
0100
0000
0000
0010
0000
0010
1000
0000
0000
1001
0000
0000
1000
0000
1000
0100
0000
0100
0010
0000
0000
,
0011
0000
1010
0000
0101
1100
1001
0000
,
1000
0000
1000
0100
0000
0000
1000
0000
1000
0010
0000
0000
,
1000
0000
1000
0100
0000
0100
0010
0000
0010
0001
0000
0000
,
1000
0000
0001
0100
0000
0100
0010
0000
0010
1000
0000
1000
,
0001
0001
0001
1000
1000
1000
0001
0000
0000
0000
1000
0010
,
1000
0000
0000
0001
0000
0000
1000
0000
0000
0000
0001
0010
,
0001
0000
0000
1000
0000
0000
0001
0000
0000
1000
0000
1000
,
0010
0000
0000
0100
0000
0100
0001
0000
0001
0010
0000
0010
,
0100
0000
0100
1000
0000
0000
1010
0000
0000
0010
0000
0000
,
0011
0000
0000
0010
0000
0000
1010
0000
1000
0100
0000
0100
,
0001
0000
0001
0100
0000
0000
1100
0000
0000
0100
0000
0000
,
0101
0000
0000
0100
0000
0000
1100
0000
1000
0001
0000
0001
,
0100
0000
0100
0010
0000
0000
1000
0010
1000
0010
0000
0000
,
0100
0001
0100
0001
0000
0000
1000
0000
1000
0100
0000
0100
,
0010
0000
0000
0011
0000
0000
0001
0010
0001
0010
0000
0000
,
0100
1000
0100
1000
0000
0000
0001
0000
0001
0100
0000
0100
,
1000
0000
1000
0010
0000
0010
0002
0000
0000
0000
0000
0000
,
0000
0000
0000
0000
,
0000
0000
0000
0000
,
0000
0000
0000
0000
,
0000
0000
0003
0000
,
0000
0000
0000
0000
;
#NOTES:
     dance-single:
     :
     Hard:
     17:
     :
0000
0000
0000
0000
,
0000
0000
0000
0000
,
0000
0000
0000
0000
,
0000
0000
0000
0000
,
0000
0000
0000
0000
,
0000
0000
0000
0000
,
0002
0000
0013
0100
1000
0001
1000
0010
,
2000
0000
3100
0010
0001
1000
0001
0100
,
0002
0000
1003
0100
2000
0000
3001
0010
,
0002
0000
2000
0000
,
3003
0000
0000
0000
0000
0000
1000
0000
1000
0100
0000
0100
,
0010
0000
0010
0001
0000
0001
1000
0000
1000
0001
0010
0100
,
1000
0010
0100
0001
0010
0100
1000
0000
1000
0100
0000
0100
,
0001
0000
0001
0100
0000
0100
2000
0000
0000
0000
0000
0000
,
0002
0000
0000
3003
0000
0000
1000
0000
1000
0010
0000
0010
,
0100
0001
0010
0001
0000
0000
0001
0100
0001
1000
0100
1000
,
0001
0010
0001
1000
0010
1000
0001
0000
0000
1000
0100
0010
,
0001
0000
0000
1000
0100
0010
0001
0000
0001
0100
0000
0100
,
0010
1000
0100
1000
0000
0000
0001
0000
0001
0100
0000
0100
,
0010
0000
0010
1000
0000
1000
0001
0000
0001
1000
0010
0100
,
0001
0010
0100
1000
0010
0100
0001
0000
0001
0100
0000
0100
,
1000
0000
1000
0100
0000
0100
0001
0001
0001
1000
1000
1000
,
1001
0000
0000
0000
0100
0010
0100
0000
0000
1001
0000
0000
,
0110
0000
0000
0000
1000
0001
1000
0000
0000
0110
0000
0000
,
1000
0100
1000
0001
0100
0010
1000
0000
0000
0001
0010
0100
,
1000
0000
1000
0100
0000
0100
0001
0000
0001
0010
0000
0010
,
2000
0000
0000
3000
0100
0010
0002
0000
0000
0003
0100
0010
,
1000
0000
1000
0100
0000
0100
0001
0000
0100
0000
1000
0000
,
0002
0000
0000
0003
0100
0010
2000
0000
0000
3000
0100
0010
,
0001
0000
0001
0100
0000
0100
1000
0000
0100
0000
0001
0000
,
2000
0000
0000
0100
0000
0000
3010
0000
0000
1000
0100
0010
,
0001
1000
0001
0010
0100
1000
0001
0000
1000
0000
0001
0000
,
2000
0001
0010
3001
,
0001
0010
0000
0100
0000
0100
1000
0010
0000
1000
0000
1000
,
0002
0000
0000
0003
0100
0010
2000
0000
0000
3000
0100
0010
,
0001
0000
0001
0100
0000
0100
1000
0000
0100
0000
0001
0000
,
2000
0000
0000
3000
0100
0010
0002
0000
0000
0003
0100
0010
,
1000
0000
1000
0100
0000
0100
0001
0000
0100
0000
1000
0000
,
0002
0000
0000
0100
0000
0000
0013
0000
0000
1000
0100
1000
,
0001
0100
0010
1000
0010
0100
0001
0010
0100
1000
0100
0010
,
0002
0000
0000
0000
0000
0000
0000
0000
0000
0003
1000
0010
,
0200
0000
0000
0300
,
2002
0000
0000
0000
,
0000
0000
0000
3003
,
1000
0100
0010
0000
0001
0100
0000
0001
1000
0010
1000
0001
0100
0000
0001
1000
,
0001
0100
0010
0000
1000
0100
0000
1000
0001
0010
0001
1000
0100
0000
1000
0001
,
0100
0000
0000
0000
0110
0000
0010
1000
0001
0000
0001
0000
1001
0000
0000
0000
,
0100
0000
0000
0000
0110
0000
1000
0001
0010
0000
0010
0000
0110
0000
0000
0000
,
1000
0010
0100
0010
0001
0010
0100
0000
0001
0010
0100
0010
1000
0010
0100
0000
,
1000
0000
0000
0100
0000
0000
0010
0000
0000
0000
0000
0000
0001
0000
1000
0000
0001
0000
1000
0000
0001
0000
1000
0000
0001
0000
0000
0000
0000
0000
0000
0000
0000
0000
0000
0000
0000
0000
0000
0000
0000
0000
0000
0000
0000
0000
0000
0000
,
1000
0000
1000
0100
0000
0100
0010
0000
0010
0001
0000
0001
1000
0000
1000
0001
0010
0100
1000
0010
0100
0001
0010
0100
,
1000
0000
1000
0100
0000
0100
0001
0000
0001
0100
0000
0100
2000
0000
0000
0000
0000
0000
0002
0000
0000
3003
0000
0000
,
1000
0000
1000
0010
0000
0010
0100
0001
0010
0001
0000
0000
0001
0100
0001
1000
0100
1000
0001
0010
0001
1000
0010
1000
,
0001
0000
0000
1000
0100
0010
0001
0000
0000
1000
0100
0010
0001
0000
0001
0100
0000
0100
0010
1000
0100
1000
0000
0000
,
0001
0100
1000
0100
0000
0100
0001
0010
1000
0010
0000
0010
,
0001
0000
0001
1000
0100
0010
0001
0100
0010
0001
0010
0100
,
0001
0010
0100
0001
0100
1000
0010
0100
1000
0100
0010
1000
,
0100
0001
0010
1000
0100
0001
0010
0000
0000
1000
0010
0100
,
0001
0000
0000
0110
0000
0000
1001
0000
0000
1000
0100
0010
,
0001
0000
0000
0110
0000
0000
0001
0100
0001
0100
1000
0100
,
0001
0010
0001
0010
1000
0010
0100
1000
0010
0100
0001
0010
,
0100
0010
0001
0100
0010
1000
0100
0010
0001
0010
0011
0000
,
0100
0010
1000
0010
1010
0000
0001
0010
1000
0001
0100
1000
,
0001
0010
1000
0001
0100
1000
0001
0010
0001
0010
0110
0000
,
1000
0010
1000
0010
0110
0000
0001
0100
1000
0001
0010
1000
,
0001
0100
1000
0001
0010
1000
0001
0010
0100
1000
1100
0000
,
1000
0010
0100
0001
0101
0000
1000
0100
0001
1000
0010
0001
,
1000
0100
0001
1000
0010
0001
1000
0100
0001
0100
0010
0100
,
0010
0001
0100
0001
1000
0001
0100
0010
1000
0100
0010
0001
,
0100
0001
0010
0100
1000
0010
0200
0000
0000
0000
0000
0000
,
0000
0000
0000
0000
,
0000
0000
0000
0000
,
0000
0000
0000
0000
,
0000
0000
0300
0000
,
0000
0000
0000
0000
;
#NOTES:
     dance-double:
     :
     Easy:
     8:
     :
00000000
00000000
00000000
00000000
,
00000000
00000000
00000000
00000000
,
00000000
00000000
00000000
00000000
,
00000000
00000000
00000000
00000000
,
00000000
00000000
00000000
00000000
,
00000000
00000000
00000000
00000000
,
10000000
01000000
10000000
00000000
,
00010000
01000000
00010000
00000000
,
00200000
00300000
00002000
00003000
,
00022000
00000000
00000000
00000000
,
00033000
00000000
00010000
00010000
,
00000100
00000100
00001000
00000010
,
00000100
00000001
00000010
00000100
,
00001000
00000001
00000200
00000000
,
00000310
00000000
00000001
00000100
,
00001000
00001000
00010000
00100000
,
10000000
10000000
10010000
00000000
,
01100000
00000000
10000000
00010000
,
10010000
00000000
10000000
10000000
,
00010000
00010000
00100000
00001000
,
01000000
00010000
00100000
00001000
,
00010000
00000100
00020000
00000000
,
00030000
00000000
00011000
00000000
,
00000100
00000000
00000110
00000000
,
00000001
00000010
00000001
00001000
,
00000010
00000100
00000110
00000000
,
00000002
00000000
00000203
00000000
,
00001300
00010000
00001000
00000000
,
00020000
00000000
00230000
00000000
,
10300000
00010000
10000000
00000000
,
00010000
00100000
01000000
00100000
,
00001000
00010000
00001000
00000000
,
00010000
00000010
00000100
00000010
,
00001000
00000010
00010000
00000000
,
00002000
00000000
00003020
00000000
,
00000031
00001000
00000001
00000000
,
00000200
00000000
00002300
00000000
,
00013000
00001000
00010000
00000000
,
00001000
01000000
00010000
00100000
,
00010000
10000000
01000000
00000000
,
10000000
01000000
00010000
00010000
,
00002000
00000000
00003000
00000000
,
00011000
00000000
00000000
00000000
,
00000000
00000000
00000000
00000000
,
00010000
00001000
00010000
00000000
00001000
00000010
00000100
00000000
,
00000010
00000001
00000010
00000000
00000001
00001000
00000001
00000000
,
00000100
00000010
00001000
00000010
00010000
00000000
00001000
00000000
,
00100000
00010000
01000000
00010000
00100000
00000000
01000000
00000000
,
20000000
00100000
30020000
00130000
,
00001000
00000000
00011000
00000000
,
00010000
00010000
00000100
00000100
00001000
00000010
00000100
00000001
,
00000010
00000100
00001000
00000001
00000200
00000000
00000310
00000000
,
00000001
00000100
00001000
00001000
00010000
00100000
10000000
10000000
,
10010000
00000000
01100000
00000000
10000000
00010000
10010000
00000000
,
10000000
01000000
00100000
00010000
,
01000000
00100000
00010000
00100000
,
01000000
00010000
00100000
00001000
,
00020000
00000000
00030000
00000000
,
00011000
00000000
00000100
00000000
,
00000110
00000000
00000001
00000100
,
00000001
00001000
00000100
00010000
,
00011000
00000000
01100000
00000000
,
10010000
00000000
10000000
01000000
,
00010000
00000000
00011000
00000000
,
00000110
00000000
00000001
00000100
,
00001000
00000000
00010000
00100000
,
10000000
00100000
00010000
00001000
,
00010000
00010000
00001000
00000010
,
00000001
00001000
00000100
00000010
,
00000001
00000000
00002002
00000000
,
00000000
00000000
00000000
00000000
,
00000000
00000000
00000000
00000000
,
00000000
00000000
00000000
00000000
,
00000000
00000000
00003003
00000000
,
00000000
00000000
00000000
00000000
;
#NOTES:
     dance-double:
     :
     Medium:
     13:
     :
00000000
00000000
00000000
00000000
,
00000000
00000000
00000000
00000000
,
00000000
00000000
00000000
00000000
,
00000000
00000000
00000000
00000000
,
00000000
00000000
00000000
00000000
,
00000000
00000000
00000000
00000000
,
10000000
01000000
00100000
00000000
01000000
00100000
00010000
00000000
,
00100000
00001000
00010000
00000000
00001000
00010000
00000100
00000000
,
00001000
00000100
00000010
00000001
00000100
00000010
00001000
00000000
,
00000220
00000330
00002002
00000000
,
00003003
00000000
00000000
00000000
00000000
00000000
00000001
00000000
00000001
00000010
00000000
00000010
,
00000100
00000000
00000100
00001000
00000000
00000000
00000010
00000000
00000010
00010000
00000000
00010000
,
00001000
00000000
00001000
00010000
00000000
00000000
00001000
00000000
00001000
01000000
00000000
01000000
,
00010000
00000000
00010000
00100000
00000000
00100000
02000000
00000000
00000000
00000000
00000000
00000000
,
03100000
00000000
00000000
00000000
00000000
00000000
10000000
00000000
10000000
01000000
00000000
00000000
,
00100000
00000000
00100000
00010000
00000000
00000000
10000000
00000000
10000000
00100000
00000000
00100000
,
00010000
00000000
00010000
00001000
00000000
00000000
00011000
00000000
00000000
00000000
00000000
00000000
,
00000110
00000000
00000001
00001000
,
00001001
00000000
00000000
00000000
00000000
00000000
00000001
00000000
00000001
00000100
00000000
00000100
,
00001000
00000000
00001000
00010000
00000000
00000000
00100000
00000000
00100000
10000000
00000000
10000000
,
00010000
00000000
00010000
01000000
00000000
00000000
00010000
00000000
00010000
00100000
00000000
00000000
,
00001000
00000000
00001000
00010000
00000000
00000000
00022000
00000000
00000000
00000000
00000000
00000000
,
00033000
00000000
00000000
00000000
00000000
00010000
00000010
00000000
00000000
00000100
00000000
00000000
,
00000110
00000000
00000000
00000000
00000000
00000001
00000100
00000000
00000000
00000010
00000000
00000000
,
00000110
00010000
00011000
00001000
,
01000000
00000000
01000000
00010000
00000000
00010000
00100000
00000000
00100000
01000000
00000000
00000000
,
20000000
32000000
03020000
00032000
,
00003010
00000000
00000010
00000001
00000000
00000001
00001000
00000000
00000000
00001001
00000000
00000000
,
00000002
00000203
00002300
00023000
,
00130000
00000000
00100000
10000000
00000000
10000000
00010000
00000000
00000000
10000000
00000000
00000000
,
20020000
00000000
00000000
30030000
,
00010000
01000000
00010000
01000000
00000000
00000000
00001000
00000000
00010000
00000000
00001000
00000000
,
00020000
00000000
00000000
00030000
,
00001000
00010000
00000000
00000100
00000000
00000000
00001000
00000010
00000000
00000100
00000000
00000000
,
00000002
00000023
00002030
00023000
,
01030000
00000000
01000000
10000000
00000000
10000000
00010000
00000000
00000000
10010000
00000000
00000000
,
20000000
30200000
00320000
00032000
,
00003100
00000000
00000100
00000001
00000000
00000001
00001000
00000000
00000000
00000001
00000000
00000000
,
00002002
00000000
00000000
00003003
,
00001000
00000010
00001000
00000010
00000000
00000000
00010000
00000000
00001000
00000000
00010000
00000000
,
00002000
00000000
00000000
00000000
00000000
00000000
00000000
00000000
00000000
00003000
00010000
00001000
,
00020000
00000000
00000000
00030000
,
00022000
00000000
00000000
00000000
,
00000000
00000000
00000000
00033000
,
00001000
00010000
00001000
00010000
01000000
00100000
01000000
00000000
,
10000000
00100000
10000000
00100000
01000000
00010000
00100000
00000000
,
00001000
00010000
00000100
00000000
00000001
00000100
00001000
00000000
,
00000010
00000100
00001000
00010000
00100000
10000000
00010000
00000000
,
00100000
00010000
01000000
00000000
10000000
01000000
00010000
00000000
,
00100000
00000000
00000000
00001000
00000000
00000000
00010000
00000000
00000100
00001000
00000000
00001000
00000001
00000000
00000000
00000000
00000000
00000000
00000000
00000000
00000000
00000000
00000000
00000000
,
00000001
00000000
00000001
00000010
00000000
00000010
00000100
00000000
00000100
00001000
00000000
00000000
00000010
00000000
00000010
00010000
00000000
00010000
00001000
00000000
00001000
00010000
00000000
00000000
,
00001000
00000000
00001000
01000000
00000000
01000000
00010000
00000000
00010000
00100000
00000000
00100000
02000000
00000000
00000000
00000000
00000000
00000000
03100000
00000000
00000000
00000000
00000000
00000000
,
10000000
00000000
10000000
01000000
00000000
00000000
00100000
00000000
00100000
00010000
00000000
00000000
10000000
00000000
10000000
00100000
00000000
00100000
00010000
00000000
00010000
00001000
00000000
00000000
,
00011000
00000000
00000110
00000000
00000001
00001000
00001001
00000000
,
00000001
00000000
00000001
00000100
00000000
00000000
00000001
00000000
00000001
00000010
00000000
00000000
,
00000001
00000000
00000100
00000010
00000000
00010000
00000010
00000000
00010000
00001000
00000000
00000000
,
00100000
00000000
00010000
01000000
00000000
01000000
00100000
00000000
00100000
10000000
00000000
00000000
,
00010000
00010000
00010000
10000000
10000000
10000000
00010000
00000000
00000000
00000000
01000000
00100000
,
01000000
00000000
00000000
00001000
00000000
00000000
00010000
00000000
00000000
00000000
00000100
00000010
,
00000100
00000000
00000000
00010000
00000000
00000000
00001000
00000000
00000000
00000010
00000000
00000010
,
00000001
00000000
00000000
00000100
00000000
00000100
00001000
00000000
00001000
00010000
00000000
00010000
,
00100000
00000000
00100000
10000000
00000000
00000000
10100000
00000000
00000000
00000000
00000000
00000000
,
00110000
00000000
00000000
00000000
00000000
00000000
10000000
00000000
01000000
00010000
00000000
00001000
,
00000010
00000000
00000011
00000000
,
00001010
00000000
00000000
00000000
00000000
00000000
00000001
00000000
00000100
00001000
00000000
00010000
,
00100000
00000000
00000000
00000000
00000000
00000000
10000000
01000000
10000000
01000000
00000000
00000000
,
00100000
00010000
00100000
00010000
00000000
00000000
00100000
00000000
00100000
00001000
00000000
00001000
,
00010000
00000000
00010000
00000100
00000000
00000000
00001000
00000100
00001000
00000100
00000000
00000000
,
00000010
00000001
00000010
00000001
00000000
00000000
00001000
00000000
00000001
00000100
00000000
00001000
,
00010000
00001000
00010000
00001000
00000000
00000000
00022000
00000000
00000000
00000000
00000000
00000000
,
00000000
00000000
00000000
00000000
,
00000000
00000000
00000000
00000000
,
00000000
00000000
00000000
00000000
,
00000000
00000000
00033000
00000000
,
00000000
00000000
00000000
00000000
;
#NOTES:
     dance-double:
     :
     Hard:
     17:
     :
00000000
00000000
00000000
00000000
,
00000000
00000000
00000000
00000000
,
00000000
00000000
00000000
00000000
,
00000000
00000000
00000000
00000000
,
00000000
00000000
00000000
00000000
,
00000000
00000000
00000000
00000000
,
00001000
00010000
00001000
00010000
00100000
01000000
00100000
00000000
,
10000000
01000000
10000000
01000000
00100000
00010000
00100000
00000000
,
00001000
00010000
00001000
00010000
00001000
00000010
00001000
00000010
,
00000002
00000000
00002000
00000000
,
00003003
00000000
00000000
00000000
00000000
00000000
00000001
00000000
00000001
00000100
00000000
00000100
,
00001000
00000000
00001000
00010000
00000000
00010000
00100000
00000000
00100000
10000000
00100000
10000000
,
00010000
01000000
00010000
00100000
00010000
00100000
00010000
00000000
01000000
00100000
00000000
00100000
,
00010000
00000000
00010000
00001000
00000000
00001000
00010000
00000000
00000000
01000000
10000000
00010000
,
10000000
00000000
00000000
10010000
00000000
00000000
10000000
00000000
10000000
01000000
00000000
01000000
,
00100000
00001000
00010000
00001000
00000000
00000000
00001000
00100000
00001000
01000000
00010000
01000000
,
00001000
00100000
00010000
01000000
00000000
00000000
01100000
00000000
00000000
01000000
00100000
00010000
,
00001000
00000000
00000000
00001000
00010000
00100000
01000000
00000000
10000000
01000000
00000000
01000000
,
00010000
00000000
00000000
10010000
00000000
00000000
10000000
00000000
10000000
01000000
00000000
01000000
,
00010000
00000000
00010000
00001000
00000000
00001000
00000010
00000000
00000010
00000001
00000010
00000001
,
00001000
00000100
00001000
00000010
00001000
00000010
00001000
00000000
00000100
00000010
00000000
00000010
,
00001000
00000000
00001000
00010000
00000000
00010000
00001000
00001000
00000100
00000100
00000001
00000001
,
00001000
00000000
00000000
00000001
00000010
00000100
00001000
00000000
00000000
00000110
00000000
00000000
,
00001001
00000000
00000000
00000001
00000100
00000010
00001000
00000000
00000000
00001010
00000000
00000000
,
00010010
00000000
00000000
00010000
00001000
00010000
00001000
00000000
00000000
01000000
00010000
01000000
,
00010000
00000000
00010000
10000000
00000000
10000000
01000000
00010000
00001000
00010000
00000000
00000000
,
00002000
00000000
00000000
00003000
00010000
00000010
00002000
00000000
00000000
00003000
00000100
00010000
,
00001000
00000000
00001000
01000000
00010000
00100000
00010000
00000000
01000000
00000000
00001000
00000000
,
00020000
00000000
00000000
00030000
00001000
00100000
00020000
00000000
00000000
00030000
01000000
00001000
,
00010000
00000000
00010000
00000100
00001000
00000010
00001000
00000000
00000100
00000000
00010000
00000000
,
00002000
00000000
00000000
00010000
00000000
00000000
00003010
00000000
00000000
00000001
00000010
00000100
,
00001000
00000010
00000100
00001000
00000100
00000010
00010000
00000000
00001000
00000000
00010000
00000000
,
00200000
10000000
00010000
10300000
,
20000000
00000000
00020000
30030000
,
20000000
00000000
00000000
30000000
01000000
00100000
00020000
00000000
00000000
00030000
10000000
00100000
,
01000000
00000000
01000000
00001000
00000000
00001000
00010000
00000000
00000100
00000000
00001000
00000000
,
00000002
00000000
00000000
00000003
00000100
00000010
00002000
00000000
00000000
00003000
00000100
00000010
,
00000001
00000000
00000001
00001000
00000000
00001000
00000010
00000000
00010000
00000000
00001000
00000000
,
00200000
00000000
00000000
00010000
00000000
00000000
10300000
00000000
00000000
00100000
00010000
00100000
,
00001000
00010000
00001000
00010000
00000010
00001000
00000100
00000010
00000100
00001000
00000001
00000010
,
00000200
00000000
00000000
00000000
00000000
00000000
00000000
00000000
00000000
00000300
00000001
00000100
,
00002000
00000000
00000000
00003000
,
00002002
00000000
00000000
00000000
,
00000000
00000000
00000000
00003003
,
00000001
00000100
00000010
00001000
00000001
00000100
00000010
00000000
00001000
00000100
00010000
00000010
00001000
00000100
00010000
00000000
,
00001000
00100000
00010000
01000000
00001000
00100000
00010000
00000000
01000000
00100000
10000000
00010000
01000000
00100000
10000000
00000000
,
00020000
02030000
03200000
00320000
00032000
00003200
00000302
00000023
,
00000230
00000000
00000302
00000000
00000203
00000000
00020300
00000000
00032000
00000000
00203000
00000000
00320000
00000000
01030000
00100000
,
20000000
32000000
03020000
02030000
03200000
00302000
00023000
00032000
,
00003020
00000000
00000000
00000032
00000000
00000000
00001003
00000100
00001000
00000001
00001000
00000001
00001000
00000000
00000000
00000000
00000000
00000000
00000000
00000000
00000000
00000000
00000000
00000000
,
00000001
00000000
00000001
00000100
00000000
00000100
00001000
00000000
00001000
00010000
00000000
00010000
00100000
00000000
00100000
10000000
00100000
10000000
00010000
01000000
00010000
00100000
00010000
00100000
,
00010000
00000000
01000000
00100000
00000000
00100000
00010000
00000000
00010000
00001000
00000000
00001000
00010000
00000000
00000000
01000000
10000000
00010000
10000000
00000000
00000000
10010000
00000000
00000000
,
10000000
00000000
10000000
01000000
00000000
01000000
00100000
00001000
00010000
00001000
00000000
00000000
00001000
00100000
00001000
01000000
00010000
01000000
00001000
00100000
00010000
01000000
00000000
00000000
,
01100000
00000000
00000000
01000000
00100000
00010000
00001000
00000000
00000000
00001000
00010000
00100000
01000000
00000000
10000000
01000000
00000000
01000000
00010000
00000000
00000000
10010000
00000000
00000000
,
10000000
00100000
01000000
00010000
00000000
00010000
00100000
00001000
00010000
00001000
00000000
00001000
,
00010000
00000000
00010000
00000100
00001000
00000010
00000100
00000001
00000010
00000100
00001000
00000001
,
00000100
00000000
00001000
00010000
00000000
00100000
10000000
00100000
01000000
00010000
00100000
01000000
,
10000000
10000000
01000000
01000000
00010000
00010000
01000000
00000000
00000000
10000000
00100000
00010000
,
00001000
00000000
00000000
00010000
00000000
00000000
00011000
00000000
00000000
00010000
00001000
00000010
,
00000001
00000000
00000000
00001000
00000000
00000000
00000001
00000010
00000100
00010000
00001000
00010000
,
01000000
00100000
00010000
01000000
00100000
00010000
00100000
10000000
01000000
00100000
00001000
00010000
,
00000100
00000010
00000001
00000100
00000010
00001000
00000001
00000100
00000010
00001000
00010000
00000000
,
01000000
00100000
01000000
00100000
01100000
00000000
10000000
00000000
10000000
00100000
00000000
00100000
,
00010000
10000000
01000000
00010000
00000000
00000000
10000000
01000000
00100000
00010000
00001000
00000000
,
00000100
00000010
00000100
00000010
00000110
00000000
00000001
00000000
00000001
00000010
00000000
00000010
,
00001000
00000001
00000100
00001000
00000000
00000000
00000001
00000100
00000010
00000001
00000010
00000100
,
00000001
00000010
00000100
00001000
00000010
00000100
00001000
00000000
00001000
00010000
00000000
00010000
,
00100000
00000000
00100000
10000000
00010000
00100000
00010000
01000000
00100000
00010000
00100000
01000000
,
00010000
00100000
01000000
00010000
01000000
00100000
00001000
00010000
00001000
00000010
00000100
00000010
,
00000001
00000100
00001000
00010000
00100000
10000000
02000000
00000000
00000000
00000000
00000000
00000000
,
00000000
00000000
00000000
00000000
,
00000000
00000000
00000000
00000000
,
00000000
00000000
00000000
00000000
,
00000000
00000000
03000000
00000000
,
00000000
00000000
00000000
00000000
;
