
//----- song ID: youh -----//
#TITLE:羊皮紙の上の銀河;
#ARTIST:OSTER project feat. そらこ;
#TITLETRANSLIT:Youhishi no ue no ginga;
#ARTISTTRANSLIT:OSTER project feat. Sorako;
#BANNER:Youhishi no ue no ginga.png;
#BACKGROUND:Youhishi no ue no ginga-bg.png;
#CDTITLE:./CDTitles/NOSTALGIA.png;
#MUSIC:Youhishi no ue no ginga.ogg;
#SAMPLESTART:70.409;
#SAMPLELENGTH:15;
#BPMS:0=196;
#STAGE:16;
#NOTES:
     dance-single:
     :
     Beginner:
     3:
     :
0000
0000
0000
0000
,
0000
0000
0000
0000
,
0000
0000
0000
0000
,
0000
0000
0000
0000
,
0000
0000
0000
0000
,
0000
0000
0000
0000
,
0000
0000
0000
0000
,
0000
0000
0000
0000
,
0000
0000
0000
0000
,
0000
0000
0001
0000
,
0000
0000
1000
0000
,
0000
0000
0001
0000
,
0000
0000
1000
0000
,
0000
0000
0010
0000
,
0000
0000
0100
0000
,
0000
0000
0010
0000
,
0000
0000
0100
0000
,
0000
0000
0001
0000
,
0000
0000
1000
0000
,
0000
0000
0001
0000
,
0000
0000
0000
0000
,
0000
0000
0010
0000
,
0000
0000
0000
0000
,
0000
0000
0100
0000
,
0000
0000
0000
0000
,
0000
0000
1000
0000
,
0000
0000
0000
0000
,
0000
0000
0001
0000
,
0000
0000
0100
0000
,
0000
0000
0001
0000
,
0000
0000
1000
0000
,
0000
0000
0100
0000
,
0000
0000
1000
0000
,
0000
0000
0010
0000
,
0000
0000
0010
0000
,
0000
0000
0100
0000
,
0000
0000
0000
0000
,
0000
0000
0001
0000
,
0000
0000
0000
0000
,
0000
0000
1000
0000
,
0000
0000
0000
0000
,
0000
0000
0001
0000
,
0000
0000
0000
0000
,
0000
0000
0100
0000
,
0000
0000
0100
0000
,
0000
0000
0010
0000
,
0000
0000
0010
0000
,
0000
0000
1000
0000
,
0000
0000
0001
0000
,
0000
0000
1000
0000
,
0000
0000
0001
0000
,
0000
0000
0010
0000
,
0000
0000
0100
0000
,
0000
0000
0010
0000
,
0000
0000
0100
0000
,
0000
0000
1000
0000
,
0000
0000
0000
0000
,
0000
0000
0001
0000
,
0000
0000
1000
0000
,
0000
0000
0010
0000
,
0000
0000
0100
0000
,
0000
0000
0001
0000
,
0000
0000
1000
0000
,
0000
0000
0100
0000
,
0000
0000
0010
0000
,
0000
0000
0001
0000
,
0000
0000
0010
0000
,
0000
0000
0100
0000
,
0000
0000
1000
0000
,
0000
0000
0100
0000
,
0000
0000
0100
0000
,
0000
0000
0010
0000
,
0000
0000
0010
0000
,
0000
0000
0001
0000
,
0000
0000
0000
0000
,
0000
0000
1000
0000
,
0000
0000
0000
0000
,
0000
0000
0010
0000
,
0000
0000
0100
0000
,
0000
0000
0001
0000
,
0000
0000
0010
0000
,
0000
0000
0100
0000
,
0000
0000
1000
0000
,
0000
0000
0001
0000
,
0000
0000
0100
0000
,
0000
0000
0010
0000
,
0000
0000
0100
0000
,
0000
0000
0001
0000
,
0000
0000
0000
0000
,
0000
0000
1000
0000
,
0000
0000
0001
0000
,
0000
0000
0100
0000
,
0000
0000
0010
0000
,
0000
0000
0100
0000
,
0000
0000
0000
0000
,
0000
0000
0100
0000
,
0000
0000
0000
0000
;
#NOTES:
     dance-single:
     :
     Easy:
     6:
     :
0000
0000
0000
0000
,
0000
0000
0000
0000
,
0000
0000
0000
0000
,
0000
0000
0000
0000
,
0000
0000
0000
0000
,
0000
0000
0000
0000
,
0000
0000
0000
0000
,
0000
0000
0000
0000
,
0000
0000
0000
0000
,
0000
0000
1000
0000
,
0001
0000
0000
0100
0000
0000
0000
0000
,
0010
0000
1000
0000
,
0001
0000
0000
0010
0000
0000
0100
0000
,
0000
0100
0000
0000
2000
0000
0000
0000
,
0000
0000
3002
0000
,
0000
0000
0103
0000
,
0010
0000
0000
0000
1000
0000
0000
0001
,
0000
1000
0000
0000
0001
0000
0000
0000
,
0010
0000
0100
0000
,
0100
0000
2000
0000
,
0000
0000
3001
0000
,
0100
0000
0002
0000
,
0000
0000
0013
0000
,
0100
0000
2000
0000
,
0000
0000
3002
0000
,
0000
0000
0103
0000
,
0010
0000
0100
0000
,
0010
0000
2000
0000
,
0000
0000
3001
0000
,
0010
0000
0100
0000
,
1000
0000
0000
0000
0001
0000
0000
0001
,
0000
0000
0200
0000
,
0000
0000
0310
0000
,
1000
0000
0000
0000
0001
0000
0000
0010
,
0000
0000
0100
0000
,
1000
0000
0020
0000
,
0000
0000
0130
0000
,
0001
0000
2000
0000
,
0000
0000
3001
0000
,
0010
0000
0200
0000
,
0000
0000
1300
0000
,
0001
0000
0200
0000
,
0000
0000
0310
0000
,
1000
0000
0001
0000
,
0010
0000
0010
0000
,
0100
0000
0100
0000
,
1000
0000
0002
0000
,
0000
0000
0103
0000
,
0010
0000
1000
0000
,
0010
0000
0100
0000
,
0001
0000
1000
0000
,
0100
0000
1000
0000
,
0001
0000
0010
0000
,
0100
0000
1000
0000
,
0010
0000
0100
0000
,
0001
0000
1000
0000
,
0000
0000
0010
0000
,
0100
0000
0001
0000
,
1000
0000
0000
0000
0100
0000
0000
0010
,
0000
0000
0000
0002
0000
0000
0000
0000
,
0000
0000
1003
0000
,
0010
0000
0100
0000
,
0001
0000
2000
0000
,
0000
0000
0000
0000
3001
0000
0000
0001
,
0000
0000
1000
1000
,
0001
0001
0000
1000
,
0001
0000
0010
0000
,
0100
0000
0000
1000
0000
0000
0000
0000
,
0000
0000
0001
0000
,
0100
0000
0020
0000
,
0000
0000
2030
0000
,
0000
0000
3002
0000
,
0000
0000
0203
0000
,
0000
0000
0301
0000
,
1000
0000
0100
0000
,
1000
0000
0010
0000
,
0100
0000
0001
0000
,
1000
0000
0000
0000
0100
0000
0000
0100
,
0000
0100
0000
1000
,
0000
0001
0000
0000
1000
0000
0000
0001
,
0000
0000
1000
0000
,
0001
0000
0100
0000
,
0100
0000
0001
0000
,
0010
0000
0000
0100
0000
0000
0000
1000
,
0000
0001
1000
0000
,
0010
0000
0100
0000
,
0001
0000
0010
0000
,
0100
0000
0020
0000
,
0000
0000
0230
0000
,
0000
0000
1300
0000
,
1000
0000
0000
0000
0001
0000
0000
0001
,
0000
0000
0000
1000
0000
0000
0000
0000
,
0000
0000
0010
0000
,
0010
0000
0200
0000
,
0000
0000
0000
0000
,
0000
0000
0000
0310
0000
0000
0000
0000
,
0000
0000
0000
0000
;
#NOTES:
     dance-single:
     :
     Medium:
     10:
     :
0000
0000
0000
0000
,
0000
0000
0000
0000
,
0000
0000
0000
0000
,
0000
0000
0000
0000
,
0000
0000
0000
0000
,
0000
0000
0000
0000
,
0000
0000
0000
0000
,
0000
0000
0000
0000
,
0000
0000
0000
0000
,
0000
0000
0001
0000
,
0010
0100
0010
0100
0000
0000
1000
0000
,
0001
0100
0010
0000
,
1000
0001
1000
0001
0000
0000
0010
0000
,
0000
0100
0000
0000
1000
0000
0100
0000
,
1000
0100
0010
0001
,
0010
0000
0001
0000
0100
0000
0000
0010
,
0010
0000
0000
0000
1000
0000
0001
1000
,
0000
0010
0000
0000
0100
0000
0001
0000
,
0010
0100
0010
0100
2000
0000
0000
0000
,
3002
0000
0103
0000
,
0000
0000
0001
0000
1000
0000
0100
0010
,
0000
0002
0000
0000
2003
0000
0000
0000
,
0000
0000
3010
0000
0020
0000
0000
0130
,
0000
0000
0001
1000
0200
0000
0000
0000
,
0000
0310
0001
2000
0000
0000
0000
0000
,
3001
0010
0200
0000
,
0000
0310
0001
0020
0000
0000
0000
0000
,
0230
0000
1300
1000
,
1000
0000
0001
0000
0100
0000
0001
0100
,
0000
0020
0000
0000
2030
0000
0000
0000
,
3002
0000
0000
0000
0103
0000
0000
0100
,
0000
0000
0001
1000
0200
0000
0000
0000
,
0000
0000
0310
0001
0010
0000
0001
0000
,
1000
0000
0010
0000
0100
0010
0100
0001
,
0000
0000
1000
0000
0100
1000
0001
0000
,
1000
0001
0010
0000
0200
0000
0000
0000
,
0000
0310
0001
0100
,
0010
0000
1000
0000
0001
0000
0100
0200
,
0000
0001
0302
0000
,
2003
0000
3200
0000
,
0000
0310
0001
1000
,
0001
0000
0100
0000
0020
0000
0000
0230
,
0000
0000
0302
0000
,
2003
0000
3020
0000
,
0000
0000
0130
0001
1000
0000
0001
0000
,
0010
0100
2000
0000
,
3200
0000
0320
0000
,
0000
0000
0031
0001
,
0001
1000
0010
0000
0100
0000
0100
0000
,
0100
0001
1000
0000
0010
0000
0010
0000
,
0010
0100
0001
0000
1000
0000
1000
0000
,
1000
1000
0100
0010
,
0001
0010
0100
0010
0100
0000
1000
0000
,
0001
1000
0001
0100
0010
0000
0100
0000
,
0001
1000
0200
0000
0320
0000
0000
0000
,
0032
0000
0000
0000
,
0000
0000
0000
0000
1003
0010
0100
0000
,
0001
0010
0100
0000
1000
0000
0010
0000
,
0100
0000
0010
0000
0100
0000
0001
0001
,
0000
1000
0000
2000
0000
0000
3001
0010
,
0001
1000
0200
0000
0320
0000
0032
0000
,
2003
3020
0230
0001
,
0302
1000
2003
0000
,
0000
3001
0100
0001
0100
0000
0010
0020
,
0000
0000
1030
1000
,
0001
1000
0001
1000
0000
0000
0011
0000
,
1001
0000
1000
0010
0000
0000
0110
0000
,
0001
0001
0000
2000
0000
0000
0100
0000
,
0001
3010
0200
0001
,
0302
0010
0023
0000
,
0230
0000
0000
0000
1300
0000
0001
0001
,
0000
0010
0000
0000
0210
0000
0000
0000
,
0000
0000
1300
0000
0001
0000
0100
0010
,
0000
0200
0000
0000
0302
0000
0000
0000
,
1000
0000
0000
0000
0013
0000
0001
0010
,
0100
1000
0001
0000
1000
0000
0010
0100
,
0010
0100
0001
0000
1000
0000
0100
0100
,
0000
0010
0001
0010
0001
1000
0000
0001
,
1000
0000
0001
1000
0000
0001
0100
0010
,
0100
0010
1000
0000
1100
0000
0000
1001
,
0000
0001
0010
0100
1000
0000
0100
0000
,
1000
0001
0000
0000
0100
0000
0010
0000
,
1000
0000
0100
0010
0000
0000
0001
0000
,
1000
1000
0000
0001
0000
0010
0100
0010
,
0000
0001
2000
0000
3020
0000
0100
0000
,
0230
0010
0301
0001
,
0010
0000
0010
0000
0100
0000
1000
2000
,
0000
3001
0200
0000
,
0320
0000
0000
0000
2030
0000
3001
0002
,
0000
0013
0000
0000
1001
0000
1001
0000
,
1001
0000
1001
0000
1000
0000
0100
0100
,
0000
0010
0000
0002
0000
0000
0100
0000
,
1003
0002
0023
0230
,
2300
3002
0203
0000
,
0301
1000
0010
1000
0100
0010
0100
1000
,
0001
1000
0001
0200
0000
0000
0000
0000
,
0000
0000
0000
0000
,
0000
0000
0000
0000
,
0000
0000
0300
0000
,
0000
0000
0000
0000
;
#NOTES:
     dance-single:
     :
     Hard:
     14:
     :
0000
0000
0000
0000
,
0000
0000
0000
0000
,
0000
0000
0000
0000
,
0000
0000
0000
0000
,
0000
0000
0000
0000
,
0000
0000
0000
0000
,
0000
0000
0000
0000
,
0000
0000
0000
0000
,
0000
0000
0000
0000
,
0000
0000
0000
0000
1000
0000
1000
0100
,
0010
0001
0100
0010
0000
0010
0100
0001
,
2000
0000
3002
0000
1003
0000
1000
0010
,
0100
0001
0010
0100
0000
0100
0020
0000
,
0031
0000
2000
0000
0000
0000
0000
0000
3001
0000
0010
0000
0100
0000
1000
0001
,
1000
0010
0100
0001
1000
0100
0100
0010
,
0001
0100
0010
1000
0200
0000
0000
0310
,
0012
0000
0000
0000
1003
0010
0100
0101
,
0000
2001
0000
0000
3200
0000
0310
0001
,
1000
0010
0100
0001
2000
0000
0000
0000
,
3002
0000
0000
0000
0103
0010
1000
0200
,
0000
0000
0320
0000
0230
0000
1300
0002
,
0000
0203
0000
0000
0302
0000
0000
0000
,
0000
0000
1003
0000
2000
0000
0000
3200
,
0000
0000
0310
0001
0200
0000
0000
0000
,
0000
0310
1000
0200
0000
0000
0000
0000
,
0320
0000
0032
0000
0013
0100
1000
0001
,
0100
0000
0010
0000
1000
0000
0001
0000
0010
0000
0100
0000
1000
0100
1000
0000
,
0001
0100
0010
1000
0001
0000
0001
0010
,
0100
0010
0001
0000
2000
0000
3001
0100
,
0020
0000
1030
0100
0020
0000
0031
0100
,
2000
0000
3100
0001
0020
0000
0130
1000
,
0200
0000
0310
0001
0010
0001
1000
0200
,
0000
0000
1300
0001
0200
0000
2300
0000
,
3200
0000
0302
0000
0013
0100
1000
1001
,
0000
0000
0001
0000
0100
0000
0010
0000
1000
0000
0001
1000
0001
0000
1000
0000
,
0010
0100
0010
0100
0002
0000
0010
0023
,
0000
0130
1000
0100
2000
0000
3001
0100
,
0010
0100
0002
0000
2003
0000
3010
0020
,
0000
0130
0001
0100
0020
0000
1030
0100
,
0002
0000
0103
1000
0020
0000
1030
2000
,
0000
3001
0010
0100
0020
0000
0031
0100
,
1000
0100
0020
0000
0230
0000
0301
0002
,
0000
1003
0200
0000
0320
0000
0031
1000
,
0010
0100
0020
0000
2030
0000
0001
0000
,
3001
0000
0001
0100
0002
0000
0023
0000
,
0230
2300
3020
0100
,
0230
0001
0302
0000
,
0013
0100
0010
0000
0100
0000
0100
0000
,
0100
1000
0010
0100
0001
0000
0001
0000
,
0001
0100
1000
0100
0010
0000
0010
0000
,
0010
0100
0001
0010
0100
1000
0100
0010
,
0001
0010
1000
0010
0001
1000
0001
0100
,
0001
1000
0010
0100
1000
0100
0001
1000
,
0100
0010
0100
0001
0100
1000
0001
0100
,
0010
1000
0010
0001
0020
0000
1000
0000
,
2030
0001
3002
0000
,
0000
0000
0000
0000
0000
0000
0000
0000
0103
0000
0010
0000
1000
0100
0010
0000
,
0100
0010
0001
0010
0002
0000
1003
1000
,
0010
0100
0010
1000
0100
0000
0010
0011
,
0000
1001
0000
0002
0000
1003
1000
0010
,
0100
0010
0200
0301
0020
0130
2000
3001
,
0200
0310
2000
3001
0020
0030
1100
0000
,
0020
0030
0101
0000
2001
0000
0010
0000
,
3001
0100
0010
0100
2000
0000
3100
0002
,
0000
0013
0100
1000
0010
0000
0010
0000
,
0100
0010
0100
0010
0000
0000
1010
0000
,
0110
0000
0001
0101
0000
0000
0021
0000
,
0130
0100
0000
2000
0000
3001
0100
0001
,
0100
0001
0020
0000
0230
0000
1000
0000
,
0320
0000
0001
0000
0130
1000
0001
0100
,
0020
0000
1030
0000
0200
0000
0310
0020
,
0000
0032
0000
0000
2003
0000
0000
3010
,
0010
0000
0100
0000
0200
0000
0301
0002
,
0000
2003
0000
0000
3200
0000
0310
0001
,
0010
0000
1000
0000
0010
0000
0001
0000
0200
0000
0000
0000
0301
1000
0010
0000
,
0100
0000
0010
0000
1000
0000
0010
0000
0100
0000
0001
0000
0010
0000
0100
0010
,
0001
1000
0010
0100
0002
0000
1003
2000
,
0000
0000
3010
0000
0100
0000
0001
0000
1000
0000
0001
0010
0001
0000
1000
0000
,
0001
0010
0001
0000
1000
0000
0001
0010
0001
0000
1000
0000
0001
0100
0001
0000
,
1000
0000
0001
0000
0000
0010
0000
0000
0100
0000
1000
0000
0010
0000
0110
0000
,
0000
0100
0001
0010
0110
0000
1100
0000
,
1001
0101
0000
0000
0011
0000
0010
0100
,
1000
0100
0010
0012
0000
0000
1003
0000
,
1010
0110
0000
0200
0000
0301
0010
2000
,
0000
3001
0200
0000
1300
0001
0010
0010
,
0001
0100
0010
1000
1001
0000
1001
0000
,
1001
0000
1001
0000
0002
0000
0013
0020
,
0000
0000
0130
0000
1000
0010
0100
0001
,
1000
0100
0010
0001
2000
0000
3010
0020
,
0000
0130
0000
0000
0101
0000
1100
0000
,
0011
0000
1010
0000
2000
0000
3100
0200
,
0000
0320
0000
0032
0000
1003
0010
0010
,
0010
0100
1000
1000
0200
0301
0020
0130
,
2000
3010
0002
0013
2000
0000
3001
0010
,
1000
0000
0001
0000
0100
0000
1000
0000
0001
0000
0010
0100
1000
0000
0010
0000
,
0100
1000
0100
0002
0000
0000
0000
0000
,
0000
0000
0000
0000
,
0000
0000
0000
0000
,
0000
0000
0003
0000
,
0000
0000
0000
0000
;
#NOTES:
     dance-double:
     :
     Easy:
     6:
     :
00000000
00000000
00000000
00000000
,
00000000
00000000
00000000
00000000
,
00000000
00000000
00000000
00000000
,
00000000
00000000
00000000
00000000
,
00000000
00000000
00000000
00000000
,
00000000
00000000
00000000
00000000
,
00000000
00000000
00000000
00000000
,
00000000
00000000
00000000
00000000
,
00000000
00000000
00000000
00000000
,
00000000
00000000
10000000
00000000
,
01000000
00000000
00000000
00100000
00000000
00000000
00000000
00000000
,
00010000
00000000
00100000
00000000
,
00001000
00000000
00000000
00010000
00000000
00000000
00000100
00000000
,
00000000
00001000
00000000
00000000
00000002
00000000
00000000
00000000
,
00000000
00000000
00002003
00000000
,
00000000
00000000
00003010
00000000
,
00000100
00000000
00000000
00000000
00000010
00000000
00000000
00001000
,
00000000
00000100
00000000
00000000
00010000
00000000
00000000
00000000
,
00001000
00000000
00100000
00000000
,
00010000
00000000
20000000
00000000
,
00000000
00000000
30100000
00000000
,
01000000
00000000
00020000
00000000
,
00000000
00000000
00130000
00000000
,
00001000
00000000
00020000
00000000
,
00000000
00000000
00030200
00000000
,
00000000
00000000
00001300
00000000
,
00000100
00000000
00000010
00000000
,
00000001
00000000
00002000
00000000
,
00000000
00000000
00003010
00000000
,
00010000
00000000
00001000
00000000
,
00100000
00000000
00000000
00000000
00010000
00000000
00000000
10000000
,
00000000
00000000
02000000
00000000
,
00000000
00000000
03100000
00000000
,
00010000
00000000
00000000
00000000
00100000
00000000
00000000
00100000
,
00000000
00000000
00001000
00000000
,
00010000
00000000
00002000
00000000
,
00000000
00000000
00013000
00000000
,
00000100
00000000
00002000
00000000
,
00000000
00000000
00003001
00000000
,
00000100
00000000
00000020
00000000
,
00000000
00000000
00001030
00000000
,
00000010
00000000
00020000
00000000
,
00000000
00000000
00031000
00000000
,
00100000
00000000
00010000
00000000
,
10000000
00000000
10000000
00000000
,
00100000
00000000
01000000
00000000
,
01000000
00000000
00020000
00000000
,
00000000
00000000
00130000
00000000
,
00001000
00000000
00010000
00000000
,
00000100
00000000
00001000
00000000
,
00000001
00000000
00000100
00000000
,
00000100
00000000
00000010
00000000
,
00001000
00000000
00000010
00000000
,
00010000
00000000
00001000
00000000
,
00100000
00000000
00010000
00000000
,
10000000
00000000
10000000
00000000
,
00000000
00000000
00100000
00000000
,
01000000
00000000
00010000
00000000
,
00100000
00000000
00000000
00000000
00001000
00000000
00000000
00010000
,
00000000
00000000
00000000
00020000
00000000
00000000
00000000
00000000
,
00000000
00000000
00030010
00000000
,
00001000
00000000
00000001
00000000
,
00001000
00000000
00000200
00000000
,
00000000
00000000
00000000
00000000
00010300
00000000
00000000
00010000
,
00000000
00000000
00001000
00001000
,
00100000
00100000
00000000
00010000
,
10000000
00000000
01000000
00000000
,
00100000
00000000
00000000
00010000
00000000
00000000
00000000
00000000
,
00000000
00000000
00100000
00000000
,
00001000
00000000
00020000
00000000
,
00000000
00000000
00030200
00000000
,
00000000
00000000
00002300
00000000
,
00000000
00000000
00003002
00000000
,
00000000
00000000
00000103
00000000
,
00000010
00000000
00000100
00000000
,
00000010
00000000
00001000
00000000
,
00000100
00000000
00010000
00000000
,
00001000
00000000
00000000
00000000
00100000
00000000
00000000
00100000
,
00000000
00100000
00000000
00010000
,
00000000
10000000
00000000
00000000
00010000
00000000
00000000
00010000
,
00000000
00000000
01000000
00000000
,
00001000
00000000
00100000
00000000
,
00100000
00000000
00001000
00000000
,
00010000
00000000
00000000
00000100
00000000
00000000
00000000
00001000
,
00000000
00000100
00000010
00000000
,
00000001
00000000
00001000
00000000
,
00000001
00000000
00000100
00000000
,
00000010
00000000
00002000
00000000
,
00000000
00000000
00003002
00000000
,
00000000
00000000
00000013
00000000
,
00000100
00000000
00000000
00000000
00001000
00000000
00000000
00000100
,
00000000
00000000
00000000
00010000
00000000
00000000
00000000
00000000
,
00000000
00000000
00001000
00000000
,
00001000
00000000
02000000
00000000
,
00000000
00000000
00000000
00000000
,
00000000
00000000
00000000
03010000
00000000
00000000
00000000
00000000
,
00000000
00000000
00000000
00000000
;
#NOTES:
     dance-double:
     :
     Medium:
     10:
     :
00000000
00000000
00000000
00000000
,
00000000
00000000
00000000
00000000
,
00000000
00000000
00000000
00000000
,
00000000
00000000
00000000
00000000
,
00000000
00000000
00000000
00000000
,
00000000
00000000
00000000
00000000
,
00000000
00000000
00000000
00000000
,
00000000
00000000
00000000
00000000
,
00000000
00000000
00000000
00000000
,
00000000
00000000
00000001
00000000
,
00000100
00000010
00001000
00000001
00000000
00000000
00000010
00000000
,
00000100
00010000
00001000
00000000
,
00100000
00010000
10000000
00010000
00000000
00000000
01000000
00000000
,
00000000
00100000
00000000
00000000
10000000
00000000
01000000
00000000
,
00100000
00010000
00001000
00000100
,
00000010
00000000
00000001
00000000
00000010
00000000
00000000
00000100
,
00000100
00000000
00000000
00000000
00001000
00000000
00000010
00000100
,
00000000
00000010
00000000
00000000
00001000
00000000
00000100
00000000
,
00010000
00001000
00010000
00001000
00200000
00000000
00000000
00000000
,
02300000
00000000
13000000
00000000
,
00000000
00000000
00100000
00000000
01000000
00000000
00010000
01000000
,
00000000
00002000
00000000
00000000
00023000
00000000
00000000
00000000
,
00000000
00000000
00030100
00000000
00000200
00000000
00000000
00001300
,
00000000
00000000
00000001
00001000
00000020
00000000
00000000
00000000
,
00000000
00000130
00000001
00002000
00000000
00000000
00000000
00000000
,
00003100
00010000
00002000
00000000
,
00000000
00103000
00010000
02000000
00000000
00000000
00000000
00000000
,
03200000
00000000
10300000
10000000
,
10000000
00000000
01000000
00000000
00100000
00000000
00010000
00100000
,
00000000
00002000
00000000
00000000
00023000
00000000
00000000
00000000
,
00030200
00000000
00000000
00000000
00001300
00000000
00000000
00001000
,
00000000
00000000
00000001
00001000
00000020
00000000
00000000
00000000
,
00000000
00000000
00000130
00000001
00001000
00000000
00000100
00000000
,
00010000
00000000
00001000
00000000
00100000
00010000
00100000
01000000
,
00000000
00000000
10000000
00000000
01000000
00100000
00010000
00000000
,
00100000
00001000
00010000
00000000
00000200
00000000
00000000
00000000
,
00000000
00001300
00000010
00000100
,
00000001
00000000
00001000
00000000
00000010
00000000
00010000
00020000
,
00000000
00001000
00032000
00000000
,
02003000
00000000
03200000
00000000
,
00000000
01300000
10000000
01000000
,
00010000
00000000
01000000
00000000
00002000
00000000
00000000
00023000
,
00000000
00000000
00030020
00000000
,
00002030
00000000
00003200
00000000
,
00000000
00000000
00000310
00000001
00001000
00000000
00000010
00000000
,
00000100
00001000
00020000
00000000
,
00230000
00000000
02300000
00000000
,
00000000
00000000
03010000
00010000
,
00010000
10000000
01000000
00000000
00100000
00000000
00100000
00000000
,
00100000
00001000
00010000
00000000
00000100
00000000
00000100
00000000
,
00000100
00001000
00000001
00000000
00001000
00000000
00001000
00000000
,
00001000
00001000
00000010
00000100
,
00000001
00000100
00000010
00001000
00000010
00000000
00010000
00000000
,
00001000
00100000
00010000
00100000
01000000
00000000
10000000
00000000
,
00100000
01000000
00200000
00000000
00320000
00000000
00000000
00000000
,
00032000
00000000
00000000
00000000
,
00000000
00000000
00000000
00000000
00013000
00000100
00000010
00000000
,
00000100
00000010
00000001
00000000
00001000
00000000
00000010
00000000
,
00000100
00000000
00000001
00000000
00001000
00000000
00000100
00000100
,
00000000
00010000
00000000
00020000
00000000
00000000
00031000
00100000
,
00001000
00100000
00020000
00000000
20030000
00000000
32000000
00000000
,
03200000
00320000
00032000
00000000
,
00003200
00000000
00000320
00000000
,
00000000
00000031
00001000
00000001
00001000
00000000
00000100
00000200
,
00000000
00000000
00010300
00010000
,
00001000
00010000
00001000
00010000
00000000
00000000
00101000
00000000
,
00110000
00000000
00100000
01000000
00000000
00000000
11000000
00000000
,
10000000
10000000
00000000
00020000
00000000
00000000
01000000
00000000
,
10000000
00130000
00002000
00010000
,
00023000
00000100
00030200
00000000
,
00002300
00000000
00000000
00000000
00003001
00000000
00000100
00000100
,
00000000
00000010
00000000
00000000
00001002
00000000
00000000
00000000
,
00000000
00000000
00000013
00000000
00000100
00000000
00001000
00000100
,
00000000
00020000
00000000
00000000
00032000
00000000
00000000
00000000
,
00203000
00000000
00000000
00000000
00310000
00000000
00100000
01000000
,
00100000
00010000
10000000
00000000
00100000
00000000
01000000
00010000
,
01000000
00001000
00010000
00000000
00001000
00000000
00010000
00010000
,
00000000
00000100
00001000
00000100
00001000
00000001
00000000
00000010
,
00000100
00000000
00010000
00001000
00000000
00100000
00010000
00100000
,
00010000
00100000
01000000
00000000
11000000
00000000
00000000
10010000
,
00000000
00010000
01000000
00100000
01000000
00000000
00001000
00000000
,
00010000
00001000
00000000
00000000
00010000
00000000
00010000
00000000
,
00000100
00000000
00001000
00000010
00000000
00000000
00000100
00000000
,
00000001
00000001
00000000
00001000
00000000
00000100
00010000
00000100
,
00000000
00010000
00002000
00000000
00203000
00000000
01000000
00000000
,
02300000
10000000
13000000
10000000
,
00100000
00000000
00100000
00000000
01000000
00000000
00001000
00002000
,
00000000
00013000
00000020
00000000
,
00000230
00000000
00000000
00000000
00002300
00000000
00013000
00020000
,
00000000
00031000
00000000
00000000
00011000
00000000
00011000
00000000
,
00011000
00000000
00011000
00000000
00010000
00000000
00000010
00000010
,
00000000
00001000
00000000
00000002
00000000
00000000
00000010
00000000
,
00001003
00000002
00000203
00000320
,
00002030
00023000
02030000
00000000
,
03010000
10000000
00100000
01000000
00001000
00010000
00000100
00001000
,
00000100
00000010
00000001
00002000
00000000
00000000
00000000
00000000
,
00000000
00000000
00000000
00000000
,
00000000
00000000
00000000
00000000
,
00000000
00000000
00003000
00000000
,
00000000
00000000
00000000
00000000
;
#NOTES:
     dance-double:
     :
     Hard:
     14:
     :
00000000
00000000
00000000
00000000
,
00000000
00000000
00000000
00000000
,
00000000
00000000
00000000
00000000
,
00000000
00000000
00000000
00000000
,
00000000
00000000
00000000
00000000
,
00000000
00000000
00000000
00000000
,
00000000
00000000
00000000
00000000
,
00000000
00000000
00000000
00000000
,
00000000
00000000
00000000
00000000
,
00000000
00000000
00000000
00000000
10000000
00000000
10000000
01000000
,
00100000
00010000
00100000
00001000
00000000
00001000
00010000
00000100
,
00002000
00000000
00003002
00000000
00001003
00000000
00001000
00000010
,
00000100
00000001
00001000
00000010
00000000
00000010
00020000
00000000
,
00031000
02000000
00000000
00000000
03100000
10000000
00010000
00100000
,
01000000
01000000
10000000
00100000
00010000
00001000
00001000
00010000
,
00000100
00001000
00000001
00000010
00000200
00000000
00000000
00010300
,
00021000
00000000
00000000
00000000
00031000
00100000
00010000
10010000
,
00000000
20100000
00000000
00000000
30020000
00000000
01030000
00100000
,
00010000
00001000
00100000
01000000
00020000
00000000
00000000
00000000
,
00032000
00000000
00000000
00000000
00003010
00000001
00001000
00000020
,
00000000
00000000
00000230
00000000
00002300
00000000
00003100
00000002
,
00000000
00000023
00000000
00000030
00000200
00000000
00000000
00000000
,
00000000
00000000
00010300
00000000
00020000
00000000
00000000
00032000
,
00000000
00000000
01003000
00010000
00200000
00000000
00000000
00000000
,
00000000
01300000
10000000
00200000
00000000
00000000
00000000
00000000
,
02300000
00000000
03002000
00000000
00103000
00010000
00100000
01000000
,
00100000
00001000
00010000
00000010
00000100
00001000
00010000
00010000
,
00001000
00000100
00000010
00000100
00000001
00000000
00000001
00000100
,
00000010
00000100
00001000
00000000
00020000
00000000
00031000
00100000
,
02000000
00000000
13000000
00100000
02000000
00000000
03100000
00010000
,
00002000
00000000
00013000
00000100
00000020
00000000
00000031
00001000
,
00000200
00000000
00000310
00001000
00010000
00001000
00100000
00020000
,
00000000
00000000
01030000
00100000
20000000
00000000
32000000
00000000
,
03020000
00000000
00032000
00000000
00103000
01000000
00100000
00110000
,
00000000
00010000
00100000
00001000
00010000
00000100
00000100
00001000
,
00000010
00000100
00000010
00000100
00000002
00000000
00000010
00000023
,
00000000
00000130
00010000
00001000
00200000
00000000
00310000
10000000
,
00100000
01000000
00020000
00000000
02030000
00000000
03100000
00200000
,
00000000
01300000
00001000
00100000
00002000
00000000
00013000
00000100
,
00000020
00000000
00000031
00000100
00000020
00000000
00001030
00002000
,
00000000
00003001
00000100
00001000
00020000
00000000
00031000
00100000
,
01000000
00100000
00020000
00000000
20030000
00000000
30100000
00200000
,
00000000
01300000
00020000
00000000
02030000
00000000
03100000
00010000
,
00001000
00000100
00000020
00000000
00002030
00000000
00000001
00000000
,
00003001
00000000
00000001
00000010
00000200
00000000
00020300
00000000
,
00032000
02003000
03200000
10000000
,
20300000
01000000
32000000
00000000
,
03100000
00010000
00100000
00000000
00001000
00000000
00001000
00000000
,
00001000
00010000
00000100
00001000
00000001
00000000
00000001
00000000
,
00000001
00000100
00001000
00000100
00000010
00000000
00000010
00000000
,
00000010
00000100
00001000
00010000
00100000
01000000
10000000
01000000
,
00100000
00010000
00001000
00000100
00000010
00001000
00000001
00000010
,
00000100
00010000
00001000
00100000
01000000
00010000
00001000
00010000
,
01000000
10000000
00100000
01000000
00010000
01000000
00001000
00010000
,
00100000
00010000
00001000
00000100
00000002
00000000
00000010
00000000
,
00000023
00000100
00000230
00000000
,
00000000
00000000
00000000
00000000
00000000
00000000
00000000
00000000
00010300
00000000
00001000
00000000
00010000
00001000
00010000
00000000
,
00001000
00100000
00010000
00100000
02000000
00000000
13000000
10000000
,
00010000
01000000
00010000
10000000
00100000
01000000
00010000
01010000
,
00000000
01001000
00000000
00012000
00000000
00013000
00010000
00000100
,
00001000
00000010
00000200
00000301
00000020
00000130
00002000
00013000
,
00200000
01300000
20000000
30010000
00200000
00300000
10010000
00000000
,
02000000
03000000
10010000
00000000
20100000
00000000
00010000
00000000
,
31000000
00100000
00010000
00100000
00002000
00000000
00013000
00020000
,
00000000
00030100
00001000
00000100
00000010
00000000
00000010
00000000
,
00000001
00001000
00000001
00001000
00000000
00000000
00001010
00000000
,
00010010
00000000
00010000
00011000
00000000
00000000
00201000
00000000
,
01300000
01000000
00000000
20000000
00000000
30010000
01000000
00010000
,
01000000
00001000
00020000
00000000
00030200
00000000
00001000
00000000
,
00000320
00000000
00000001
00000000
00000130
00001000
00000001
00000100
,
00000020
00000000
00010030
00000000
00002000
00000000
00103000
00200000
,
00000000
00320000
00000000
00000000
20030000
00000000
00000000
30100000
,
00100000
00000000
01000000
00000000
02000000
00000000
03001000
00002000
,
00000000
00023000
00000000
00000000
00030200
00000000
00000310
00001000
,
00010000
00001000
00000010
00000100
00002000
00000000
00003001
00000001
,
00000010
00000100
00010000
00001000
01000000
00010000
10000000
00100000
,
00100000
01000000
00100000
00010000
00002000
00000000
00003100
00000200
,
00000000
00000000
00000310
00000000
00001000
00000000
00000100
00000000
00100000
00000000
00001000
00010000
00001000
00000000
00100000
00000000
,
00001000
00010000
00001000
00000000
00100000
00000000
00001000
00010000
00001000
00000000
00100000
00000000
00010000
00100000
00010000
00000000
,
00100000
00000000
01000000
00000000
00000000
10000000
00000000
00000000
00010000
00000000
01000000
00000000
00100000
00000000
01100000
00000000
,
00000000
01000000
00100000
00010000
00011000
00000000
00010100
00000000
,
00001100
00001001
00000000
00000000
00000101
00000000
00000100
00000010
,
00001000
00000001
00001000
00001200
00000000
00000000
00010300
00000000
,
00011000
00011000
00000000
00002000
00000000
00013000
00100000
02000000
,
00000000
03010000
20000000
00000000
31000000
00100000
01000000
01000000
,
10000000
01000000
00010000
00001000
00011000
00000000
00011000
00000000
,
00011000
00000000
00011000
00000000
00002000
00000000
00013000
00000020
,
00000000
00000000
00000130
00000000
00000001
00000010
00000100
00001000
,
00000010
00000100
00000001
00001000
00000200
00000000
00010300
00020000
,
00000000
00031000
00000000
00000000
00101000
00000000
00110000
00000000
,
01100000
00000000
11000000
00000000
20000000
00000000
30010000
00020000
,
00000000
00230000
00000000
00302000
00000000
00013000
00000010
00000010
,
00000010
00001000
00000001
00000001
00000200
00001300
00020000
00130000
,
02000000
13000000
00020000
00130000
02000000
00000000
03100000
00010000
,
00001000
00100000
00010000
00001000
00000010
00000100
00000001
00000010
,
00000100
00001000
00010000
00200000
00000000
00000000
00000000
00000000
,
00000000
00000000
00000000
00000000
,
00000000
00000000
00000000
00000000
,
00000000
00000000
00300000
00000000
,
00000000
00000000
00000000
00000000
;
