
//----- song ID: yyyo -----//
#TITLE:You You You;
#ARTIST:D.watt feat. 紡音れい;
#ARTISTTRANSLIT:D.watt feat. Rei Tsumugine;
#BANNER:You You You.png;
#BACKGROUND:You You You-bg.png;
#CDTITLE:./CDTitles/DANCE aROUND.png;
#MUSIC:You You You.ogg;
#SAMPLESTART:73.962;
#SAMPLELENGTH:15;
#BPMS:0=146;
#STAGE:2;
#NOTES:
     dance-single:
     :
     Beginner:
     3:
     :
0000
0000
0000
0000
,
0000
0000
0000
0000
,
0000
0000
0000
0000
,
0000
0000
0000
0000
,
0000
0000
0000
0000
,
0000
0000
0000
0000
,
0000
0000
0000
0000
,
0001
0000
0001
0000
,
0010
0000
0000
0000
,
0100
0000
0000
0000
,
0000
0000
0000
0000
,
1000
0000
1000
0000
,
0010
0000
0000
0000
,
0100
0000
0000
0000
,
0000
0000
0000
0000
,
0001
0000
0000
0000
,
1000
0000
0000
0000
,
0001
0000
0000
0000
,
1000
0000
0000
0000
,
0001
0000
0001
0000
,
0100
0000
0000
0000
,
0001
0000
0010
0000
,
0001
0000
0000
0000
,
0100
0000
0100
0000
,
0010
0000
0000
0000
,
0100
0000
1000
0000
,
0100
0000
0000
0000
,
1000
0000
1000
0000
,
0010
0000
0010
0000
,
0100
0000
0000
0000
,
0000
0000
0000
0000
,
0001
0000
0001
0000
,
0010
0000
0010
0000
,
0100
0000
0000
0000
,
0000
0000
0000
0000
,
0010
0000
0000
0000
,
0000
0000
0000
0000
,
2000
0000
0000
0000
,
3000
0000
0000
0000
,
1000
0000
1000
0000
,
0100
0000
1000
0000
,
0100
0000
0000
0000
,
0000
0000
0000
0000
,
0001
0000
0001
0000
,
0100
0000
0001
0000
,
0010
0010
0010
0000
,
0000
0000
0000
0000
,
0001
0000
0100
0000
,
0010
0000
1000
0000
,
0010
0010
0010
0000
,
0000
0000
0000
0000
,
1000
0000
0100
0000
,
0010
0000
0001
0000
,
1001
0000
0000
0000
,
0000
0000
0000
0000
,
0001
0000
0001
0000
,
0010
0000
0010
0000
,
1001
0000
0000
0000
,
0000
0000
0000
0000
,
1000
0000
1000
0000
,
0010
0000
0010
0000
,
1001
0000
0000
0000
,
0100
0000
0010
0010
,
0000
0000
0000
0000
;
#NOTES:
     dance-single:
     :
     Easy:
     6:
     :
0000
0000
0000
0000
,
0000
0000
0000
0000
,
0000
0000
0000
0000
,
0000
0000
0000
0000
,
0000
0000
0000
0000
,
0000
0000
0000
0000
,
0000
0000
0000
0000
,
0100
0010
0100
0010
,
0100
0010
0100
0010
,
0100
0000
0001
0000
,
0100
0000
1000
0000
,
0100
0010
0100
0010
,
0100
0010
0100
0010
,
0100
0000
0001
0000
,
0100
0000
1000
0000
,
0001
1000
0100
0100
,
0101
0000
1100
0000
,
0001
1000
0100
0100
,
0101
0000
1100
0000
,
0010
0000
0010
0000
,
0010
0000
0010
0000
,
0001
0100
1000
0100
,
0001
0100
1000
0100
,
0010
0000
0010
0000
,
0010
0000
0010
0000
,
0001
0100
1000
0100
,
0001
0100
1000
0100
,
0001
0100
0001
0100
,
1000
0100
1000
0100
,
0001
0100
0001
0100
,
1000
0100
1000
0100
,
0002
0000
0013
0000
,
2000
0000
3010
0000
,
0001
1000
0100
0100
,
0101
0000
1100
0000
,
0001
1000
0100
0100
,
0101
0000
1100
0000
,
2002
0000
0000
0000
,
0000
3003
0001
1000
,
0001
0100
0001
0100
,
1000
0100
1000
0100
,
2002
0000
0000
0000
,
0000
3003
0001
1000
,
0001
0100
0001
0100
,
1000
0100
1000
0100
,
0002
0003
2000
3000
,
0002
0003
2000
3000
,
0001
0000
1000
0000
,
0001
0000
1000
0000
,
0002
0003
2000
3000
,
0002
0003
2000
3000
,
0001
0000
1000
0000
,
0001
0000
1000
0000
,
0010
0100
0010
0100
,
0010
0100
0010
0100
,
0010
0100
0001
0001
,
0010
0100
1000
1000
,
0010
0100
0010
0100
,
0010
0100
0010
0100
,
0010
0100
0001
0001
,
0010
0100
1000
1000
,
0002
0003
2000
3000
,
0002
0003
1000
0001
,
0000
0000
0000
0000
;
#NOTES:
     dance-single:
     :
     Medium:
     10:
     :
0000
0000
0000
0000
,
0000
0000
0000
0000
,
0000
0000
0000
0000
,
0000
0000
0000
0000
,
0000
0000
0000
0000
,
0000
0000
0000
0000
,
0000
0000
0000
0000
,
0010
0000
0100
0000
1001
0000
1000
0100
,
0010
0001
0100
0001
0010
0100
1000
0000
,
0010
0000
0100
0000
1001
0000
0001
0100
,
0010
1000
0100
1000
0010
0100
0001
0000
,
1000
0000
0001
0000
0110
0000
1000
0010
,
0100
0001
1000
0001
0100
0010
1000
0000
,
0001
0000
0001
0000
1000
0001
0000
1001
,
0000
0000
1000
0001
1000
0000
1001
0000
,
0001
0000
0100
0000
1000
0100
0001
0000
,
0100
1000
0100
0001
,
1000
0000
0100
0000
0001
0100
1000
0000
,
0100
0001
0100
1000
,
2002
0000
0000
0000
,
3003
1000
0001
1000
0001
1000
0001
0000
,
1000
0100
1000
0100
0010
0001
1000
0000
,
0001
0100
0010
1000
0100
0010
0001
0000
,
1000
0010
0100
0010
1000
0100
0010
0000
,
0001
1000
0100
1000
0010
0100
0010
0000
,
1000
0001
0100
0001
0010
0100
0010
0000
,
1001
0000
0000
0000
1000
0001
1000
0000
,
0001
0001
0100
0000
0010
1000
0010
0000
,
1001
0000
0000
0000
1000
0010
0001
0010
,
1000
1000
0100
0000
0010
0001
0010
0000
,
1001
0100
1001
0100
,
0010
0100
0010
0000
0100
0010
0100
0000
,
1001
0000
0000
1000
0001
0000
1001
0000
,
0010
0000
0010
0000
0100
0100
0000
1001
,
0000
1000
0100
0010
0001
0000
1001
0000
,
1000
0000
1000
0000
0001
0001
0000
0110
,
0000
0000
0000
0000
,
2002
0000
3003
0000
,
0000
0000
0000
0000
1000
0100
1001
0000
,
0001
0100
0001
0100
0010
1000
0010
1000
,
0100
0010
0001
0010
0100
0010
0001
0000
,
1000
0010
1000
0010
0100
0001
0100
0001
,
0010
0100
1000
0100
0010
0100
1000
0000
,
0001
0010
1000
0000
1000
0010
0001
0000
,
1000
0100
0010
0001
1000
0100
0010
0000
,
0001
1000
0110
1001
,
0001
0100
1000
0100
0001
0100
0001
0000
,
1000
0001
0110
1001
,
1000
0100
0001
0100
1000
0100
1000
0000
,
0010
0100
1001
0110
,
1000
0010
0001
0010
1000
0010
1000
0000
,
0001
0000
0101
0000
1000
0100
0010
0001
,
0000
0001
0100
0000
0010
0000
0010
0000
,
1000
0100
0010
0001
0100
0010
1000
0000
,
0001
0100
0001
0010
0100
1000
0001
0000
,
1000
0100
0010
0100
1000
0001
0010
0000
,
0001
0100
0010
0100
0001
0010
0100
0000
,
1000
0100
0010
0000
0001
0100
0010
0000
,
1000
0010
0001
0010
1000
0100
0010
0000
,
0001
0000
0001
0000
1000
1000
0000
0110
,
0000
1000
0001
1000
0001
0000
1001
0000
,
0100
0000
0100
0000
0010
0010
0000
1001
,
0000
0100
0010
0100
0010
0000
0110
0000
,
0000
0000
0000
0000
;
#NOTES:
     dance-single:
     :
     Hard:
     13:
     :
0000
0000
0000
0000
,
0000
0000
0000
0000
,
0000
0000
0000
0000
,
0000
0000
0000
0000
,
0000
0000
0000
0000
,
0000
0000
0000
0000
,
0000
0000
0000
0000
,
0011
0000
0000
0000
1010
0000
0000
0000
0011
0000
0000
0000
1000
0000
0100
0010
,
0001
0000
0100
0001
0100
0000
0010
1000
0010
0000
1000
0001
1000
0000
0000
0000
,
1010
0000
0000
0000
0011
0000
0000
0000
1010
0000
0000
0000
0001
0000
0100
0010
,
1000
0000
0100
1000
0100
0000
0010
0001
0010
0000
0001
1000
0001
0000
0000
0000
,
0101
0000
0000
0000
1100
0000
0000
0000
0101
0000
0000
0000
1000
0000
0100
0010
,
0001
0000
1000
0001
0100
0000
0001
1000
0100
0000
1000
0001
0010
0000
0000
0000
,
1100
0000
0101
0000
1100
1000
0000
1001
,
0000
0000
0100
0010
0100
0000
1001
0000
,
1000
0000
1001
0000
0010
0010
0010
0000
,
0100
0100
0100
0000
0010
1001
0000
0000
,
0001
0000
1001
0000
0010
0010
0010
0000
,
0100
0100
0100
0000
0010
1001
0000
0000
,
2000
0000
0000
3200
0000
0000
0302
0000
,
0000
0000
0103
0000
1000
0000
0010
0000
0100
0000
0001
0000
1000
0000
0001
1000
,
0001
0100
0001
0100
0010
1000
0010
1000
,
0100
0010
0001
1000
0001
0010
0100
1000
,
0001
0100
0001
0100
1000
0100
1000
0100
,
0001
0100
0010
1000
0100
0001
0100
1000
,
0100
0010
0001
0100
0010
1000
0100
0010
,
1001
0000
0000
0000
0000
0000
0000
0000
0001
1000
0001
0000
1001
0000
1000
0001
,
1000
0000
0010
0100
0010
0000
1000
0100
0010
0000
0001
0000
0011
0000
0000
0000
,
1001
0000
0001
0010
0100
0000
1000
0010
1000
0000
0100
0000
0001
0000
0100
0000
,
1000
0000
0010
0100
0010
0000
1000
0010
0100
0000
0001
0000
0101
0000
0100
0000
,
0000
0010
1010
0000
0101
0100
0101
0000
,
1001
0000
0001
0100
0010
0000
1000
0010
1000
0000
0001
0000
0011
0000
0000
0000
,
2002
0000
0000
0000
3003
0000
1000
0100
0001
0000
0100
0000
1000
0001
1000
0000
,
1001
0000
1010
0000
0001
0101
0000
1001
,
0000
1000
0100
0010
0001
0000
1001
0000
,
0110
0000
0011
0000
1000
1100
0000
1001
,
0000
0000
0000
0000
,
0020
0000
0030
0000
,
0000
0000
0000
0000
0001
1000
0110
1000
,
0001
0000
0100
0010
0100
0000
0001
0000
0010
0000
0100
1000
0100
0000
1000
0000
,
0001
0010
1000
0001
0100
1000
0001
0010
,
0100
0000
1000
0010
1000
0000
0100
0000
0010
0000
0001
1000
0001
0000
0100
0000
,
0010
1000
0100
1000
0010
0010
0100
0100
,
0001
0100
0101
0000
1000
0100
1100
1000
,
0001
0000
1000
0000
0110
0000
0000
0000
1001
0000
1000
0001
1000
0001
1000
0000
,
1010
0000
0010
0000
1010
0000
0010
0000
1010
0000
0001
1000
0002
0000
0000
0000
,
1003
0000
0001
0100
0001
0000
0010
0001
0010
0000
0100
1000
0100
0000
0000
0000
,
1010
0000
1000
0000
1100
0000
1000
0000
1010
0000
1000
0001
2000
0000
0000
0000
,
3000
1000
0010
0100
0101
0010
1010
0001
,
0011
0000
0010
0000
0011
0000
0010
0000
0011
0000
1000
0001
2000
0000
0000
0000
,
3001
0000
1000
0100
1000
0000
0010
1000
0010
0000
0100
0001
0100
0000
0000
0000
,
0011
0001
0100
0010
1010
1000
0001
1001
,
0000
0001
0010
0100
1100
0000
0101
0000
,
1100
0000
1000
0100
0010
0000
0001
0100
0010
0000
1000
0100
0010
0000
0001
0000
,
1000
0100
0001
0100
1000
0001
0010
0100
,
1000
0000
0001
0010
0100
0000
1000
0010
0100
0000
0001
0010
0100
0000
1000
0000
,
1010
0000
0100
0001
0011
0000
1001
0000
,
0110
0000
0001
1000
0100
0000
1000
0001
0100
0000
0001
1000
0100
0000
0010
0000
,
0011
0000
0000
0000
1000
0000
0010
0000
1010
0000
1000
0001
1000
0000
0000
0000
,
1001
0000
0110
0000
1000
0001
0000
0110
,
0000
0000
1000
0100
1000
0100
0010
0001
0010
0000
0010
0000
0000
0000
0000
0000
,
1001
0000
0110
0000
0001
1000
0000
0110
,
0000
0000
0001
0100
0001
0100
0010
1000
0010
1000
0010
0100
0010
0000
0000
0000
,
0000
0000
0000
0000
;
#NOTES:
     dance-double:
     :
     Easy:
     6:
     :
00000000
00000000
00000000
00000000
,
00000000
00000000
00000000
00000000
,
00000000
00000000
00000000
00000000
,
00000000
00000000
00000000
00000000
,
00000000
00000000
00000000
00000000
,
00000000
00000000
00000000
00000000
,
00000000
00000000
00000000
00000000
,
10000000
00100000
01100000
00000000
,
10000000
01000000
00010000
00001000
,
00010000
00001000
00011000
00000000
,
00010000
00001000
00000010
00000001
,
00000100
00000010
00000110
00000000
,
00000001
00000100
00001000
00010000
,
00001000
00000000
00001000
00000000
00010000
00000000
00000000
00011000
,
00000000
00000000
00000000
00000000
,
00001000
00100000
00001000
00100000
,
00010000
01000000
00010000
01000000
,
00100000
10000000
00100000
10000000
,
01000000
00010000
01000000
00010000
,
00002000
00000000
00000000
00000000
,
00003000
00010000
00001000
00010000
,
00001000
00000010
00000001
00000010
,
00001000
00000010
00000001
00000001
,
00000100
00000010
00000100
00001000
,
00000100
00000010
00001000
00001000
,
00000100
00010000
00001000
00010000
,
01100000
00000000
10000000
10000000
,
00010000
00100000
10000000
00100000
,
00001000
00000000
00001000
00001000
,
00010000
00000100
00000001
00000100
,
00001000
00001001
00000001
00001001
,
00001000
00000010
00000001
00000010
,
00010000
00000000
00010000
00010000
,
00001000
01000000
10000000
01000000
,
00010000
10010000
10000000
10010000
,
00010000
00100000
01000000
00010000
,
00001000
00000000
00010000
00000000
,
00022000
00000000
00033000
00000000
,
00001000
00000000
00001000
00000000
00010000
00001000
00010000
00000000
,
00000010
00001000
00000100
00000010
,
00000001
00000100
00001000
00010000
,
00100000
10000000
00010000
01000000
,
00100000
10000000
01000000
00010000
,
00001000
00000010
00001000
00010000
,
01000000
00000000
00010000
00000000
00001000
00010000
00001000
00000000
,
00010000
00000010
00000001
00000010
,
00001000
00000001
00000100
00000010
,
00010000
00010000
00001000
00001000
,
01000000
00010000
00100000
00100000
,
00001000
00100000
10000000
00100000
,
00010000
10000000
01000000
00100000
,
00001000
00001000
00010000
00010000
,
00000100
00001000
00000010
00000010
,
00000110
00001000
00001001
00000000
,
00000001
00000100
00001000
00010000
,
00011000
00001000
00011000
00000000
,
00001000
01000000
00010000
00100000
,
01100000
00010000
10010000
00000000
,
10000000
00100000
00010000
00001000
,
00011000
00010000
00000100
00000010
,
00000110
00000000
00000000
00000000
,
00001001
00000001
00000010
00001000
,
00011000
00000000
00010000
00011000
,
00000000
00000000
00000000
00000000
;
#NOTES:
     dance-double:
     :
     Medium:
     10:
     :
00000000
00000000
00000000
00000000
,
00000000
00000000
00000000
00000000
,
00000000
00000000
00000000
00000000
,
00000000
00000000
00000000
00000000
,
00000000
00000000
00000000
00000000
,
00000000
00000000
00000000
00000000
,
00000000
00000000
00000000
00000000
,
10000000
00000000
01000000
00000000
01100000
00000000
10000000
00100000
,
01000000
00010000
00100000
00010000
00100000
00001000
00010000
00000000
,
00001000
00000000
00010000
00000000
00011000
00000000
00001000
00010000
,
00000100
00001000
00000010
00001000
00000100
00000010
00000001
00000000
,
00001000
00000000
00000010
00000000
00000110
00000000
00000001
00000100
,
00000001
00000010
00000100
00000010
00000100
00010000
00001000
00000000
,
00010000
00000000
00010000
00000000
00001000
00010000
00000000
00011000
,
00000000
00000000
00001000
00100000
01000000
00000000
01100000
00000000
,
10000000
00000000
01000000
00000000
00010000
01000000
10000000
00000000
,
00100000
00010000
00001000
00000100
,
00000001
00000000
00000010
00000000
00001000
00000010
00000001
00000000
,
00000100
00001000
00010000
00010000
,
00022000
00000000
00000000
00000000
,
00033000
00010000
00001000
00010000
00001000
00010000
00001000
00000000
,
00010000
00100000
00010000
00100000
10000000
00010000
10000000
00000000
,
00100000
10000000
01000000
00100000
00001000
00010000
00001000
00000000
,
00010000
00000100
00010000
00000100
00001000
00000100
00001000
00000000
,
00000010
00001000
00000100
00000010
00000001
00001000
00000001
00000000
,
00001000
00000010
00001000
00000010
00000100
00000001
00000100
00001000
,
00010000
00000000
00000000
00000000
00001000
00010000
00011000
00000000
,
00002000
00000000
00023000
00000000
01030000
10000000
01000000
00000000
,
10010000
00000000
00000000
00000000
10000000
01000000
00100000
00010000
,
00002000
00000000
00003200
00000000
00000301
00000100
00001000
00000000
,
00001001
00000010
00001001
00000010
,
00001001
00000000
00000001
00000000
00000010
00001000
00010000
00000000
,
00011000
00000000
00000000
00001000
01000000
00000000
00100000
00000000
,
01100000
00000000
01100000
00000000
10000000
00010000
00000000
10010000
,
00000000
10000000
00100000
01000000
00100000
00010000
00001000
00000000
,
00011000
00000000
00011000
00000000
00000100
00000010
00000000
00000110
,
00000000
00000000
00000000
00000000
,
00002002
00000000
00003003
00000000
,
00000000
00000000
00000000
00000000
00000010
00000100
00001001
00000000
,
00000001
00000010
00000001
00000010
00000100
00001000
00000100
00010000
,
00001000
00100000
00010000
00100000
00010000
01000000
00010000
00000000
,
10000000
00100000
10000000
00100000
01000000
00010000
01000000
00001000
,
00010000
00000010
00001000
00000010
00001000
00000100
00001000
00000000
,
00000001
00000100
00001000
00000000
00010000
00100000
10000000
00000000
,
00010000
10000000
01000000
00100000
00010000
00100000
01000000
00000000
,
11000000
00110000
11000000
10010000
,
10000000
01000000
00100000
01000000
00010000
00001000
00010000
00000000
,
00001000
00000010
00000001
00001001
,
00001000
00000100
00010000
00001000
00000100
00000001
00001000
00000000
,
00000011
00001100
00000011
00001001
,
00000001
00000010
00000100
00000010
00001000
00010000
00001000
00000000
,
00010000
00000000
01000000
00000000
10000000
00100000
10000000
00010000
,
00000000
00100000
00001000
00010000
00100000
10000000
00010000
00000000
,
10000000
01000000
10000000
01000000
00100000
00010000
00100000
00000000
,
00001000
00010000
00000100
00001000
00000100
00000010
00000001
00000000
,
00001000
00000001
00000100
00000010
00001000
00000001
00000010
00000100
,
00001000
00000100
00010000
00000000
00001000
00010000
00001000
00000000
,
01000000
00010000
00100000
00010000
01000000
00100000
10000000
00000000
,
01000000
00100000
00010000
00100000
00001000
00010000
00001000
00000010
,
00000001
00000000
00000001
00000000
00000100
00000010
00000000
00001001
,
00000000
00000001
00000100
00001000
00010000
00000000
00011000
00000000
,
01000000
00000000
01000000
00000000
00100000
01000000
00000000
10010000
,
00000000
10000000
01000000
00010000
00001000
00000000
00011000
00000000
,
00000000
00000000
00000000
00000000
;
#NOTES:
     dance-double:
     :
     Hard:
     13:
     :
00000000
00000000
00000000
00000000
,
00000000
00000000
00000000
00000000
,
00000000
00000000
00000000
00000000
,
00000000
00000000
00000000
00000000
,
00000000
00000000
00000000
00000000
,
00000000
00000000
00000000
00000000
,
00000000
00000000
00000000
00000000
,
10010000
00000000
00000000
00000000
01100000
00000000
00000000
00000000
10010000
00000000
00000000
00000000
10000000
00000000
01000000
00100000
,
00010000
00000000
00100000
00001000
00100000
00000000
00001000
00010000
00001000
00000000
00010000
00000100
00001000
00000000
00000000
00000000
,
00001001
00000000
00000000
00000000
00000110
00000000
00000000
00000000
00001001
00000000
00000000
00000000
00000001
00000000
00000100
00000010
,
00001000
00000000
00000010
00010000
00000010
00000000
00010000
00001000
00010000
00000000
00001000
01000000
00010000
00000000
00000000
00000000
,
00110000
00000000
00000000
00000000
11000000
00000000
00000000
00000000
00110000
00000000
00000000
00000000
10000000
00000000
01000000
00100000
,
01000000
00000000
00010000
00001000
00010000
00000000
00000100
00000010
00000100
00000000
00001000
00000001
00001000
00000000
00000000
00000000
,
00000011
00000000
00001100
00000000
00001000
00000001
00000000
00001001
,
00000000
00000000
00000001
00000100
00001000
00000000
00011000
00000000
,
00001000
00000000
00010000
00000000
01000000
00100000
01000000
00000000
,
10000000
00010000
10000000
00000000
00100000
10010000
00000000
00000000
,
10000000
00000000
01000000
00000000
00010000
00001000
00010000
00000000
,
00000100
00000010
00000100
00000000
00000010
00001001
00000000
00000000
,
00000002
00000000
00000000
00002003
00000000
00000000
00003020
00000000
,
00000000
00000000
00000130
00000000
00000010
00000000
00000100
00000000
00000001
00000000
00001000
00000000
00000001
00000000
00001000
00000100
,
00000010
00000001
00000100
00000001
00001000
00000010
00001000
00010000
,
01000000
00010000
01000000
00100000
10000000
00100000
10000000
00000000
,
00010000
10000000
00100000
00010000
00100000
10000000
01000000
00010000
,
01000000
00100000
00001000
00010000
00001000
00000010
00000100
00000010
,
00000001
00000100
00001000
00000100
00000001
00000010
00000100
00010000
,
00011000
00000000
00000000
00000000
00000000
00000000
00000000
00000000
00010000
00001000
00010000
00000000
00011000
00000000
00001000
00010000
,
00001000
00000000
01000000
00010000
01000000
00000000
00010000
00100000
00010000
00000000
10000000
00000000
11000000
00000000
00000000
00000000
,
10010000
00000000
10000000
00100000
10000000
00000000
00010000
01000000
00010000
00000000
00100000
00000000
00001000
00000000
00000010
00000000
,
00000100
00000000
00001000
00000010
00001000
00000000
00000001
00000100
00000010
00000000
00001000
00000000
00001001
00000000
00000001
00000000
,
00000000
00000100
00000110
00000000
00010000
00001000
00011000
00000000
,
00001000
00000000
00100000
00010000
01000000
00000000
00100000
10000000
01000000
00000000
00100000
00000000
01100000
00000000
00000000
00000000
,
20020000
00000000
00000000
00000000
30030000
00000000
10000000
01000000
00100000
00000000
00001000
00000000
00010000
00001000
00010000
00000000
,
00011000
00000000
00000110
00000000
00000001
00001000
00000000
00001001
,
00000000
00000001
00000100
00001000
00010000
00001000
00010000
00000000
,
00011000
00000000
01100000
00000000
10000000
00010000
00000000
10010000
,
00000000
00000000
00000000
00000000
,
00200000
00000000
00300000
00000000
,
00000000
00000000
00000000
00000000
10000000
00010000
10010000
10000000
,
01000000
00000000
00100000
00001000
00100000
00000000
00001000
00010000
00001000
00000000
00010000
00000000
00000100
00000000
00000010
00000000
,
00000001
00000100
00001000
00000001
00000010
00001000
00000001
00000100
,
00000010
00000000
00010000
00001000
00010000
00000000
00001000
01000000
00001000
00000000
00100000
00000000
00010000
00000000
10000000
00000000
,
01000000
00010000
10000000
00100000
00001000
00000010
00000001
00000001
,
00000100
00000010
00000110
00000000
00001000
00000001
00001001
00000000
,
00000001
00000000
00000100
00000000
00010000
00000000
01000000
00000000
00100000
00000000
10000000
00010000
10000000
00010000
10000000
00000000
,
10100000
00000000
00100000
00000000
10100000
00000000
00100000
00000000
10100000
00000000
10000000
00010000
20000000
00000000
00000000
00000000
,
30100000
00000000
10000000
01000000
00100000
00000000
00001000
00010000
00001000
00000000
00000010
00000001
00001000
00000000
00000000
00000000
,
00000011
00000000
00000001
00000000
00000101
00000000
00000001
00000000
00000011
00000000
00001000
00000001
00002000
00000000
00000000
00000000
,
00003000
00000000
00000001
00000100
00000010
00000000
00010000
00000000
00011000
00000000
00001000
00000000
01001000
00000000
00000000
00000000
,
00110000
00000000
00010000
00000000
00110000
00000000
00010000
00000000
00110000
00000000
10000000
01000000
00200000
00000000
00000000
00000000
,
00301000
00000000
00010000
00000100
00001000
00000000
00000010
00001000
00000100
00000000
00000010
00000001
00001000
00000000
00000000
00000000
,
00001001
00000001
00000010
00001000
00011000
00010000
00100000
01100000
,
00000000
10010000
10000000
01000000
01100000
00000000
01100000
00000000
,
10010000
00000000
10000000
00100000
01000000
00000000
00100000
00010000
00001000
00000000
00010000
00001000
00010000
00000000
00000010
00000000
,
00001000
00000100
00000001
00001000
00000010
00000001
00001000
00000010
,
00000100
00000000
00000001
00000010
00000100
00000000
00001000
00000010
00000100
00000000
00001000
00010000
00001000
00000000
01000000
00000000
,
00100000
00100000
10000000
00010000
00100000
00100000
10010000
00000000
,
10010000
00000000
00010000
10000000
01000000
00000000
00100000
00010000
10000000
00000000
01000000
00010000
00001000
00000000
00000010
00000000
,
00000001
00000100
00001000
00000001
00000010
00001000
00000010
00010000
,
00001000
00000000
00011000
00000000
01000000
00100000
00000000
10010000
,
00000000
00000000
10000000
01000000
10000000
01000000
00100000
00010000
00100000
00000000
00001000
00000000
00000000
00000000
00000000
00000000
,
00010000
00000000
00011000
00000000
00000100
00000010
00000000
00001001
,
00000000
00000000
00000001
00000100
00000001
00000100
00000010
00001000
00000010
00010000
00001000
00010000
00001000
00000000
00000000
00000000
,
00000000
00000000
00000000
00000000
;
