
//----- song ID: yoid -----//
#TITLE:酔いどれ知らず;
#ARTIST:Kanaria;
#TITLETRANSLIT:Yoidore shirazu;
#BANNER:Yoidore shirazu.png;
#BACKGROUND:Yoidore shirazu-bg.png;
#CDTITLE:./CDTitles/DDR A3.png;
#MUSIC:Yoidore shirazu.ogg;
#SAMPLESTART:43.827;
#SAMPLELENGTH:15;
#BPMS:0=115;
#STAGE:1;
#NOTES:
     dance-single:
     :
     Beginner:
     1:
     :
0000
0000
0000
0000
,
0000
0000
0000
0000
,
0000
0000
0000
0000
,
0000
0000
0000
0000
,
0000
0000
0000
0000
,
1000
0000
0000
0000
,
0001
0000
0000
0000
,
1000
0000
0000
0000
,
0100
0000
0000
0000
,
1000
0000
0000
0000
,
0001
0000
0000
0000
,
1000
0000
0000
0000
,
0010
0000
0000
0000
,
1000
0000
0000
0000
,
0001
0000
0000
0000
,
1000
0000
0000
0000
,
0001
0000
0000
0000
,
0100
0000
0000
0000
,
0010
0000
0000
0000
,
0100
0000
0000
0000
,
0200
0000
0300
0000
,
0001
0000
0000
0000
,
1000
0000
0000
0000
,
0010
0000
0000
0000
,
0100
0000
0000
0000
,
0001
0000
0000
0000
,
1000
0000
0000
0000
,
0001
0000
0000
0000
,
0010
0000
0000
0000
,
0200
0000
0300
0000
,
0001
0000
0000
0000
,
1000
0000
0000
0000
,
0001
0000
0000
0000
,
0100
0000
0000
0000
,
0001
0000
0000
0000
,
1000
0000
0000
0000
,
0001
0000
0000
0000
,
0020
0000
0030
0000
,
0001
0000
0000
0000
,
0001
0000
0000
0000
,
1000
0000
0000
0000
,
2000
0000
3000
0000
,
0010
0000
0000
0000
,
0010
0000
0000
0000
,
0100
0000
0000
0000
,
0200
0000
0300
0000
,
0001
0000
0000
0000
,
1000
0000
0000
0000
,
0001
0000
0000
0000
,
1000
0000
0000
0000
,
0010
0000
0000
0000
,
0100
0000
0000
0000
,
0001
0000
0000
0000
,
0100
0000
0000
0000
,
0000
0000
0000
0000
;
#NOTES:
     dance-single:
     :
     Easy:
     3:
     :
0000
0000
0000
0000
,
0000
0000
0000
0000
,
0000
0000
0000
0000
,
0000
0000
0000
0000
,
0000
0000
0000
0000
,
0001
0000
0000
0000
,
1000
0000
0000
0000
,
0010
0000
0000
0000
,
0100
0000
0100
0000
,
0001
0000
0000
0000
,
1000
0000
0000
0000
,
0100
0000
0000
0000
,
0010
0000
0010
0000
,
0001
0000
0000
0000
,
1000
0000
0000
0000
,
0001
0000
0000
0000
,
0100
0000
0010
0000
,
1000
0000
0000
0000
,
0001
0000
0000
0000
,
1000
0000
0100
0000
,
0020
0000
0030
0000
,
0001
1000
0001
0000
,
1000
0001
1000
0000
,
0010
0000
0000
0000
,
0200
0000
0300
0000
,
0001
1000
0001
0000
,
1000
0001
1000
0000
,
0100
0000
0000
0000
,
0020
0000
0030
0000
,
0002
0000
2003
0000
,
3010
0000
0000
0000
,
0100
0000
0000
0000
,
0010
0000
0000
0000
,
1000
0000
0100
0000
,
0010
0000
0000
0000
,
0100
0000
0000
0000
,
0010
0000
0100
0000
,
0020
0000
0030
0000
,
0001
1000
0001
0000
,
1000
0001
1000
0000
,
0010
0000
0000
0000
,
0010
0000
0000
0000
,
1000
0001
1000
0000
,
0001
1000
0001
0000
,
0100
0000
0000
0000
,
0100
0000
0000
0000
,
0002
0000
0003
0000
,
2000
0000
3000
0000
,
0020
0000
0030
0000
,
0200
0000
0300
0000
,
0001
0000
1000
0000
,
0001
0000
1000
0000
,
0010
0000
0100
0000
,
0100
0000
0000
0000
,
0000
0000
0000
0000
;
#NOTES:
     dance-single:
     :
     Medium:
     9:
     :
0000
0000
0000
0000
,
0000
0000
0000
0000
,
0000
0000
0000
0000
,
0000
0000
0000
0000
,
0000
0000
0000
0000
,
1000
0000
0010
0100
0010
0000
0100
0000
,
0001
0000
0010
0100
0010
0000
0100
0000
,
1000
0100
0001
0100
,
2000
3200
0320
0032
,
1003
0000
0100
0010
0100
0000
0010
0000
,
0001
0000
0100
0010
0100
0000
0010
0000
,
1000
0010
0001
0010
,
2000
3020
0230
0302
,
0003
1000
0010
0100
0001
0100
0010
1000
,
0000
0001
0010
0100
1000
0100
0010
0001
,
0000
1000
0010
0100
0001
0100
0010
0000
,
2000
0000
3002
0000
0013
0100
1000
0000
,
0000
0001
0100
0010
1000
0010
0100
0001
,
0000
1000
0100
0010
0001
0010
0100
1000
,
0000
0001
0100
0010
2000
0000
3002
0000
,
0203
0000
0300
0000
,
0101
0000
2001
0000
3100
0100
0100
0000
,
1100
0000
1002
0000
0103
0100
0100
0000
,
0010
0000
0000
0000
0010
0000
0000
0100
0000
0000
0001
0000
1000
0000
0001
0000
,
0010
0000
0000
0100
0000
0000
2000
0000
0000
0000
0000
0000
3000
0000
0000
0000
,
1010
0000
1002
0000
0013
0010
0010
0000
,
0011
0000
2001
0000
3010
0010
0010
0000
,
0100
0000
0000
0000
0100
0000
0000
0010
0000
0000
1000
0000
0001
0000
1000
0000
,
0100
0000
0000
0010
0000
0000
0002
0000
0000
0000
0013
0000
0100
0000
1000
0000
,
0002
0000
0203
0300
,
0000
0010
1000
0001
0010
0100
1000
0001
,
0000
0100
0001
1000
0010
0100
0001
1000
,
0000
0100
1000
0001
0100
0010
1000
0000
,
0200
0000
0320
0000
0031
1000
0100
0000
,
0000
0010
0001
1000
0010
0100
0001
1000
,
0000
0100
1000
0001
0100
0010
1000
0001
,
0000
0010
0001
1000
0200
0000
0320
0000
,
0032
0000
0000
0003
0000
0000
0000
0000
,
0101
0000
2001
0000
3100
0100
0100
0000
,
1100
0000
1002
0000
0103
0100
0100
0000
,
0110
0000
0000
0000
0110
0000
0000
0100
0000
0000
0001
0000
1000
0000
0001
0000
,
0010
0000
0000
0100
0000
0000
2000
0000
0000
0000
0000
0000
3000
0000
0000
0000
,
1010
0000
1002
0000
0013
0010
0010
0000
,
0011
0000
2001
0000
3010
0010
0010
0000
,
0110
0000
0000
0000
0110
0000
0000
0010
0000
0000
1000
0000
0001
0000
1000
0000
,
0100
0000
0000
0010
0000
0000
0002
0000
0000
0000
0023
0000
0000
0000
0000
0000
,
0230
0000
2300
0000
,
3001
0010
0100
0010
0100
0010
0001
1000
,
0020
0000
2030
0000
,
3001
0100
0010
0100
0010
0100
0001
1000
,
0100
0000
0100
0000
1000
0100
0001
0100
,
0010
0000
0010
0000
0001
0100
1000
0100
,
0010
0000
0100
0001
1000
0000
0100
0000
,
0100
0000
0000
0000
,
0000
0000
0000
0000
;
#NOTES:
     dance-single:
     :
     Hard:
     13:
     :
0000
0000
0000
0000
,
0000
0000
0000
0000
,
0000
0000
0000
0000
,
0000
0000
0000
0000
,
0000
0000
0000
0000
,
0001
0000
0000
0100
0000
0000
0010
0000
0000
0100
0000
0000
0002
0000
0000
0000
0000
1003
0020
0000
0000
0000
0000
0000
,
1030
0000
0000
0000
0000
0000
0100
0000
0000
0000
0000
0000
0010
0000
0000
0000
0000
0000
0100
0000
0000
0000
0000
0000
2000
0000
0000
0000
0000
0000
0000
0000
0000
3000
0001
0000
0020
0000
0000
0000
0000
0000
0000
0000
0000
0000
0000
0000
,
0031
0000
0000
0000
0000
0000
0100
0000
0000
0000
0000
0000
1000
0000
0000
0000
0000
0000
0100
0000
0000
0000
0000
0000
0002
0000
0000
0000
0000
0000
0000
0000
0000
0003
1000
0000
0200
0000
0000
0000
0000
0000
0000
0000
0000
0000
0000
0000
,
0310
0110
0001
1001
0100
0101
0010
1010
,
1000
0000
0000
0010
0000
0000
0100
0000
0000
0010
0000
0000
2000
0000
0000
0000
0000
3001
0200
0000
0000
0000
0000
0000
,
0301
0000
0000
0000
0000
0000
0010
0000
0000
0000
0000
0000
0100
0000
0000
0000
0000
0000
0010
0000
0000
0000
0000
0000
0002
0000
0000
0000
0000
0000
0000
0000
0000
0003
1000
0000
0200
0000
0000
0000
0000
0000
0000
0000
0000
0000
0000
0000
,
1300
0000
0000
0000
0000
0000
0010
0000
0000
0000
0000
0000
0001
0000
0000
0000
0000
0000
0010
0000
0000
0000
0000
0000
2000
0000
0000
0000
0000
0000
0000
0000
0000
3000
0001
0000
0020
0000
0000
0000
0000
0000
0000
0000
0000
0000
0000
0000
,
0130
0110
1000
1001
0010
1010
0100
0101
,
0001
0000
0000
1000
0000
0000
0010
0000
0100
0000
0000
0002
0000
0000
0000
0013
0000
0000
0010
0000
0000
0010
0000
0000
,
0001
0000
0000
1000
0000
0000
0100
0000
0010
0000
0000
0002
0000
0000
0000
0103
0000
0000
0100
0000
0000
0100
0000
0000
,
0001
0000
0000
1000
0000
0010
0100
0000
0001
0000
0000
2000
0000
0000
0000
3100
0000
0000
0100
0000
0000
0000
0000
0000
,
1000
0000
0100
0000
0001
0000
0100
0000
0010
0000
0000
0000
0110
0000
0000
1100
0000
0000
1001
0000
0000
0000
0000
0000
,
1000
0000
0000
0001
0000
0000
0100
0000
0010
0000
0000
2000
0000
0000
0000
3100
0000
0000
0100
0000
0000
0100
0000
0000
,
1000
0000
0000
0001
0000
0100
0010
0000
0100
0000
0000
0002
0000
0000
0000
0013
0000
0000
0010
0000
0000
0010
0000
0000
,
0001
0000
0000
1000
0000
0010
0100
0000
0001
0000
0000
2000
0000
0000
0000
0000
0000
0000
3020
0000
0000
0000
0000
0000
,
0230
0000
0001
0301
0000
0001
0010
0100
,
1001
0000
0000
0000
0000
0000
0101
0000
0000
0000
0000
0001
1000
0000
0100
0010
0000
0001
1000
0000
0000
0101
0000
0000
,
0011
0000
0000
0000
0000
0000
1010
0000
0000
0000
0000
1000
0001
0000
0100
0010
0000
1000
0001
0000
0000
0000
0000
0000
,
0011
0000
0000
0000
0000
0000
0110
0000
0000
0000
0000
2000
0000
0000
0000
3001
0000
0000
0001
0000
0000
0100
0000
0000
,
1000
0000
0000
0100
0000
0010
0000
0000
0100
0020
0000
0000
0000
0000
0000
1030
0000
0000
0001
0000
0000
0010
0000
0000
,
0101
0000
0000
0000
0000
0000
1100
0000
0000
0000
0000
1000
0001
0000
0100
0010
0000
1000
0001
0000
0000
1100
0000
0000
,
1010
0000
0000
0000
0000
0000
0011
0000
0000
0000
0000
0001
1000
0000
0100
0010
0000
0001
1000
0000
0000
0000
0000
0000
,
1010
0000
0000
0000
0000
0000
0110
0000
0000
0000
0000
0002
0000
0000
0000
1003
0000
0000
1000
0000
0000
0100
0000
0000
,
0001
0000
0000
0100
0000
0010
0000
0000
0100
0020
0000
0000
0000
0000
0000
0031
0000
0000
1000
0000
0000
0010
0000
0000
,
0200
0000
0020
0330
,
1000
0000
0000
0001
0000
0000
0100
0000
0010
0000
0000
2000
0000
0000
0000
3100
0000
0000
0100
0000
0000
0100
0000
0000
,
1000
0000
0000
0001
0000
0000
0010
0000
0100
0000
0000
2000
0000
0000
0000
3010
0000
0000
0010
0000
0000
0010
0000
0000
,
1000
0000
0000
0001
0000
0010
0100
0000
1000
0000
0000
0002
0000
0000
0000
0013
0000
0000
0010
0000
0000
0000
0000
0000
,
0001
0000
0100
0000
1000
0000
0100
0000
0001
0000
0000
0000
0110
0000
0000
0101
0000
0000
1001
0000
0000
0000
0000
0000
,
0001
0000
0000
1000
0000
0000
0010
0000
0100
0000
0000
0002
0000
0000
0000
0013
0000
0000
0010
0000
0000
0010
0000
0000
,
0001
0000
0000
1000
0000
0010
0100
0000
0010
0000
0000
2000
0000
0000
0000
3100
0000
0000
0100
0000
0000
0100
0000
0000
,
1000
0000
0000
0001
0000
0010
0100
0000
1000
0000
0000
0002
0000
0000
0000
0000
0000
0000
0203
0000
0000
0000
0000
0000
,
0320
0000
1000
1030
0000
1000
0010
0100
,
1001
0000
0000
0000
0000
0000
0011
0000
0000
0000
0000
0001
0010
0000
0010
0100
0000
0100
1000
0000
0000
1010
0000
0000
,
0101
0000
0000
0000
0000
0000
1100
0000
0000
0000
0000
1000
0010
0000
0010
0100
0000
0100
0001
0000
0000
0000
0000
0000
,
0101
0000
0000
0100
0000
0000
0110
0000
0010
0000
0000
2000
0000
0000
0000
3001
0000
0000
0001
0000
0000
0010
0000
0000
,
1000
0000
0000
0010
0000
0100
0000
0000
0010
0200
0000
0000
0000
0000
0000
1300
0000
0000
0001
0000
0000
0010
0000
0000
,
1001
0000
0000
0000
0000
0000
1010
0000
0000
0000
0000
1000
0010
0000
0010
0100
0000
0100
0001
0000
0000
0101
0000
0000
,
1010
0000
0000
0000
0000
0000
0011
0000
0000
0000
0000
0001
0010
0000
0010
0100
0000
0100
1000
0000
0000
0000
0000
0000
,
1100
0000
0000
0100
0000
0000
0110
0000
0010
0000
0000
0002
0000
0000
0000
1003
0000
0000
1000
0000
0000
0010
0000
0000
,
0001
0000
0000
0010
0000
0100
0000
0000
0010
0200
0000
0000
0000
0000
0000
0302
0000
0000
0000
0000
0000
0000
0000
0000
,
1003
0010
0100
1000
0100
0001
0010
0100
,
1000
0000
0000
0001
0000
1000
0001
0000
1000
0001
0000
1000
0001
0000
1000
0001
0000
0000
0100
0000
0000
0100
0000
0000
,
0001
0010
0100
0001
0100
1000
0010
0100
,
0001
0000
0000
1000
0000
0001
1000
0000
0001
1000
0000
0001
1000
0000
0001
1000
0000
0000
0010
0000
0000
0010
0000
0000
,
1000
0100
0010
1000
0010
0001
0100
0010
,
0001
0000
0000
0010
0000
0100
0010
0000
0100
0010
0000
0100
0010
0000
0100
0010
0000
0000
0020
0000
0000
0030
0000
0000
,
1000
0000
0000
0000
0000
0000
0001
0000
0000
0100
0000
0000
0010
0000
0000
0000
0000
0000
1000
0000
0001
0100
0000
0100
,
1000
0000
0000
0000
,
0000
0000
0000
0000
;
#NOTES:
     dance-double:
     :
     Easy:
     3:
     :
00000000
00000000
00000000
00000000
,
00000000
00000000
00000000
00000000
,
00000000
00000000
00000000
00000000
,
00000000
00000000
00000000
00000000
,
00000000
00000000
00000000
00000000
,
10000000
00000000
00000000
00000000
,
01000000
00000000
00000000
00000000
,
00100000
00000000
00000000
00000000
,
00001000
00000000
00001000
00000000
,
00010000
00000000
00000000
00000000
,
00000100
00000000
00000000
00000000
,
00001000
00000000
00000000
00000000
,
00000010
00000000
00000100
00000000
,
00000001
00000000
00000000
00000000
,
00001000
00000000
00000000
00000000
,
00000100
00000000
00000000
00000000
,
00010000
00000000
00001000
00000000
,
00100000
00000000
00000000
00000000
,
00010000
00000000
00000000
00000000
,
00010000
00000000
10000000
00000000
,
02000000
00000000
03000000
00000000
,
10000000
01000000
00100000
00000000
,
00001000
00010000
00001000
00000000
,
00010000
00000000
00000000
00000000
,
00000200
00000000
00000300
00000000
,
00001000
00000010
00000100
00000000
,
00000001
00001000
00000100
00000000
,
00010000
00000000
00000000
00000000
,
00002000
00000000
00003000
00000000
,
00200000
00000000
00320000
00000000
,
10030000
00000000
00000000
00000000
,
01000000
00000000
00000000
00000000
,
00100000
00000000
00000000
00000000
,
00001000
00000000
00010000
00000000
,
00000100
00000000
00000000
00000000
,
00001000
00000000
00000000
00000000
,
00001000
00000000
00000001
00000000
,
00000020
00000000
00000030
00000000
,
00000001
00000010
00000100
00000000
,
00010000
00001000
00010000
00000000
,
00001000
00000000
00000000
00000000
,
00200000
00000000
00300000
00000000
,
00010000
01000000
00100000
00000000
,
10000000
00010000
00100000
00000000
,
00001000
00000000
00000000
00000000
,
00020000
00000000
00030000
00000000
,
00000200
00000000
00000300
00000000
,
00002000
00000000
00003000
00000000
,
00000002
00000000
00000003
00000000
,
00000200
00000000
00000300
00000000
,
00000010
00000000
00001000
00000000
,
00000100
00000000
00010000
00000000
,
00001000
00000000
00100000
00000000
,
01000000
00000000
00000000
00000000
,
00000000
00000000
00000000
00000000
;
#NOTES:
     dance-double:
     :
     Medium:
     9:
     :
00000000
00000000
00000000
00000000
,
00000000
00000000
00000000
00000000
,
00000000
00000000
00000000
00000000
,
00000000
00000000
00000000
00000000
,
00000000
00000000
00000000
00000000
,
00000001
00000000
00001000
00000100
00001000
00000000
00000010
00000000
,
00010000
00000000
00001000
00010000
00001000
00000000
00100000
00000000
,
00010000
00100000
10000000
00100000
,
00020000
02030000
03200000
20300000
,
30010000
00000000
00100000
00010000
00100000
00000000
00001000
00000000
,
00010000
00000000
00000100
00001000
00000100
00000000
00001000
00000000
,
00000001
00000100
00001000
00000100
,
00000002
00000023
00000230
00002300
,
00003000
00000010
00001000
00000100
00010000
00001000
00100000
00010000
,
00000000
10000000
00100000
01000000
00010000
01000000
00100000
10000000
,
00000000
00010000
00100000
00001000
00010000
00000100
00001000
00000000
,
00000002
00000000
00002003
00000000
00003010
00000100
00000010
00000000
,
00000000
00001000
00000010
00000100
00000010
00010000
00001000
00100000
,
00000000
00010000
00100000
01000000
10000000
01000000
00100000
00010000
,
00000000
00100000
00001000
00010000
00000200
00000000
00002300
00000000
,
00003020
00000000
00000030
00000000
,
00000110
00000000
00002010
00000000
00003100
00000100
00000100
00000000
,
00001100
00000000
00020100
00000000
00031000
00001000
00001000
00000000
,
00100000
00000000
00000000
00000000
00100000
00000000
00000000
00010000
00000000
00000000
10000000
00000000
00010000
00000000
00100000
00000000
,
00001000
00000000
00000000
00100000
00000000
00000000
02000000
00000000
00000000
00000000
00000000
00000000
03000000
00000000
00000000
00000000
,
01100000
00000000
00120000
00000000
01030000
01000000
01000000
00000000
,
01010000
00000000
01002000
00000000
00013000
00010000
00010000
00000000
,
00000100
00000000
00000000
00000000
00000100
00000000
00000000
00001000
00000000
00000000
00000001
00000000
00001000
00000000
00000100
00000000
,
00010000
00000000
00000000
00000100
00000000
00000000
00000020
00000000
00000000
00000000
00000030
00000000
00000000
00000000
00000000
00000000
,
00000200
00000000
00002300
00003000
,
00000000
00000100
00001000
00000010
00010000
00001000
01000000
00010000
,
00000000
10000000
01000000
00100000
00010000
00100000
01000000
10000000
,
00000000
00010000
01000000
00001000
00010000
00000010
00001000
00000000
,
00000002
00000000
00002003
00000000
00003100
00000010
00000100
00000000
,
00000000
00001000
00000100
00000010
00000100
00010000
00001000
01000000
,
00000000
00010000
01000000
00100000
10000000
00100000
01000000
00010000
,
00000000
01000000
00001000
00010000
00000020
00000000
00002030
00000000
,
00003200
00000000
00000300
00000000
,
00000110
00000000
00002100
00000000
00003010
00000010
00000010
00000000
,
00001010
00000000
00020010
00000000
00031000
00001000
00001000
00000000
,
01000000
00000000
00000000
00000000
01000000
00000000
00000000
00010000
00000000
00000000
10000000
00000000
00010000
00000000
00100000
00000000
,
00001000
00000000
00000000
01000000
00000000
00000000
00200000
00000000
00000000
00000000
00000000
00000000
00300000
00000000
00000000
00000000
,
01100000
00000000
01020000
00000000
00130000
00100000
00100000
00000000
,
00110000
00000000
00102000
00000000
00013000
00010000
00010000
00000000
,
00000010
00000000
00000000
00000000
00000010
00000000
00000000
00001000
00000000
00000000
00000001
00000000
00001000
00000000
00000010
00000000
,
00010000
00000000
00000000
00000010
00000000
00000000
00000200
00000000
00000000
00000000
00000302
00000000
00000000
00000000
00000000
00000000
,
00000023
00000000
00000230
00000000
,
00010300
00001000
00100000
00010000
10000000
01000000
00010000
01000000
,
20000000
00000000
30020000
00000000
,
00130000
00001000
00010000
00000100
00001000
00000001
00000010
00001000
,
00000010
00000000
00000010
00000000
00000001
00001000
00000100
00010000
,
00001000
00100000
00010000
00100000
01000000
00100000
10000000
00100000
,
00010000
00000000
00100000
00001000
00010000
00000000
00001000
00000000
,
00001000
00000000
00000000
00000000
,
00000000
00000000
00000000
00000000
;
#NOTES:
     dance-double:
     :
     Hard:
     13:
     :
00000000
00000000
00000000
00000000
,
00000000
00000000
00000000
00000000
,
00000000
00000000
00000000
00000000
,
00000000
00000000
00000000
00000000
,
00000000
00000000
00000000
00000000
,
10000000
00000000
00000000
00100000
00000000
00000000
01000000
00000000
00000000
00010000
00000000
00000000
00200000
00000000
00000000
00000000
00000000
00301000
00020000
00000000
00000000
00000000
00000000
00000000
,
00031000
00000000
00000000
00000010
00000000
00000000
00000100
00000000
00000000
00000001
00000000
00000000
00000200
00000000
00000000
00000000
00000000
00010300
00002000
00000000
00000000
00000000
00000000
00000000
,
00013000
00000000
00000000
00000000
00000000
00000000
01000000
00000000
00000000
00000000
00000000
00000000
00100000
00000000
00000000
00000000
00000000
00000000
01000000
00000000
00000000
00000000
00000000
00000000
00020000
00000000
00000000
00000000
00000000
00000000
00000000
00000000
00000000
00030000
01000000
00000000
20000000
00000000
00000000
00000000
00000000
00000000
00000000
00000000
00000000
00000000
00000000
00000000
,
30010000
00110000
00100000
00101000
00001000
00000100
00000001
00001000
,
00000001
00000000
00000000
00000010
00000000
00000000
00000100
00000000
00000000
00001000
00000000
00000000
00000020
00000000
00000000
00000000
00000000
00010030
00002000
00000000
00000000
00000000
00000000
00000000
,
00013000
00000000
00000000
00100000
00000000
00000000
01000000
00000000
00000000
10000000
00000000
00000000
02000000
00000000
00000000
00000000
00000000
03001000
00020000
00000000
00000000
00000000
00000000
00000000
,
00031000
00000000
00000000
00000000
00000000
00000000
00000100
00000000
00000000
00000000
00000000
00000000
00000010
00000000
00000000
00000000
00000000
00000000
00000100
00000000
00000000
00000000
00000000
00000000
00002000
00000000
00000000
00000000
00000000
00000000
00000000
00000000
00000000
00003000
00000100
00000000
00000002
00000000
00000000
00000000
00000000
00000000
00000000
00000000
00000000
00000000
00000000
00000000
,
00001003
00001010
00000010
00010010
00010000
01000000
10000000
00010000
,
01000000
00000000
00000000
00100000
00000000
00000000
00010000
00000000
00001000
00000000
00000000
00000200
00000000
00000000
00000000
00000301
00000000
00000000
00000001
00000000
00000000
00000010
00000000
00000000
,
00000100
00000000
00000000
00000010
00000000
00000000
00001000
00000000
00010000
00000000
00000000
02000000
00000000
00000000
00000000
13000000
00000000
00000000
10000000
00000000
00000000
00100000
00000000
00000000
,
01000000
00000000
00000000
00010000
00000000
00100000
01000000
00000000
00010000
00000000
00000000
00002000
00000000
00000000
00000000
00013000
00000000
00000000
00010000
00000000
00000000
00000000
00000000
00000000
,
00001000
00000000
00000100
00000000
00000001
00000000
00000010
00000000
00000100
00000000
00000000
00000000
00010000
00000000
00000000
00000010
00000000
00000000
00000001
00000000
00000000
00000000
00000000
00000000
,
00000010
00000000
00000000
00000100
00000000
00000000
00001000
00000000
00010000
00000000
00000000
00200000
00000000
00000000
00000000
10300000
00000000
00000000
10000000
00000000
00000000
01000000
00000000
00000000
,
00100000
00000000
00000000
00010000
00000000
01000000
00100000
00000000
00010000
00000000
00000000
00002000
00000000
00000000
00000000
00013000
00000000
00000000
00010000
00000000
00000000
00000100
00000000
00000000
,
00000010
00000000
00000000
00001000
00000000
00000010
00000100
00000000
00001000
00000000
00000000
00000002
00000000
00000000
00000000
00000000
00000000
00000000
00002003
00000000
00000000
00000000
00000000
00000000
,
00023000
00000000
10000000
10030000
00000000
00010000
00100000
01000000
,
11000000
00000000
00000000
00000000
00000000
00000000
10010000
00000000
00000000
00000000
00000000
10000000
01000000
00000000
01000000
00100000
00000000
00100000
00001000
00000000
00000000
00101000
00000000
00000000
,
00011000
00000000
00000000
00000000
00000000
00000000
00010100
00000000
00000000
00000000
00000000
00010000
00000100
00000000
00000100
00000010
00000000
00000010
00000001
00000000
00000000
00000000
00000000
00000000
,
00000101
00000000
00000000
00000000
00000000
00000000
00001001
00000000
00000000
00000000
00000000
00002000
00000000
00000000
00000000
00003100
00000000
00000000
00000100
00000000
00000000
00010000
00000000
00000000
,
00001000
00000000
00000000
01000000
00000000
00010000
00000000
00000000
01000000
00200000
00000000
00000000
00000000
00000000
00000000
00000000
00000000
00000000
00300000
00000000
00000000
00000000
00000000
00000000
,
10100000
00000000
00000000
00000000
00000000
00000000
10010000
00000000
00000000
00000000
00000000
10000000
00100000
00000000
00100000
01000000
00000000
01000000
00001000
00000000
00000000
01001000
00000000
00000000
,
00011000
00000000
00000000
00000000
00000000
00000000
00010010
00000000
00000000
00000000
00000000
00010000
00000010
00000000
00000010
00000100
00000000
00000100
00000001
00000000
00000000
00000000
00000000
00000000
,
00000011
00000000
00000000
00000000
00000000
00000000
00001001
00000000
00000000
00000000
00000000
00002000
00000000
00000000
00000000
00003010
00000000
00000000
00000010
00000000
00000000
00010000
00000000
00000000
,
00001000
00000000
00000000
00100000
00000000
00010000
00000000
00000000
00100000
02000000
00000000
00000000
00000000
00000000
00000000
03010000
00000000
00000000
00001000
00000000
00000000
00000010
00000000
00000000
,
00000200
00000000
00000000
00000000
00000020
00000330
00000000
00000000
,
00000100
00000000
00000000
00000010
00000000
00000000
00001000
00000000
00010000
00000000
00000000
02000000
00000000
00000000
00000000
13000000
00000000
00000000
10000000
00000000
00000000
00100000
00000000
00000000
,
01000000
00000000
00000000
00100000
00000000
00000000
00010000
00000000
00001000
00000000
00000000
00000200
00000000
00000000
00000000
00000301
00000000
00000000
00000001
00000000
00000000
00000010
00000000
00000000
,
00000100
00000000
00000000
00001000
00000000
00000010
00000100
00000000
00001000
00000000
00000000
00020000
00000000
00000000
00000000
00031000
00000000
00000000
00001000
00000000
00000000
00000000
00000000
00000000
,
00010000
00000000
01000000
00000000
10000000
00000000
00100000
00000000
01000000
00000000
00000000
00000000
00001000
00000000
00000000
00100000
00000000
00000000
10000000
00000000
00000000
00000000
00000000
00000000
,
00100000
00000000
00000000
01000000
00000000
00000000
00010000
00000000
00001000
00000000
00000000
00000020
00000000
00000000
00000000
00000031
00000000
00000000
00000001
00000000
00000000
00000100
00000000
00000000
,
00000010
00000000
00000000
00001000
00000000
00000100
00000010
00000000
00001000
00000000
00000000
00020000
00000000
00000000
00000000
00031000
00000000
00000000
00001000
00000000
00000000
01000000
00000000
00000000
,
00100000
00000000
00000000
00010000
00000000
00100000
01000000
00000000
00010000
00000000
00000000
20000000
00000000
00000000
00000000
00000000
00000000
00000000
30020000
00000000
00000000
00000000
00000000
00000000
,
00032000
00000000
00000001
00003001
00000000
00001000
00000010
00000100
,
00000110
00000000
00000000
00000000
00000000
00000000
00001001
00000000
00000000
00000000
00000000
00000001
00001000
00000000
00001000
00000100
00000000
00000100
00010000
00000000
00000000
00011000
00000000
00000000
,
00101000
00000000
00000000
00000000
00000000
00000000
00010100
00000000
00000000
00000000
00000000
00000100
00010000
00000000
00010000
00001000
00000000
00001000
00100000
00000000
00000000
00000000
00000000
00000000
,
00110000
00000000
00000000
00000000
00000000
00000000
10010000
00000000
00000000
00000000
00000000
00020000
00000000
00000000
00000000
10030000
00000000
00000000
10000000
00000000
00000000
00100000
00000000
00000000
,
00010000
00000000
00000000
00001000
00000000
00010000
00000000
00000000
00000100
00000020
00000000
00000000
00000000
00000000
00000000
00000000
00000000
00000000
00000030
00000000
00000000
00000000
00000000
00000000
,
00000110
00000000
00000000
00000000
00000000
00000000
00001001
00000000
00000000
00000000
00000000
00000001
00001000
00000000
00001000
00000010
00000000
00000010
00010000
00000000
00000000
00011000
00000000
00000000
,
01001000
00000000
00000000
00000000
00000000
00000000
00010010
00000000
00000000
00000000
00000000
00000010
00010000
00000000
00010000
00001000
00000000
00001000
01000000
00000000
00000000
00000000
00000000
00000000
,
01010000
00000000
00000000
00000000
00000000
00000000
10010000
00000000
00000000
00000000
00000000
00020000
00000000
00000000
00000000
10030000
00000000
00000000
10000000
00000000
00000000
01000000
00000000
00000000
,
00010000
00000000
00000000
00001000
00000000
00010000
00000000
00000000
00000010
00000200
00000000
00000000
00000000
00000000
00000000
00000302
00000000
00000000
00000000
00000000
00000000
00000003
00000000
00000000
,
00001000
00000100
00000010
00001000
00010000
00001000
00100000
01000000
,
10000000
00000000
00000000
00010000
00000000
10000000
00010000
00000000
10000000
00010000
00000000
10000000
00010000
00000000
10000000
00010000
00000000
00000000
00100000
00000000
00000000
00100000
00000000
00000000
,
00010000
00100000
01000000
00010000
00001000
00010000
00000100
00000010
,
00000001
00000000
00000000
00001000
00000000
00000001
00001000
00000000
00000001
00001000
00000000
00000001
00001000
00000000
00000001
00001000
00000000
00000000
00000100
00000000
00000000
00000100
00000000
00000000
,
00001000
00000010
00000001
00000010
00001000
00000100
00010000
00100000
,
00010000
00000000
00000000
00001000
00000000
00010000
00001000
00000000
00010000
00001000
00000000
00010000
00001000
00000000
00010000
00001000
00000000
00000000
00002000
00000000
00000000
00003000
00000000
00000000
,
00010000
00000000
00000000
00000000
00000000
00000000
00010000
00000000
00000000
00100000
00000000
00000000
10000000
00000000
00000000
00000000
00000000
00000000
01000000
00000000
00100000
00001000
00000000
00001000
,
00010000
00000000
00000000
00000000
,
00000000
00000000
00000000
00000000
;
