
//----- song ID: ysim -----//
#TITLE:ヤサイマシ☆ニンニクアブラオオメ;
#ARTIST:azuma feat. ななひら;
#TITLETRANSLIT:Yasaimashi ninniku abura oome;
#ARTISTTRANSLIT:azuma feat. Nanahira;
#BANNER:Yasaimashi ninniku abura oome.png;
#BACKGROUND:Yasaimashi ninniku abura oome-bg.png;
#CDTITLE:./CDTitles/SDVX BOOTH.png;
#MUSIC:Yasaimashi ninniku abura oome.ogg;
#SAMPLESTART:52.334;
#SAMPLELENGTH:15;
#BPMS:0=180;
#STAGE:2;
#NOTES:
     dance-single:
     :
     Beginner:
     2:
     :
0000
0000
0000
0000
,
0000
0000
0000
0000
,
0000
0000
0000
0000
,
0000
0000
0000
0000
,
0001
0000
0000
0000
,
1000
0000
0000
0000
,
0100
0000
0000
0000
,
0010
0000
0000
0000
,
0001
0000
0000
0000
,
1000
0000
0000
0000
,
0002
0000
0000
0003
,
0000
0000
0000
0000
,
0000
0000
0000
0000
,
0000
0000
0000
0000
,
0010
0000
0000
0000
,
0100
0000
0000
0000
,
0001
0000
0000
0000
,
1000
0000
0000
0000
,
0010
0000
0000
0000
,
0010
0000
0000
0000
,
0100
0000
0000
0000
,
0100
0000
0000
0000
,
0001
0000
0000
0000
,
0010
0000
0000
0000
,
1000
0000
0000
0000
,
0100
0000
0000
0000
,
0001
0000
0000
0000
,
0001
0000
0000
0000
,
1000
0000
1000
0000
,
1000
0000
0000
0000
,
0100
0000
0000
0000
,
0000
0000
0000
0000
,
0010
0000
0000
0000
,
0000
0000
0000
0000
,
1000
0000
0000
0000
,
0001
0000
0000
0000
,
1000
0000
0000
0000
,
0100
0000
0100
0000
,
0100
0000
0000
0000
,
0100
0000
0000
0000
,
0001
0000
0000
0000
,
1000
0000
0000
0000
,
0010
0000
0000
0000
,
0100
0000
0000
0000
,
0001
0000
0000
0000
,
0001
0000
0000
0000
,
1000
0000
0000
0000
,
1000
0000
0000
0000
,
0010
0000
0000
0000
,
0100
0000
0000
0000
,
0001
0000
0000
0000
,
1000
0000
0000
0000
,
0001
0000
0000
0000
,
0001
0000
0000
0000
,
1000
0000
0000
0000
,
1000
0000
0000
0000
,
0200
0000
0000
0300
,
0000
0000
0000
0000
,
0010
0000
0000
0000
,
0000
0000
0000
0000
,
0100
0000
0000
0000
,
0000
0000
0000
0000
,
0001
0000
0000
0000
,
0000
0000
0000
0000
,
1000
0000
0001
0000
,
1000
0000
0000
0000
,
0001
0000
1000
0000
,
0001
0000
0000
0000
,
0100
0000
0000
0000
,
0100
0000
0000
0000
,
0010
0000
0000
0000
,
0010
0000
0010
0000
,
0020
0000
0000
0000
,
0000
0000
0000
0030
,
0000
0000
0000
0000
;
#NOTES:
     dance-single:
     :
     Easy:
     6:
     :
0000
0000
0000
0000
,
0000
0000
0000
0000
,
0000
0000
0000
0000
,
0000
0000
0000
0000
,
0100
0000
0010
0000
,
0100
0000
0000
0000
,
0001
0000
0010
0000
,
0100
0000
1000
0000
,
0001
0000
0000
0000
,
1000
0000
0000
0000
,
0200
0000
0000
0300
,
0000
0000
0000
0000
,
0000
0000
0000
0000
,
0000
0000
0000
0000
,
0001
0010
0100
0000
,
1000
0010
0100
0000
,
0001
1000
0001
1000
,
0001
0000
1001
0000
,
0010
0000
0010
0000
,
0010
0100
0010
0000
,
1000
0100
0010
0001
,
2000
0000
0000
0000
0000
0000
0000
3000
,
0000
0001
0000
0001
,
0000
1000
0000
1000
,
0000
0010
0000
0010
,
0000
0100
0000
0100
,
0001
0000
1000
0000
,
0001
0000
0010
0000
,
0001
0100
0010
1000
,
0200
0000
0000
0300
,
0010
0000
0000
0000
,
0000
0000
0000
0000
,
0000
0000
0000
0000
,
0000
0000
0000
0000
,
0100
0000
0000
0000
,
0010
0000
0000
0000
,
1000
0000
0001
0000
,
1000
0100
0010
0001
,
0010
0100
1000
0100
,
0110
0000
0000
0000
,
0001
0000
1000
0000
,
0001
0100
0010
1000
,
0001
0000
1000
0000
,
0001
0010
0100
1000
,
0001
0000
0001
0000
,
1000
0000
1000
0000
,
0110
0000
0000
0000
,
1001
0000
0000
0000
,
1000
0000
0001
0000
,
1000
0100
0001
0100
,
1000
0000
0001
0000
,
0001
0100
1000
0100
,
0001
0000
0001
0000
,
1000
0000
1000
0000
,
0110
0000
0000
0000
,
0110
0000
0000
0000
,
2002
0000
0000
3003
,
0000
0000
0000
0000
,
0001
0000
0000
0000
,
1000
0000
0000
0000
,
0001
1000
0010
0000
,
1000
0001
0100
0000
,
0001
0100
0001
1000
,
0010
0000
1000
0000
,
0000
0010
0000
0100
,
0000
0001
0000
1000
,
0000
0100
0000
0010
,
0000
0001
0000
1000
,
0001
0100
0010
0000
,
1000
0010
0100
0000
,
0001
0000
1000
0001
,
0100
0010
1000
0001
,
2002
0000
0000
0000
,
0000
0000
0000
3003
,
0000
0000
0000
0000
;
#NOTES:
     dance-single:
     :
     Medium:
     12:
     :
0000
0000
0000
0000
,
0000
0000
0000
0000
,
0000
0000
0000
0000
,
0000
0000
0000
0000
,
0001
0000
1000
0100
0000
0010
0000
0200
,
0000
0000
1300
0001
,
0200
0000
0000
0301
0010
0100
0010
0001
,
1000
0000
0010
0000
0100
0000
0001
0100
,
0001
0000
1000
0100
0000
0010
0000
0001
,
0000
1000
0100
0001
0000
0001
0100
2000
,
0000
0000
0000
0000
0000
0000
0000
3000
,
0000
0000
0000
0000
,
0001
0001
1000
1000
,
0010
0100
0010
0000
2000
0000
0000
3000
,
0001
0010
0001
0100
0001
0000
1001
0000
,
1000
0010
1000
0100
1000
0000
1001
0000
,
0001
0100
0001
0000
1000
0100
1000
0000
,
0001
1000
0010
0100
0001
0010
0100
1000
,
0001
0000
1100
0000
1000
0010
0100
0000
,
1000
0010
0100
0010
0001
0010
0100
0000
,
0001
0100
0010
0000
1000
0010
0100
0000
,
0001
0100
1000
0100
0001
0100
1000
0100
,
0001
1100
0001
1100
,
1000
0101
1000
0101
,
0010
1001
0100
1001
,
0010
0001
0100
0100
0010
1000
0100
0100
,
0010
0001
1000
0000
0010
1000
0001
0000
,
0100
0001
1000
0000
0100
1000
0001
0000
,
1000
1000
0001
0010
0010
0001
1000
1000
,
0100
0100
0100
0100
,
0020
0000
0000
0000
,
0000
0000
0000
0030
,
0002
0000
0000
0000
,
0000
0000
0000
0003
,
2000
0000
0000
3000
,
0020
0000
0000
0030
,
0200
0300
0002
0003
,
1000
0100
0001
0100
,
0010
1000
0001
0100
,
1001
0000
0000
0000
,
0001
0000
1000
0010
0000
0100
0000
0010
,
1000
0100
0010
0100
0001
0100
0010
0001
,
1000
0000
0001
0010
0000
0100
0000
0010
,
0001
0100
0010
0100
1000
0100
0010
1000
,
0001
1100
0010
0101
,
1000
0000
0011
0000
0100
0000
1000
0010
,
1010
0000
0100
0001
0000
0101
0000
2000
,
0000
3001
0010
0200
0000
0000
0300
0000
,
1000
0000
0001
0100
0000
0010
0000
0100
,
0001
0010
1000
0010
0100
0001
0100
1000
,
0001
0000
1000
0010
0000
0100
0000
0010
,
1000
0100
0001
0100
0001
1000
0010
0001
,
1000
0101
0010
1100
,
0001
0000
1010
0000
0100
0000
0001
0010
,
0011
0000
0100
1000
0000
1100
0000
0002
,
0000
1003
0010
0100
0000
1000
0100
0002
,
0000
0000
0000
0003
,
0000
0000
0000
0000
,
2000
3000
0000
0000
0002
0003
0000
0000
,
1000
0010
0100
0010
1000
0001
0010
0100
,
1000
1000
0000
0000
0001
0001
0000
0000
,
1000
0100
0010
0100
1000
0100
0010
0001
,
1000
0010
0100
0001
,
1000
0010
0001
0010
1000
0010
0001
0010
,
1000
0101
1000
0101
,
0001
1100
0001
1100
,
0010
1001
0100
1001
,
0001
0010
0100
0010
0100
1000
0100
0010
,
0001
0100
0010
0000
0001
0100
0010
0000
,
1000
0010
0100
0000
1000
0010
0100
0000
,
2000
0000
3001
1000
0102
0000
1003
0000
,
1010
1100
0101
0110
,
2002
0000
0000
0000
,
0000
0000
0000
3003
,
0000
0000
0000
0000
;
#NOTES:
     dance-single:
     :
     Hard:
     15:
     :
0000
0000
0000
0000
,
0000
0000
0000
0000
,
0000
0000
0000
0000
,
0000
0000
0000
0000
,
1000
0000
0001
0100
1000
0000
1000
0100
,
0001
0000
0000
0100
0000
0000
0001
0010
0100
1000
0000
0000
,
0010
1000
0010
0000
1000
0000
0100
0000
0010
0000
0001
0000
0010
0000
0100
0000
,
0010
0001
0010
0000
0001
0000
0010
0000
0100
1000
0100
0000
1000
0000
0010
0000
,
1010
0000
0100
0101
0000
0110
0000
1001
,
0000
0011
0010
0100
0000
1100
0100
0010
,
0001
0010
0100
0010
0100
1000
0010
0100
,
1000
0100
0010
0100
0010
0001
0010
0100
,
1000
0100
1000
0100
0001
0100
0001
0100
,
0010
0100
0010
0100
0000
0000
0000
0000
0002
0000
0000
0000
0000
0000
0003
0000
,
1000
0000
0100
0000
0010
0000
0100
0000
1000
0001
1000
0001
1000
0000
0000
0000
,
0001
0000
0100
0000
0010
0000
0100
0000
0001
1000
0001
1000
0001
0000
0000
0000
,
0001
0010
0001
0100
1000
0010
1000
0100
,
0010
0010
1000
1000
0001
0001
0100
0100
,
0101
0000
0000
0000
1100
0000
0000
0000
0001
0100
0001
0000
1000
0000
0000
0000
,
1000
0000
0001
0000
0100
0000
0010
0000
1000
0100
1000
0000
0010
0000
0100
0000
,
0001
0100
0001
0010
1000
0100
1000
0010
,
0100
0100
1000
1000
0001
0001
1000
0001
,
1000
0000
0100
1000
0100
0000
1000
0000
0010
0000
0000
0000
0110
0000
0000
0000
,
0001
0100
0001
0000
1000
0100
1000
0000
0010
0100
0010
0000
1000
0000
0100
0000
,
2000
3010
0002
0013
2000
3100
0002
0103
,
1100
0000
0000
0001
0010
0100
1000
0001
0010
0100
0000
0000
,
1000
0010
1000
0010
0100
0001
0100
0001
,
0010
0100
0010
0100
1000
0001
1000
0001
,
0100
0010
0100
0000
0001
0000
0010
0100
0010
0000
0001
0000
0100
0010
0100
0000
,
0120
0100
0100
0130
,
2000
0000
0000
0000
,
3020
0000
0000
0000
,
0230
0000
0000
0000
,
0301
0000
1000
0000
0001
0010
0000
0020
,
0000
0000
0030
0001
,
2000
0000
0000
0000
3010
0000
0000
0220
,
0000
0000
0000
0330
,
0011
0101
1100
1010
,
0011
0001
1001
1000
1010
0010
0110
0100
,
0101
0000
0000
0000
,
0001
0000
1000
0100
0000
1000
0010
0100
,
0001
0100
0001
0100
0001
0100
0001
0100
0001
1000
0001
0000
0100
0000
0100
0000
,
0001
0000
1000
0010
0000
1000
0100
0010
,
0001
0010
0001
0010
0001
0010
0001
0010
0100
1000
0100
1000
0100
1000
0100
1000
,
0002
0000
0003
0010
0001
1000
0010
1000
,
0001
0100
0001
0000
1000
0100
1000
0000
0001
0010
0001
0000
1000
0000
0010
0000
,
1010
0000
0100
0101
0000
1100
0000
0021
,
0000
0000
0031
0000
1000
0000
0001
0000
0100
0010
0100
0000
0010
0000
0010
0000
,
1000
0000
0001
0010
0000
0001
0100
0010
,
1000
0010
1000
0010
1000
0010
1000
0010
1000
0001
1000
0000
0100
0000
0100
0000
,
1000
0000
0001
0100
0000
0001
0010
0100
,
1000
0100
1000
0100
1000
0100
1000
0100
0010
0001
0010
0001
0010
0001
0010
0001
,
2000
0000
3000
0100
1000
0001
0100
0001
,
1000
0010
1000
0000
0001
0010
0001
0000
1000
0100
1000
0000
0001
0000
0100
0000
,
0101
0000
0010
1010
0000
0011
0000
1200
,
0000
1300
0001
1100
0000
0001
1000
0022
,
0000
0000
0000
0033
,
0000
0000
0000
0000
,
1000
1000
0000
0000
0001
0001
0000
0000
,
1000
0010
1000
0000
0001
0100
0001
0000
0010
0000
0100
0000
1000
0000
0010
0000
,
1000
0100
0010
0100
0001
0100
1000
0010
,
0100
0000
0001
0000
0010
0000
0100
0000
1000
0100
1000
0000
0001
0000
0100
0000
,
1000
0100
0001
0010
1000
0010
0001
0100
,
0010
1000
0001
1000
0010
1000
0100
1000
,
0001
0000
0000
1000
0001
0000
0010
0000
0100
0010
0100
0010
0100
0000
0000
0000
,
1000
0000
0001
0000
1000
0000
0010
0000
0100
0010
0100
0000
0001
0000
1000
0000
,
0001
0010
1000
0010
0001
0100
1000
0100
,
0001
0010
0001
1000
0001
0100
0001
0010
,
0100
0010
0001
0000
1000
0000
0010
0000
0100
0000
1000
0000
0100
0000
0001
0000
,
0100
0010
1000
0000
0001
0000
0010
0000
0100
0000
0001
0000
0100
0000
1000
0000
,
0010
0100
0010
0000
1000
0000
0100
0010
0100
0000
1000
0000
0010
0100
0010
0000
,
1000
0100
0010
0000
0001
0100
0010
0000
1000
0010
1000
0001
0010
0001
1000
0000
,
0220
0000
0000
0000
,
0000
0000
0000
0330
,
0000
0000
0000
0000
;
#NOTES:
     dance-double:
     :
     Easy:
     5:
     :
00000000
00000000
00000000
00000000
,
00000000
00000000
00000000
00000000
,
00000000
00000000
00000000
00000000
,
00000000
00000000
00000000
00000000
,
00000010
00000000
00001000
00000000
,
00000100
00000000
00000000
00000000
,
00010000
00000000
00001000
00000000
,
00100000
00000000
01000000
00000000
,
10000000
00000000
00000000
00000000
,
00010000
00000000
00000000
00000000
,
02000000
00000000
00000000
00000000
00000000
00000000
00000000
03000000
,
00000000
00000000
00000000
00000000
,
00000000
00000000
00000000
00000000
,
00000000
00000000
00000000
00000000
,
10000000
01000000
10000000
10000000
,
00010000
01000000
00010000
00010000
,
00100000
00100000
00001000
00001000
,
00010000
00000000
00011000
00000000
,
00000100
00000000
00000100
00000000
,
00000100
00001000
00000100
00000000
,
00000010
00000100
00000010
00000100
,
00000002
00000000
00000000
00000000
00000000
00000000
00000000
00000003
,
00000000
00000100
00000000
00000100
,
00000000
00000010
00000000
00000010
,
00000000
00010000
00000000
00010000
,
00000000
00001000
00000000
00001000
,
00100000
00000000
01000000
00000000
,
10000000
00000000
00010000
00000000
,
01000000
00100000
10000000
00010000
,
02000000
00000000
00000000
00000000
00000000
00000000
00000000
03000000
,
00010000
00000000
00000000
00000000
,
00000000
00000000
00000000
00000000
,
00000000
00000000
00000000
00000000
,
00000000
00000000
00000000
00000000
,
00100000
00000000
00000000
00000000
,
01000000
00000000
00000000
00000000
,
00010000
00000000
10000000
00000000
,
01000000
00100000
01000000
00100000
,
00001000
00010000
00001000
00010000
,
00011000
00000000
00000000
00000000
,
00010000
00000000
00000100
00000000
,
00001000
00000001
00000100
00000010
,
00001000
00000000
00000001
00000000
,
00000010
00000100
00001000
00000001
,
00001000
00000000
00001000
00000000
,
00000100
00000000
00000100
00000000
,
00001100
00000000
00000000
00000000
,
00011000
00000000
00000000
00000000
,
00100000
00000000
01000000
00000000
,
10000000
01000000
00100000
00010000
,
01000000
00000000
00100000
00000000
,
10000000
00100000
01000000
00010000
,
00100000
00000000
00001000
00000000
,
00010000
00000000
00000100
00000000
,
00001100
00000000
00000000
00000000
,
00000011
00000000
00000000
00000000
,
00002002
00000000
00000000
00003003
,
00000000
00000000
00000000
00000000
,
00001000
00000000
00000000
00000000
,
00000001
00000000
00000000
00000000
,
00001000
00000010
00001000
00000000
,
00000001
00000100
00000001
00000000
,
00001000
00000010
00010000
00001000
,
00010000
00000000
00001000
00000000
,
00000000
00100000
00000000
00010000
,
00000000
01000000
00000000
00100000
,
00000000
10000000
00000000
01000000
,
00000000
00100000
00000000
00010000
,
10000000
00100000
01000000
00000000
,
00010000
00100000
00001000
00000000
,
00010000
00000000
00000100
00000100
,
00001000
00000010
00000100
00000001
,
00002002
00000000
00000000
00000000
,
00000000
00000000
00000000
00003003
,
00000000
00000000
00000000
00000000
;
#NOTES:
     dance-double:
     :
     Medium:
     12:
     :
00000000
00000000
00000000
00000000
,
00000000
00000000
00000000
00000000
,
00000000
00000000
00000000
00000000
,
00000000
00000000
00000000
00000000
,
00010000
00000000
01000000
00010000
00000000
00100000
00000000
00002000
,
00000000
00000000
00000000
00003000
00010000
00000000
00001000
00000000
,
00000200
00000000
00000000
00000310
00001000
00000001
00000010
00000100
,
00001000
00000000
00000010
00000000
00000100
00000000
00000001
00001000
,
00000001
00000000
00000010
00000100
00000000
00010000
00000000
00001000
,
00000000
00100000
00010000
02000000
00000000
03010000
00100000
20000000
,
00000000
00000000
00000000
00000000
00000000
00000000
00000000
30000000
,
00000000
00000000
00000000
00000000
,
00010000
00100000
10000000
01000000
,
10000000
00010000
10000000
00000000
00200000
00000000
00000000
00000000
,
01300000
00010000
01000000
00010000
01000000
00000000
00110000
00000000
,
00001000
00010000
00001000
00010000
00001000
00000000
00001100
00000000
,
00001000
00000010
00001000
00000000
00000001
00000010
00000001
00000000
,
00001000
00000001
00000010
00000100
00001000
00000010
00000100
00000001
,
00001000
00000000
00000101
00000000
00000001
00000010
00000100
00000000
,
00010000
00001000
00100000
00010000
10000000
01000000
00010000
01000000
,
10000000
00000000
00110000
00000000
00010000
10000000
00100000
00000000
,
01000000
00010000
00100000
00001000
00010000
00000010
00001000
00000100
,
00000001
00001100
00000001
00001100
,
00010000
00001100
00010000
00001100
,
00010000
00011000
00100000
00110000
,
00100000
00010000
01000000
01000000
00100000
10000000
01000000
01000000
,
10000000
01000000
00010000
00000000
01000000
00010000
00001000
00000000
,
00010000
00001000
00000010
00000000
00001000
00000010
00000001
00000000
,
00001000
00001000
00000001
00000100
00000100
00000001
00000010
00000010
,
00000100
00000100
00000100
00000100
,
00002000
00000000
00000000
00000000
,
00000000
00000000
00000000
00003000
,
00020000
00000000
00000000
00000000
,
00000000
00000000
00000000
00030000
,
02000000
00000000
00000000
03000000
,
20000000
00000000
00000000
30000000
,
02000000
03000000
00200000
00300000
,
00010000
00001000
00000100
00000010
,
00000001
00000010
00001000
00010000
,
01100000
00000000
00000000
00000000
,
10000000
00000000
00010000
01000000
00000000
01000000
00000000
01000000
,
00100000
10000000
00100000
00010000
00100000
10000000
00100000
00010000
,
00001000
00000000
00010000
00001000
00000000
00001000
00000000
00001000
,
00000100
00000001
00000100
00001000
00000100
00000001
00000100
00001000
,
00010000
00110000
00100000
10100000
,
10000000
00000000
01010000
00000000
01000000
00000000
00010000
01000000
,
01010000
00000000
00100000
00010000
00000000
00110000
00000000
02000000
,
00000000
03010000
00100000
00002000
00000000
00000000
00003000
00000000
,
00000100
00000000
00000010
00001000
00000000
00000001
00000000
00000010
,
00000001
00000100
00001000
00000100
00000001
00000010
00001000
00000010
,
00000001
00000000
00000010
00001000
00000000
00010000
00000000
01000000
,
10000000
01000000
00010000
01000000
10000000
00100000
00010000
00100000
,
10000000
00110000
01000000
10100000
,
00010000
00000000
00110000
00000000
00001000
00000000
00010000
00000100
,
00001100
00000000
00000010
00000100
00000000
00000101
00000000
00002000
,
00000000
00003001
00000010
00000100
00000000
00001000
00000010
00000002
,
00000000
00000000
00000000
00000003
,
00000000
00000000
00000000
00000000
,
00000020
00000030
00000000
00000000
00000200
00000300
00000000
00000000
,
00000100
00001000
00010000
00100000
01000000
10000000
01000000
00100000
,
00010000
00001000
00010000
00000000
00000100
00001000
00000100
00000000
,
00000010
00000001
00001000
00000100
00010000
00001000
00100000
00010000
,
10000000
00100000
01000000
00010000
,
10000000
01000000
00100000
01000000
00010000
01000000
10000000
01000000
,
00100000
00110000
00001000
00011000
,
00001000
00001100
00000010
00000110
,
00000001
00001100
00000001
00001100
,
00000001
00000010
00000100
00000010
00001000
00000010
00000001
00000010
,
00000100
00001000
00000100
00000000
00000001
00000100
00000001
00000000
,
00000100
00001000
00010000
00000000
00001000
00010000
00100000
00000000
,
20000000
30010000
02100000
03100000
,
00110000
00011000
00001100
00000110
,
00002002
00000000
00000000
00000000
,
00000000
00000000
00000000
00003003
,
00000000
00000000
00000000
00000000
;
#NOTES:
     dance-double:
     :
     Hard:
     14:
     :
00000000
00000000
00000000
00000000
,
00000000
00000000
00000000
00000000
,
00000000
00000000
00000000
00000000
,
00000000
00000000
00000000
00000000
,
00000001
00001100
00000100
00011000
,
00100000
00000000
00000000
01000000
00000000
00000000
10000000
00100000
01000000
00010000
00000000
00000000
,
00010000
01000000
10000000
01000000
00010000
00001000
00000010
00000100
,
00000001
00000010
00001000
00000010
00000001
00001000
00010000
01000000
,
01010000
00000000
10000000
10100000
00000000
01100000
00000000
01010000
,
00000000
00100000
00001000
00000010
00000000
00000001
00000100
00001000
,
00010000
00000010
00001000
00000001
,
00000100
00001000
00100000
01000000
,
10000000
01000000
10000000
01000000
00010000
00001000
00010000
00001000
,
00000100
00000010
00000100
00000010
00000000
00000000
00000000
00000000
00000110
00000000
00000000
00000000
00001001
00000000
00000000
00000000
,
00001000
00000000
00000010
00000000
00010000
00000000
00000000
00000000
00001000
00010000
00001000
00010000
00001000
00000000
00000000
00000000
,
00010000
00000000
00100000
00000000
10000000
00000000
00000000
00000000
00010000
10000000
00010000
10000000
00010000
00000000
00000000
00000000
,
10000000
01000000
00100000
00010000
00001000
00000100
00000010
00000100
,
00001000
00001000
00000010
00000010
00000100
00000100
00000001
00000001
,
00000110
00000000
00011000
00000000
00100000
01000000
00100000
00000000
,
10000000
00000000
00100000
00000000
01000000
00000000
00010000
00000000
01000000
00010000
01000000
00000000
00001000
00000000
00010000
00000000
,
00001000
00000100
00000001
00000000
00000001
00000010
00001000
00000000
,
00100000
00100000
00010000
00010000
10000000
10000000
01000000
01000000
,
00100000
00010000
10000000
01000000
00010000
00000000
00011000
00000000
,
00001000
00000010
00001000
00000000
00010000
00100000
00010000
00000000
,
00001000
00100000
01000000
00100000
00010000
00000100
00000010
00000100
,
00000110
00000000
00000000
00001000
00000100
00000010
00000001
00001000
00000100
00000010
00000000
00000000
,
00000001
00001000
00000001
00001000
00000010
00010000
00000010
00010000
,
00001000
00100000
00001000
00100000
00010000
10000000
00010000
10000000
,
01000000
00100000
01000000
00000000
00010000
00000000
00001000
00010000
00001000
00000000
00000100
00000000
00000010
00000100
00000010
00000000
,
00000100
00000100
00000100
00000100
,
00000002
00000000
00000000
00000003
,
00002000
00000000
00000000
00003000
,
00020000
00000000
00000000
00030000
,
20000000
00000000
00000000
30000000
,
02000000
03000000
00020000
00030000
,
00000200
00000300
00000020
00000030
,
00000002
00000003
00000200
00000300
00002000
00003000
00200000
00300000
,
11000000
01010000
00011000
00001100
,
00000101
00001010
00011000
00110000
,
10100000
00000000
00000000
00000000
,
10000000
00000000
00100000
10000000
00000000
01000000
00000000
00010000
,
00001000
00010000
00001000
00000000
00000100
00000000
00000010
00000000
00001000
00000001
00001000
00000000
00000100
00000000
00000010
00000000
,
00000001
00000000
00000010
00000001
00000000
00000100
00000000
00001000
,
00010000
00001000
00010000
00000000
01000000
00000000
00100000
00000000
00010000
10000000
00010000
00000000
01000000
00000000
00100000
00000000
,
20000000
00000000
30000000
00100000
01000000
00010000
00100000
01000000
,
10000000
00100000
00010000
00001000
00000100
00000010
00000001
00000010
,
00001010
00000000
00010000
00011000
00000000
00110000
00000000
10100000
,
00000000
00000000
01000000
00000000
00100000
00000000
01000000
00000000
00010000
00100000
00010000
00000000
01000000
00000000
01000000
00000000
,
00010000
00000000
10000000
00100000
00000000
00010000
00000000
00000100
,
00010000
00001000
00010000
00000000
00000010
00000000
00000100
00000000
00001000
00010000
00001000
00000000
00000100
00000000
00000010
00000000
,
00001000
00000000
00000001
00000010
00000000
00001000
00000000
01000000
,
00001000
00010000
00001000
00000000
00100000
00000000
01000000
00000000
00010000
00001000
00010000
00000000
01000000
00000000
00100000
00000000
,
00020000
00000000
00030000
10000000
00100000
10000000
00010000
00100000
,
01000000
10000000
01000000
00100000
00010000
00001000
00000100
00000010
,
00000011
00000000
00001000
00001100
00000000
00011000
00000000
00110000
,
00000000
00010000
00100000
10000000
00000000
10000000
00100000
00020000
,
00000000
00000000
00000000
00030000
,
00000000
00000000
00000000
00000000
,
00100000
00100000
00000000
00000000
00010000
00010000
00000000
00000000
,
01000000
00010000
01000000
00000000
00001000
00010000
00001000
00000000
00010000
00000000
00000100
00000000
00000010
00000000
00000000
00000000
,
00000100
00000100
00000100
00000000
00001000
00001000
00001000
00000000
,
00000010
00000100
00001000
00010000
00001000
00000100
00000010
00000100
,
00001000
00000100
00000001
00000000
00000001
00000010
00001000
00000000
,
00100000
01000000
00100000
01000000
10000000
00010000
10000000
00010000
,
01000000
00000000
00011000
00010000
00001000
00010000
00000100
00000000
,
00000010
00000100
00001000
00010000
00100000
01000000
10000000
01000000
,
00010000
01000000
10000000
00000000
10000000
00100000
00010000
00000000
,
00000010
00000100
00000010
00000100
00000001
00001000
00000001
00001000
,
00000100
00001000
00000010
00000001
00000010
00001000
00010000
01000000
,
10000000
01000000
00010000
00100000
10000000
00100000
00010000
00001000
,
00000100
00000010
00000100
00000000
00000001
00000000
00000100
00001000
00000100
00000000
00010000
00000000
01000000
00100000
01000000
00000000
,
10000000
10000000
10000000
00100000
00100000
00100000
01000000
01000000
,
20020000
00000000
00000000
00000000
,
00000000
00000000
00000000
30030000
,
00000000
00000000
00000000
00000000
;
