
//----- song ID: wuvu -----//
#TITLE:Wuv U;
#ARTIST:kors k;
#BANNER:Wuv U.png;
#BACKGROUND:Wuv U-bg.png;
#CDTITLE:./CDTitles/RB.png;
#MUSIC:Wuv U.ogg;
#SAMPLESTART:13.006;
#SAMPLELENGTH:15;
#DISPLAYBPM:173;
#BPMS:0=173,38=175.5,40=173,133=346,135=171.5,139=173,185=88,186=173,188=86.5,189=173;
#STOPS:120.5=0.173,121.5=0.173,122.5=0.173,123.5=0.173;
#STAGE:5;
#NOTES:
     dance-single:
     :
     Beginner:
     3:
     :
0000
0000
0000
0000
,
0000
0000
0000
0000
,
0000
0000
0000
0000
,
0000
0000
0000
0000
,
0000
0000
0000
0000
,
0000
0000
0000
0000
,
0010
0000
0100
0000
,
0010
0000
0000
0000
,
1000
0000
0001
0000
,
1001
0000
0000
0000
,
1000
0000
0000
0000
,
0001
0000
0000
0000
,
0100
0000
0010
0000
,
1000
0000
0010
0000
,
0100
0000
0000
0000
,
0010
0000
0000
0000
,
1000
0000
0001
0000
,
0100
0000
0001
0000
,
0100
0000
0100
0000
,
0010
0000
0010
0000
,
1000
0000
0001
0000
,
0010
0000
0010
0000
,
0001
0000
0001
0000
,
1000
0000
1000
0000
,
0010
0000
0100
0000
,
0001
0000
0001
0000
,
1000
0000
1000
0000
,
0001
0000
0001
0000
,
0010
0000
0100
0000
,
0010
0000
0010
0000
,
0020
0000
0000
0000
,
0030
0000
0001
0000
,
0010
0000
0100
0000
,
0010
0000
0000
0000
,
0000
0000
0000
0000
,
0000
0000
0000
1000
,
0000
0000
0000
0010
,
0000
0000
0000
0100
,
0000
0001
0000
1000
,
0000
0001
0000
0010
,
0000
0100
0000
1000
,
0000
0000
0000
0010
,
0000
0100
0000
0010
,
0000
0000
0000
1000
,
0000
0001
0000
1000
,
0000
0000
0000
0001
,
0000
0010
0010
0000
,
0100
0100
0000
1000
,
0000
1001
0000
0000
,
0000
0001
0000
0100
,
0000
0001
0000
1000
,
0000
0010
0000
0100
,
0000
0010
0000
1000
,
0000
0001
0000
0100
,
0000
0001
0000
1000
,
0000
0010
0000
0100
,
0000
0010
0000
0000
,
0000
1000
0000
1000
,
0000
0001
0000
0001
,
0000
0100
0000
0010
,
0000
0100
0000
0000
,
0000
0001
0000
0001
,
0000
0100
0000
0100
,
0000
0110
0000
0001
,
0000
1000
0000
0001
,
0000
1001
0000
0000
,
0000
0000
0000
0000
;
#NOTES:
     dance-single:
     :
     Easy:
     7:
     :
0000
0000
0000
0000
,
0000
0000
0000
0000
,
0000
0000
0000
0000
,
0000
0000
0000
0000
,
0000
0000
0000
0000
,
0000
0000
0000
0000
,
1000
0010
1000
0010
,
0100
0001
0010
0100
,
1000
0001
1000
0000
,
0110
0000
0001
0010
,
0001
0100
0020
0030
,
1000
0100
0020
0030
,
0100
0100
1000
0001
,
0100
0010
0200
0300
,
0001
1000
0200
0300
,
1000
0001
0020
0030
,
0001
0100
0010
1000
,
0001
1000
1001
0000
,
0001
0001
0100
0100
,
0010
1000
0010
1000
,
0001
0010
0100
1000
,
0010
0100
0010
1000
,
0100
0100
0010
0010
,
0001
0100
0001
0100
,
0010
1000
0100
0010
,
0001
0001
0100
0010
,
1000
0001
0100
0100
,
0010
1000
0010
1000
,
0001
0010
0100
1000
,
0010
0100
0110
0000
,
0001
1000
0010
0100
,
0110
1000
0001
0001
,
0100
0100
0010
1000
,
0010
0200
0000
0301
,
0001
1000
0010
1000
,
1000
0001
0010
0100
,
0100
1000
0001
0100
,
0100
0010
1000
0001
,
0100
0000
0010
0100
0010
0000
1000
0000
,
0100
0000
0010
0100
0010
0000
0001
0000
,
0010
0000
0100
1000
0100
0000
1001
0000
,
0000
1000
0100
0010
,
0100
2000
3000
0001
,
0100
0020
0030
1000
,
0001
0100
0001
0010
,
0100
0020
0030
0001
,
0100
0000
0010
0010
1000
0000
0001
0000
,
0010
0010
0001
0000
1000
0000
0010
0000
,
0100
0110
0000
0010
,
1000
0001
0100
0020
,
0030
1000
0100
0020
,
0030
0001
1000
0010
,
1000
0100
0010
0002
,
0003
0100
0010
2000
,
3000
0001
1000
0200
,
0300
0010
0001
0100
,
0010
0110
0000
1000
,
0001
0100
0010
0200
,
0300
0001
0010
0002
,
0003
1000
1000
0010
,
0010
0100
0001
0200
,
0300
0010
1000
0002
,
0003
0100
0010
2000
,
3000
0000
1001
0000
0000
1001
0000
0000
,
0110
0000
0000
0010
0100
0010
0100
0000
,
0001
1001
0000
0000
,
0000
0000
0000
0000
;
#NOTES:
     dance-single:
     :
     Medium:
     10:
     :
0000
0000
0000
0000
,
0000
0000
0000
0000
,
0000
0000
0000
0000
,
0000
0000
0000
0000
,
0000
0000
0000
0000
,
0000
0000
0000
0000
,
0001
0100
0001
1000
,
0010
0100
0010
0000
1000
0100
1000
0100
,
0010
0000
0001
0000
1000
0010
0000
0010
,
0100
0000
0000
0001
0010
0001
0100
0010
,
1000
0000
0100
1000
0200
0000
0300
0010
,
0000
0010
0001
0000
0200
0000
0300
0000
,
0010
1000
0010
0100
0001
0000
0010
0100
,
0000
0100
0010
0000
0002
0000
0003
0000
,
1000
0000
0010
0100
0020
0000
0030
1000
,
0000
1000
0001
0000
0020
0000
0030
0000
,
0001
0000
0100
0000
0001
1000
0010
0000
,
0100
0010
0100
0000
0110
0000
0000
0000
,
1000
1000
0010
0010
,
0100
0010
0100
0010
1000
0100
0010
0000
,
0001
0000
1000
0000
0001
0010
0100
0000
,
1000
1000
0001
0100
,
0010
0110
0001
0001
,
1000
0100
1000
0100
0010
0001
0100
0000
,
0001
0000
1000
0000
0010
1000
0100
0000
,
1001
0110
0001
1000
,
0010
0110
1000
0100
,
0010
0001
0010
0001
0100
0010
1000
0000
,
0100
0000
1000
0000
0010
0100
0010
0000
,
0100
0001
1000
1001
,
0100
0100
0010
0010
0100
0100
0010
0010
,
1001
0000
0100
0100
0100
0000
0010
0000
,
0110
0000
0110
0000
1000
0100
1000
0100
,
0010
0001
2000
0000
0000
0000
3010
0000
,
1000
0000
0010
0100
0010
0000
0100
0000
,
0001
0000
0010
0100
0010
0000
0100
0000
,
1000
0000
0001
0100
0001
0000
0100
0000
,
0010
0000
1000
0010
1000
0000
0001
0000
,
0010
0100
1000
0100
0010
0000
0001
0000
,
1000
0100
0010
0100
1000
0000
0001
0000
,
0010
0100
0010
0100
0010
0000
1001
0000
,
0000
0001
0001
0010
0100
1000
0100
0000
,
1000
0010
0200
0000
0300
0001
0000
0001
,
1000
0000
0020
0000
0030
0000
0100
0010
,
0100
0001
0010
0000
0001
0100
0000
0100
,
0010
2000
3000
0100
,
0010
0001
1000
1000
0010
0000
1000
0001
,
0100
0100
0001
0000
1001
0000
0100
0000
,
0110
0000
1001
0000
0000
1000
1000
0010
,
0100
0001
0100
0000
0001
0010
0200
0000
,
0300
1000
0000
1000
0001
0000
0020
0000
,
0030
0000
0100
0010
0100
1000
0010
0000
,
1000
0100
0000
0100
0010
0000
0002
0000
,
0003
0000
0100
0000
0010
1000
0020
0000
,
0030
0100
0000
0100
0001
0000
0020
0000
,
0030
0000
0001
0100
0001
0000
1000
0100
,
1000
0000
1001
0000
0000
0001
0100
0001
,
0100
0000
0010
1000
0010
0000
0200
0000
,
0300
0001
0000
0001
1000
0000
0020
0000
,
0030
0000
1000
0010
1000
0001
0100
0010
,
0100
0001
1000
0010
0100
0010
0200
0000
,
0300
0000
0001
0010
0100
0000
0020
0000
,
0030
0001
0000
0001
1000
0000
0020
0000
,
0030
0000
0100
0001
1000
0100
0010
0001
,
1000
0010
0000
0100
0001
0100
0001
0000
,
1000
1001
0000
0000
,
0000
0000
0000
0000
;
#NOTES:
     dance-single:
     :
     Hard:
     14:
     :
0000
0000
0000
0000
,
0000
0000
0000
0000
,
0000
0000
0000
0000
,
0000
0000
0000
0000
,
0000
0000
0000
0000
,
0000
0000
0000
0000
,
1000
0000
0100
0000
1000
0010
1000
0000
,
0001
1000
0010
0100
0010
0100
0010
0100
,
0001
0000
1000
0000
0001
0010
0000
0100
,
0010
0000
0000
0000
0000
0000
0001
0100
0001
0000
0100
0000
0010
0000
1000
0000
,
0100
0000
0010
0100
2000
0000
3001
0100
,
0000
0000
0001
0010
0001
0000
0100
0000
0020
0000
0000
0000
0130
0000
0000
0000
,
0001
1000
0001
0000
0010
0000
0100
0000
1000
0000
0000
0000
0001
0000
1000
0000
,
0000
0000
0100
0010
0100
0000
0010
0000
0002
0000
0000
0000
1003
0000
0000
0000
,
1100
0000
0001
0100
0020
0000
1030
0001
,
0000
0000
0010
0001
0010
0000
0100
0000
2000
0000
0000
0000
3001
0000
0000
0000
,
1000
0010
0100
0000
0001
0000
0010
0000
0001
0010
0100
0000
1000
0000
0010
0000
,
0000
1000
0001
0100
0010
0000
0110
0000
,
1001
0000
0101
0000
0010
1000
0010
1000
,
0001
0100
0001
0000
1000
0100
1000
0000
0001
1000
0010
0000
0100
0000
0001
0000
,
1000
0010
0100
0000
0010
1000
0100
0000
,
1100
0000
0011
0000
0100
1000
0010
0000
,
1010
0000
0101
0000
1000
0010
0100
0001
,
1000
0010
1000
0000
0001
0100
0001
0000
1000
0001
0010
0000
0100
0000
0000
0000
,
0010
0100
1000
0000
0100
0100
0010
0000
,
0010
0001
0100
1000
0001
0010
1000
0000
,
1010
0000
0101
0000
0001
0010
0001
0010
,
0100
1000
0010
0000
0100
0001
0010
0000
0001
1000
0010
0000
0100
0000
0001
0010
,
0100
0010
0001
0000
0010
0010
0100
0000
,
0110
0000
0101
0000
1000
0010
0001
0000
,
0010
0110
1000
1010
0001
0011
0100
0110
,
1001
0000
1100
1000
0001
0100
0010
1000
,
0010
0000
1000
0000
0100
0000
0010
0000
0001
0000
0100
0001
0000
0001
0100
0000
,
0010
1000
0002
0000
0000
0000
0103
0000
,
0010
0000
0000
1000
0000
1000
0000
0010
1000
0000
0010
0000
0001
0000
0000
0000
,
0010
0000
0000
0100
0000
0100
0000
0001
0010
0000
0100
0000
1000
0000
0000
0000
,
0001
0000
0000
0010
0000
0010
0000
1000
0010
0000
0001
0000
1000
0000
0000
0000
,
1000
0000
0000
0010
0000
0010
0000
0001
0010
0000
0100
0000
0001
0000
0000
0000
,
0010
1000
0000
1000
0010
0001
0010
0000
,
0010
0001
0000
0001
0100
1000
0100
0000
,
0010
0100
0000
0001
0100
0001
0101
0000
,
1010
0000
0100
0010
0100
0000
0001
0000
1000
0000
0100
0000
0010
0000
0000
0000
,
0100
0000
1000
0000
0020
0000
0000
0000
0130
0000
0010
0000
0000
0000
1000
0001
,
0010
0000
0100
0000
2000
0000
0000
0000
3010
0000
0000
0000
0100
0001
0100
0000
,
0010
0000
1000
0000
0001
0000
0000
0000
1000
0000
0001
0000
0000
0000
1000
0100
,
1000
0100
0010
0000
0011
0000
1100
0000
,
0001
0100
0110
1001
0011
0000
0100
1000
,
1010
0101
1000
0100
0110
0000
0001
0100
,
0110
0000
1000
0000
0001
0000
0000
0000
0000
0000
1000
0010
1000
0000
0001
0000
,
0010
0100
1100
0000
0001
0100
0020
0000
,
0130
0000
0001
0000
0000
0000
1000
0001
0100
0000
0001
0000
0020
0000
0000
0000
,
0130
0000
1000
0100
0010
0001
1000
0000
,
0010
0000
0100
0000
0000
0000
0001
1000
0001
0000
0100
0000
0010
0000
0000
0000
,
1010
0000
1001
0000
0010
1000
0200
0000
,
1300
0000
0001
0000
0000
0000
0100
0010
1000
0000
0001
0000
0020
0000
0000
0000
,
0130
0000
1000
0001
0010
0100
1000
0010
,
0100
0000
0002
0000
0000
0000
0003
0000
0000
0000
1000
0010
1000
0000
0001
0000
,
0010
0100
1000
0001
0100
0001
2000
0000
,
3010
0000
0100
0000
0000
0000
0001
0010
0001
0000
0010
0000
0200
0000
0000
0000
,
1300
0000
0000
0000
0001
0000
0010
0100
0010
0000
0100
0000
1000
0000
0100
0000
,
0010
0000
0001
0000
1000
0000
0010
0100
0010
0000
0100
0000
0001
0000
0000
0000
,
1001
0000
0010
1000
0100
0010
0002
0000
,
1003
0000
0010
0000
0000
0000
1000
0001
0010
0000
0100
0000
2000
0000
0000
0000
,
3010
0000
0101
1000
0010
1001
0100
0010
,
0110
0001
0000
1000
0100
0010
0110
0000
,
1001
0110
0000
0000
,
0000
0000
0000
0000
;
#NOTES:
     dance-double:
     :
     Easy:
     7:
     :
00000000
00000000
00000000
00000000
,
00000000
00000000
00000000
00000000
,
00000000
00000000
00000000
00000000
,
00000000
00000000
00000000
00000000
,
00000000
00000000
00000000
00000000
,
00000000
00000000
00000000
00000000
,
00010000
00001000
00010000
00000100
,
00001000
00000001
00000100
00000010
,
00001000
00000100
00010000
00000000
,
00011000
00000000
00001000
00100000
,
00010000
00100000
02000000
03000000
,
10000000
00100000
02000000
03000000
,
00010000
00010000
00100000
00001000
,
00010000
00000100
00002000
00003000
,
00000001
00000100
00000020
00000030
,
00001000
00000100
00000020
00000030
,
00000001
00000100
00001000
00010000
,
00100000
10000000
10010000
00000000
,
10000000
10000000
00100000
00100000
,
01000000
00010000
01000000
00001000
,
00010000
00000100
00001000
00000100
,
00000010
00000001
00000010
00000001
,
00001000
00001000
00000100
00000100
,
00010000
00001000
00010000
00001000
,
01000000
00010000
10000000
00100000
,
01000000
01000000
00010000
00100000
,
00001000
00010000
00000010
00000010
,
00001000
00000001
00001000
00000001
,
00000010
00001000
00010000
01000000
,
10000000
00010000
10010000
00000000
,
10000000
00100000
00010000
00001000
,
00011000
00001000
00000100
00000100
,
00000001
00000001
00000010
00000001
,
00001000
00000200
00000000
00010300
,
00010000
00001000
01000000
00010000
,
00010000
10000000
01000000
00100000
,
00100000
00010000
01000000
00001000
,
00001000
00010000
00000010
00001000
,
00000001
00000100
00000001
00001000
,
00000010
00010000
00001000
00010000
,
00001000
01000000
00010000
10010000
,
00000000
10000000
01000000
00010000
,
00001000
00020000
00030000
00001000
,
00000100
00000002
00000003
00001000
,
00000010
00010000
00001000
00100000
,
00010000
20000000
30000000
00010000
,
01000000
00000000
00001000
00001000
00010000
00000000
00000100
00000000
,
00001000
00001000
00000001
00000000
00000100
00000000
00000001
00000000
,
00001000
00001001
00000000
00000001
,
00000100
00000010
00001000
00000200
,
00000300
00010000
00001000
00020000
,
00030000
00001000
00010000
00100000
,
10000000
00010000
01000000
00002000
,
00003000
00100000
00010000
02000000
,
03000000
00001000
00010000
00002000
,
00003000
00010000
00001000
00000100
,
00000001
00001001
00000000
00001000
,
00000001
00000100
00000010
00000200
,
00000300
00000010
00001000
00000020
,
00000030
00010000
00010000
00001000
,
00001000
01000000
00010000
02000000
,
03000000
00100000
10000000
00020000
,
00030000
01000000
00001000
00020000
,
00030000
00000000
00011000
00000000
00000000
00001100
00000000
00000000
,
00001001
00000000
00000000
00000100
00001000
00000100
00010000
00000000
,
00001000
00011000
00000000
00000000
,
00000000
00000000
00000000
00000000
;
#NOTES:
     dance-double:
     :
     Medium:
     10:
     :
00000000
00000000
00000000
00000000
,
00000000
00000000
00000000
00000000
,
00000000
00000000
00000000
00000000
,
00000000
00000000
00000000
00000000
,
00000000
00000000
00000000
00000000
,
00000000
00000000
00000000
00000000
,
00000001
00000100
00000001
00001000
,
00000100
00010000
00000100
00000000
00010000
00001000
00010000
00000000
,
00001000
00000000
00100000
00000000
00010000
01000000
00000000
01000000
,
00100000
00000000
00000000
10000000
01000000
10000000
00010000
00100000
,
00001000
00000000
00010000
00001000
00020000
00000000
00030000
00000100
,
00000000
00000100
00001000
00000000
00000002
00000000
00000003
00000000
,
00000010
00000000
00000001
00000000
00000100
00000000
00000010
00001000
,
00000000
00001000
00000100
00000000
00020000
00000000
00030000
00000000
,
00001000
00000000
00100000
00001000
00200000
00000000
00300000
00010000
,
00000000
01000000
00100000
00000000
20000000
00000000
30000000
00000000
,
00010000
00000000
00100000
00000000
00001000
00010000
00001000
00000000
,
00010000
00000100
00010000
00000000
00001100
00000000
00000000
00000000
,
00000001
00000001
00000010
00000010
,
00000100
00001000
00000100
00001000
00000100
00010000
00001000
00000000
,
01000000
00000000
00010000
00000000
10000000
00100000
01000000
00000000
,
00010000
10000000
00010000
00100000
,
00001000
00011000
00010000
00010000
,
00000010
00001000
00000010
00001000
00000100
00000010
00000001
00000000
,
00001000
00000000
00000010
00000000
00001000
00000100
00010000
00000000
,
00011000
01010000
10000000
01000000
,
00010000
00001000
00010000
00000010
,
00001000
00000100
00001000
00000100
00000010
00000001
00000100
00000000
,
00000001
00000000
00001000
00000000
00000100
00010000
00000100
00000000
,
00010000
00001000
00100000
00010000
,
10000000
10000000
00100000
00100000
00010000
00010000
00001000
00001000
,
00010000
00000000
00000001
00000001
00000001
00000000
00001000
00000000
,
00001100
00000000
00011000
00000000
00010000
00001000
01000000
00010000
,
01000000
00100000
20000000
00000000
00000000
00000000
30100000
00000000
,
10000000
00000000
00010000
00100000
00010000
00000000
00100000
00000000
,
00001000
00000000
00010000
00000010
00010000
00000000
00000010
00000000
,
00001000
00000000
00000001
00000010
00000001
00000000
00001000
00000000
,
00000100
00000000
00001000
00000100
00001000
00000000
00000001
00000000
,
00000100
00001000
00010000
00100000
01000000
00000000
00010000
00000000
,
10000000
01000000
00010000
00001000
00000010
00000000
00000001
00000000
,
00001000
00000010
00001000
00000100
00010000
00000000
00011000
00000000
,
00000000
00001000
00001000
00010000
01000000
10000000
01000000
00000000
,
00100000
00010000
02000000
00000000
03000000
00001000
00000000
00001000
,
00010000
00000000
00000020
00000000
00000030
00000000
00001000
00000001
,
00001000
00000100
00000010
00000000
00000001
00001000
00000000
00001000
,
00000100
00020000
00030000
00001000
,
00100000
00010000
01000000
01000000
00100000
00000000
10000000
00010000
,
00100000
00100000
00001000
00000000
00011000
00000000
00010000
00000000
,
00010100
00000000
00001100
00000000
00000000
00000001
00000001
00000100
,
00000010
00001000
00000100
00000000
00010000
00001000
00020000
00000000
,
00030000
00001000
00000000
00001000
00100000
00000000
00020000
00000000
,
00030000
00000000
10000000
01000000
10000000
00010000
00100000
00000000
,
00001000
00010000
00000000
00010000
00000100
00000000
00002000
00000000
,
00003000
00000000
00000001
00000000
00000010
00000100
00000020
00000000
,
00000030
00000001
00000000
00000001
00001000
00000000
00000200
00000000
,
00000300
00000000
00010000
00001000
00010000
00000000
00001000
00100000
,
00001000
00000000
00110000
00000000
00000000
10000000
00100000
10000000
,
00100000
00000000
01000000
00010000
01000000
00000000
00002000
00000000
,
00003000
00010000
00000000
00010000
00000010
00000000
00002000
00000000
,
00003000
00000000
00000001
00000010
00000001
00001000
00000100
00010000
,
00000100
00001000
00000010
00010000
00001000
00100000
00020000
00000000
,
00030000
00000000
10000000
00010000
01000000
00000000
00002000
00000000
,
00003000
00010000
00000000
00010000
00000100
00000000
00002000
00000000
,
00003000
00000000
00000001
00000100
00001000
00010000
00100000
01000000
,
00010000
10000000
00000000
01000000
00010000
00001000
00000100
00000000
,
00000001
00001001
00000000
00000000
,
00000000
00000000
00000000
00000000
;
#NOTES:
     dance-double:
     :
     Hard:
     14:
     :
00000000
00000000
00000000
00000000
,
00000000
00000000
00000000
00000000
,
00000000
00000000
00000000
00000000
,
00000000
00000000
00000000
00000000
,
00000000
00000000
00000000
00000000
,
00000000
00000000
00000000
00000000
,
00001000
00000000
00000010
00000000
00010000
00001000
00010000
00000000
,
00001000
00100000
00010000
01000000
00100000
01000000
00100000
10000000
,
00010000
00000000
00100000
00000000
00001000
00010000
00000000
00010000
,
00001000
00000000
00000000
00000000
00000000
00000000
00010000
00001000
00010000
00000000
00001000
00000000
00000100
00000000
00000001
00000000
,
00001000
00000000
00000100
00010000
00002000
00000000
01003000
00010000
,
00000000
00000000
10000000
01000000
10000000
00000000
00100000
00000000
02000000
00000000
00000000
00000000
03001000
00000000
00000000
00000000
,
00010000
00001000
00010000
00000000
00001000
00000000
00010000
00000000
00000010
00000000
00000000
00000000
00001000
00000000
00000001
00000000
,
00000000
00000000
00000100
00000010
00000100
00000000
00000010
00000000
00020000
00000000
00000000
00000000
00031000
00000000
00000000
00000000
,
00101000
00000000
00010000
10000000
00200000
00000000
00310000
00001000
,
00000000
00000000
00010000
00001000
00010000
00000000
00000010
00000000
00002000
00000000
00000000
00000000
00003100
00000000
00000000
00000000
,
00000010
00000001
00001000
00000100
00010000
00001000
00010000
00100000
,
00000000
10000000
01000000
00100000
00010000
00000000
10010000
00000000
,
01010000
00000000
00011000
00000000
00000100
00010000
00000100
00010000
,
00000010
00001000
00000010
00000000
00000100
00000001
00000100
00000000
00000001
00001000
00000100
00000000
00010000
00000000
00002000
00000000
,
00000000
00013000
00001000
00000000
00100000
00010000
01000000
00000000
,
01100000
00000000
10100000
00000000
00010000
00100000
00001000
00000000
,
00011000
00000000
00001100
00000000
00000001
00000100
00000001
00000100
,
00000010
00010000
00000010
00000000
00010000
00001000
00010000
00000000
00001000
00100000
00010000
00000000
01000000
00000000
00200000
00000000
,
00000000
10300000
00010000
00000000
00100000
00001000
00010000
00000000
,
00001010
00000000
00000110
00000000
00000001
00000010
00000100
00000000
,
00001100
00000000
00010100
00000000
00010000
00001000
00010000
00001000
,
01000000
00010000
01000000
00000000
00100000
10000000
00100000
00000000
10000000
00010000
00100000
00000000
00001000
00000000
00020000
00000000
,
00000000
00031000
00010000
00000000
00000010
00001000
00000100
00000000
,
00000110
00000000
00000011
00000000
00001000
00000010
00000100
00000000
,
00000001
00001001
00001000
00001100
00000100
00010100
00010000
00011000
,
00101000
00000000
00110000
00010000
10000000
01000000
00100000
00010000
,
00100000
00000000
00001000
00000000
00010000
00000000
00001000
00000000
00010000
00000000
00000100
00001000
00000000
00001000
00000010
00000000
,
00000100
00000001
00002000
00000000
00000000
00000000
00003100
00000000
,
00010000
00000000
00000000
00001000
00000000
00001000
00000000
00100000
00010000
00000000
01000000
00000000
00100000
00000000
00000000
00000000
,
10000000
00000000
00000000
00010000
00000000
00010000
00000000
01000000
00001000
00000000
00010000
00000000
00000010
00000000
00000000
00000000
,
00001000
00000000
00000000
00000001
00000000
00000001
00000000
00000100
00000010
00000000
00001000
00000000
00000100
00000000
00000000
00000000
,
00010000
00000000
00000000
00001000
00000000
00001000
00000000
01000000
00010000
00000000
10000000
00000000
01000000
00000000
00000000
00000000
,
00010000
00001000
00000000
00000010
00000001
00000010
00001000
00000000
,
00010000
01000000
00000000
10000000
00100000
00010000
00001000
00000000
,
00010000
00001000
00000000
00000100
00000001
00000100
00000110
00000000
,
00001010
00000000
00000010
00010000
00001000
00000000
00100000
00000000
00010000
00000000
10000000
00000000
00100000
00000000
00000000
00000000
,
01000000
00000000
00010000
00000000
00200000
00000000
00000000
00000000
00301000
00000000
00010000
00000000
00000000
00000000
00001000
00010000
,
00001000
00000100
00000002
00000000
00000013
00000000
00000001
00001000
,
00000010
00000000
00001000
00000000
00000100
00000000
00000000
00000000
00010000
00000000
00001000
00000000
00000000
00000000
01000000
00010000
,
01000000
00100000
10000000
00000000
11000000
00000000
01010000
00000000
,
00001000
00010000
00011000
00001010
00000110
00000000
00000001
00001000
,
00001100
00011000
00010000
01000000
10000000
00000000
00100000
00010000
,
00001000
00000000
00000100
00000000
00000001
00000000
00000000
00000000
00000000
00000000
00001000
00000100
00001000
00000000
00000010
00000000
,
00010000
00001000
00011000
00000000
00010000
00001000
02000000
00000000
,
03010000
00000000
00100000
00000000
00000000
00000000
00010000
10000000
00010000
00000000
00100000
00000000
02000000
00000000
00000000
00000000
,
13000000
00000000
01000000
00010000
00001000
00000010
00000001
00000000
,
00001000
00000000
00000010
00000000
00000000
00000000
00010000
00001000
00010000
00000000
00001000
00000000
00010000
00000000
00000000
00000000
,
00011000
00000000
00001000
00000000
01000000
00010000
20000000
00000000
,
31000000
00000000
00100000
00000000
00000000
00000000
00010000
00100000
00010000
00000000
00100000
00000000
00002000
00000000
00000000
00000000
,
00013000
00000000
00001000
00000100
00000001
00000100
00001000
00010000
,
01000000
00000000
20000000
00000000
00000000
00000000
30000000
00000000
00000000
00000000
00100000
10000000
00100000
00000000
10000000
00000000
,
01000000
00100000
00010000
00100000
00001000
00010000
00002000
00000000
,
00013000
00000010
00000000
00001000
00000010
00000100
00000002
00000000
,
00001003
00000000
00000000
00000000
00000001
00000000
00000100
00001000
00000100
00000000
00001000
00000000
00010000
00000000
00100000
00000000
,
10000000
00000000
00100000
00000000
01000000
00000000
00001000
00100000
00001000
00000000
00010000
00000000
00000010
00000000
00000000
00000000
,
00001001
00000000
00001000
00000010
00000100
00001000
00020000
00000000
,
00130000
00000000
01000000
00000000
00000000
00000000
00010000
10000000
00100000
00000000
10000000
00000000
02000000
00000000
00000000
00000000
,
03100000
00000000
00010000
10000000
00100000
00010000
00001000
00010000
,
00001000
00000100
00000000
00000010
00000100
00001000
00010000
00000000
,
01010000
01100000
00000000
00000000
,
00000000
00000000
00000000
00000000
;
