
//----- song ID: wowi -----//
#TITLE:Wowie Zowie!;
#ARTIST:Hommarju;
#BANNER:Wowie Zowie!.png;
#BACKGROUND:Wowie Zowie!-bg.png;
#CDTITLE:./CDTitles/jb clan.png;
#MUSIC:Wowie Zowie!.ogg;
#SAMPLESTART:16.875;
#SAMPLELENGTH:15;
#BPMS:0=128;
#STOPS:192=0.469;
#STAGE:2;
#NOTES:
     dance-single:
     :
     Beginner:
     2:
     :
0000
0000
0000
0000
,
0000
0000
0000
0000
,
0000
0000
0000
0000
,
0000
0000
0000
0000
,
0000
0000
0000
0000
,
0001
0000
0001
0000
,
0100
0000
0000
0000
,
0100
0000
0100
0000
,
0010
0000
0000
0000
,
1000
0000
0100
0000
,
1000
0000
0000
0000
,
0100
0000
0010
0000
,
0100
0000
0000
0000
,
0010
0000
0001
0000
,
0010
0000
0000
0000
,
0001
0000
0001
0000
,
0001
0000
0000
0000
,
0001
0000
0000
0000
,
0100
0000
0000
0000
,
0010
0000
0000
0000
,
1000
0000
0000
0000
,
1000
0000
0000
0000
,
0100
0000
0000
0000
,
0010
0000
0000
0000
,
0000
0000
0000
0000
,
1000
0000
0000
0000
,
0100
0000
0100
0000
,
0010
0000
0000
0000
,
0001
0000
0000
0000
,
0100
0000
0100
0000
,
0010
0000
0000
0000
,
0020
0000
0000
0000
,
0030
0000
0000
0000
,
1001
0000
0000
0000
,
0000
0000
0000
0000
,
1001
0000
0000
0000
,
0000
0000
0000
0000
,
1000
0000
1000
0000
,
0100
0000
0000
0000
,
0001
0000
0001
0000
,
0100
0000
0000
0000
,
0001
0000
0010
0000
,
0001
0000
0000
0000
,
0100
0000
0001
0000
,
0100
0000
0000
0000
,
1000
0000
0100
0000
,
1000
0000
0000
0000
,
0020
0000
0000
0000
,
0030
0000
0000
1000
,
0000
0100
0000
1000
,
0000
0010
0000
1000
,
0000
0000
0000
0000
,
0000
0000
0000
0001
,
0000
0100
0000
0001
,
0000
0010
0000
0001
,
0000
0000
0000
0000
,
0000
0000
0000
1001
,
0000
0000
0000
0000
;
#NOTES:
     dance-single:
     :
     Easy:
     6:
     :
0000
0000
0000
0000
,
0000
0000
0000
0000
,
0000
0000
0000
0000
,
0000
0000
0000
0000
,
0000
0000
0000
0000
,
0001
0100
0001
0100
,
1000
0100
1000
0100
,
0001
0010
0001
0010
,
1000
0010
1000
0010
,
0002
0000
0000
0003
,
2000
0000
0000
3000
,
0020
0000
0000
0030
,
0200
0000
0000
0300
,
0001
1000
0010
0100
,
0001
1000
0010
0100
,
0001
0100
0010
1000
,
2002
0000
0000
3003
,
0000
1001
0110
1001
,
1001
0110
1001
0000
,
0000
1001
0110
1001
,
1001
0001
0100
0010
,
0000
0110
1001
0110
,
0110
1001
0110
0000
,
1000
0010
0100
0001
,
2000
0000
0000
3000
,
0002
0000
0000
0003
,
0020
0000
0000
0030
,
0200
0000
0000
0300
,
2000
0000
0000
3000
,
0001
0100
0010
0100
,
0001
0010
0100
1000
,
0010
0100
0010
0100
,
0220
0000
0000
0330
,
1000
1000
1000
0000
,
0001
0001
0001
0000
,
0010
0010
0010
0000
,
0110
0000
1001
0000
,
0001
0001
0001
0000
,
1000
1000
1000
0000
,
0010
0010
0010
0000
,
0110
0000
1001
0000
,
1000
0010
1000
0000
,
0001
0010
0001
0000
,
1000
0010
1000
0000
,
0001
0010
0001
0000
,
1000
0100
1000
0001
,
1000
0010
1000
0001
,
1000
1000
1000
0000
,
1001
0000
0000
0001
,
0110
1001
0000
1000
,
0110
1001
0000
0001
,
0110
1001
0000
2000
,
0000
0000
3000
1000
,
1001
0110
0001
1000
,
1001
0110
0000
0000
,
0001
1001
0110
1000
,
0001
1000
0000
1001
,
0000
0000
0000
0000
;
#NOTES:
     dance-single:
     :
     Medium:
     10:
     :
0000
0000
0000
0000
,
0000
0000
0000
0000
,
0000
0000
0000
0000
,
0000
0000
0000
0000
,
0000
0000
0000
0000
,
0001
0000
0000
0100
0000
0000
0001
0000
0000
0100
0000
0000
0001
0000
0000
0000
,
1000
0000
0000
0100
0000
0000
1000
0000
0000
0100
0000
0000
1000
0000
0000
0000
,
0001
0000
0000
0010
0000
0000
0001
0000
0000
0010
0000
0000
0001
0000
0000
0000
,
1000
0000
0000
0010
0000
0000
1000
0000
0000
0010
0000
0000
1000
0000
0000
0000
,
0001
0100
0001
0000
1000
0100
1000
0000
,
0001
0010
0001
0000
1000
0010
1000
0000
,
0001
0100
0001
0000
1000
0100
1000
0000
,
0001
0010
0001
0000
1000
0010
1000
0000
,
0001
0010
0001
0010
0100
1000
0100
0000
,
1000
0010
1000
0010
0100
0001
0100
0000
,
0001
0010
0100
1000
0010
0100
0001
0010
,
0200
0000
0000
0300
,
0110
0000
1000
0100
0001
0100
1000
0000
,
1000
0100
0001
0100
1000
0000
0000
0000
,
1001
0000
0001
0100
1000
0100
0001
0000
,
0001
0100
2000
0000
3200
0000
0301
0000
,
1001
0000
1000
0010
0001
0010
1000
0000
,
1000
0010
0001
0010
1000
0000
0000
0000
,
0001
0010
0001
0010
1000
0010
1000
0010
,
0002
0000
0000
0003
,
1000
0100
0010
0000
0100
0010
0001
0000
,
1000
0100
0010
0000
0100
0010
0001
0000
,
0001
0100
0010
0000
0100
0010
1000
0000
,
0001
0100
0010
0000
0100
0010
1000
0000
,
0001
0100
0010
1000
0010
0100
0001
0000
,
1000
0100
0010
0001
0010
0100
1000
0000
,
0001
0010
0100
1000
0010
0100
0001
0010
,
0200
0000
0000
0300
,
1000
0000
0100
0000
0010
0010
0010
0000
,
0001
0000
0100
0000
0010
0010
0010
0000
,
1000
0000
0001
0000
0100
0100
0100
0000
,
0101
0000
1100
0000
,
0001
0000
0010
0000
0001
0001
0001
0000
,
1000
0000
0010
0000
1000
1000
1000
0000
,
0001
0000
0100
0000
0001
0001
0001
0000
,
0011
0000
1010
0000
,
1000
0010
1000
0010
0100
0001
0100
0000
,
0001
0010
0001
0010
0100
1000
0100
0000
,
1000
0001
1000
0001
0100
0010
0100
0000
,
0001
1000
0001
1000
0100
0010
0100
0000
,
1000
0100
0010
0001
1000
0100
0010
0001
,
1000
0010
0100
0001
1000
0010
0100
0001
,
1000
0000
0001
1000
0000
0001
1000
0000
0001
1000
0000
0001
,
1000
1001
0000
1001
,
1000
0000
1000
0001
0000
0001
1000
0000
1000
0010
0000
0000
,
1000
0000
1000
0100
0000
0100
1000
0000
0000
1001
0000
0000
,
0001
0000
0001
0100
0000
0100
0001
0000
0001
0010
0000
0000
,
0000
0000
0000
0001
1000
0001
1000
0000
0000
1001
0000
0000
,
1000
0000
1000
0100
0000
0100
0010
0000
0010
0001
0000
0000
,
0001
0000
0001
0100
0000
0100
0010
0000
0000
1000
0000
0100
,
0010
0000
0100
0010
0000
0001
1000
0000
0001
1000
0000
0001
,
0010
0000
0100
1000
0000
0010
0100
0010
0100
0010
0000
0000
,
0000
0000
0000
0000
;
#NOTES:
     dance-single:
     :
     Hard:
     14:
     :
0000
0000
0000
0000
,
0000
0000
0000
0000
,
0000
0000
0000
0000
,
0000
0000
0000
0000
,
0000
0000
0000
0000
,
0001
0000
0000
0100
0000
0000
1000
0000
0000
0010
0000
0000
1001
0000
0000
0000
,
1000
0000
0000
0100
0000
0000
0001
0000
0000
0010
0000
0000
1001
0000
0000
0000
,
0010
0000
0000
1000
0000
0000
0100
0000
0000
0001
0000
0000
0110
0000
0000
0000
,
0100
0000
0000
1000
0000
0000
0010
0000
0000
0001
0000
0000
0110
0000
0000
0000
,
1000
0100
0010
0000
0100
0010
0001
0000
,
0001
0100
0010
0000
0100
0010
1000
0000
,
0001
0010
0100
0000
0010
0100
1000
0000
,
1000
0010
0100
0000
0010
0100
0001
0000
,
1000
0100
1000
0100
0010
0001
0100
0001
,
0010
0001
0010
0001
0010
0100
1000
0010
,
1000
0010
1000
0010
0100
0001
0100
0001
1000
0100
1000
0100
0010
0001
0010
0100
,
0020
0000
0000
0030
,
0110
0000
0000
0000
1000
0010
1000
0010
0100
0010
0100
0010
1000
0000
0000
0000
,
0001
0100
0001
0100
0010
0100
0010
0100
0001
0000
0000
0000
0000
0000
0000
0000
,
1001
0000
0000
0000
0001
0010
0001
0010
0100
0010
0100
0010
0001
0000
0000
0000
,
1000
0100
1000
0100
0020
0000
0000
0000
0032
0000
0000
0000
2003
0000
0000
0000
,
3001
0000
0000
0000
1000
0010
0100
0010
1000
0100
0010
0100
1000
0000
0000
0000
,
0001
0010
0100
0010
0001
0100
0010
0100
0001
0000
0000
0000
0000
0000
0000
0000
,
1001
1000
0100
0100
0001
0001
0010
0010
,
2000
0100
0001
3100
,
1000
0100
0001
0000
0001
0100
1000
0000
,
0001
0100
1000
0000
1000
0100
0001
0000
,
1000
0010
0001
0000
0001
0010
1000
0000
,
0001
0010
1000
0000
1000
0010
0001
0000
,
1000
0100
1000
0100
0001
0100
1000
0010
,
0100
0001
0100
0001
0100
1000
0100
0001
,
1000
0010
0100
0010
1000
0010
0100
0010
1000
0001
0010
0001
1000
0001
0010
0001
,
2000
0000
0000
3000
,
0001
0010
0100
0000
0010
0100
1000
0000
0001
0000
0100
0000
0001
0000
0000
0000
,
1000
0100
0010
0000
0100
0010
0001
0000
1000
0000
0010
0000
1000
0000
0000
0000
,
0001
1000
0010
0000
1000
0001
0010
0000
0100
0000
0010
0000
0100
0000
0000
1000
,
0001
0000
0010
0000
0001
0000
0000
1000
0001
0000
0010
0000
0001
0000
0000
0000
,
1000
0010
0100
0000
0010
0100
0001
0000
1000
0000
0100
0000
1000
0000
0000
0000
,
0001
0100
0010
0000
0100
0010
1000
0000
0001
0000
0010
0000
0001
0000
0000
0000
,
1000
0001
0010
0000
0001
1000
0010
0000
0100
0000
0010
0000
0100
0000
0000
0001
,
1000
0000
0010
0000
1000
0000
0000
0001
1000
0000
0010
0000
1000
0000
0000
0000
,
0010
1000
0100
0000
0010
0001
0100
0000
,
0010
1000
0100
0000
0010
0001
0100
0000
,
0100
1000
0010
0000
0100
0001
0010
0000
,
0100
1000
0010
0000
0100
0001
0010
0000
,
0001
0100
0001
0010
0001
0100
0010
1000
,
0100
1000
0010
1000
0100
1000
0010
0100
,
0001
0010
0001
0010
0001
0010
0100
1000
0100
1000
0100
1000
,
0100
0110
0000
1001
,
1000
0100
1000
0100
0010
0100
0010
0001
0010
0001
0000
0000
,
1000
0001
1000
0001
0100
0001
0100
0000
0000
1001
0000
0000
,
0001
0100
0001
0100
0010
0100
0010
1000
0010
1000
0000
0000
,
0000
0000
0000
0001
1000
0001
0100
0010
0100
0010
0000
0000
,
1000
0000
0100
1000
0100
0000
0010
0000
0100
0000
0010
0000
0001
0000
1000
0001
1000
0000
0001
0000
0000
0000
0000
0000
,
1000
0000
0010
1000
0010
0000
1000
0000
0001
0000
1000
0000
0001
0000
0010
0001
0010
0000
0001
0000
0000
0000
0000
0000
,
1000
0000
0010
1000
0010
0000
0100
0000
0001
0100
0001
0000
1000
0000
0001
1000
0001
0000
0100
0000
0010
1000
0010
0000
,
1000
0000
0001
0000
0001
0000
0010
0100
0010
0000
0100
0000
1000
0000
1000
0000
0001
0000
1001
0000
0000
0000
0000
0000
,
0000
0000
0000
0000
;
#NOTES:
     dance-double:
     :
     Easy:
     6:
     :
00000000
00000000
00000000
00000000
,
00000000
00000000
00000000
00000000
,
00000000
00000000
00000000
00000000
,
00000000
00000000
00000000
00000000
,
00000000
00000000
00000000
00000000
,
00000001
00000010
00000001
00000010
,
00000001
00001000
00000001
00000000
,
00001000
00000100
00001000
00000100
,
00010000
00001000
00010000
00000000
,
00002000
00000000
00000000
00003000
,
02000000
00000000
00000000
03000000
,
00020000
00000000
00000000
00030000
,
00200000
00000000
00000000
00300000
,
00010000
10000000
00100000
01000000
,
00010000
00100000
00001000
00010000
,
00000100
00001000
00000010
00000100
,
00000002
00000000
00000000
00000003
,
00000000
00001001
00000110
00000001
,
00000100
00001000
00011000
00000000
,
00001000
00010000
00100000
10000000
,
10010000
01100000
10010000
00000000
,
00000000
10010000
01100000
10000000
,
01000000
00010000
00011000
00000000
,
00010000
00001000
00000010
00000001
,
00001001
00000110
00001001
00000000
,
00000002
00000000
00000000
00000003
,
00000020
00000000
00000000
00000030
,
00000200
00000000
00000000
00000300
,
00020000
00000000
00000000
00030000
,
00001000
01000000
00001000
01000000
,
00010000
01000000
00100000
10000000
,
01000000
00100000
01000000
00100000
,
02200000
00000000
00000000
03300000
,
10000000
10000000
01000000
00000000
,
00100000
00100000
00010000
00000000
,
00100000
00001000
00010000
00000000
,
00011000
00000000
00011000
00000000
,
00010000
00000100
00001000
00000000
,
00000010
00001000
00000001
00000000
,
00001000
00000010
00000100
00000000
,
00001001
00000000
00001001
00000000
,
00000001
00000100
00000010
00000000
,
00000100
00000010
00001000
00000000
,
00000100
00010000
00001000
00000000
,
00010000
00001000
00100000
00000000
,
00010000
00100000
00010000
01000000
,
00100000
10000000
00100000
01000000
,
00010000
00100000
00001000
00000000
,
00011000
00000000
00000000
00000001
,
00000110
00001001
00000001
00000100
,
00001000
00010000
00000000
00011000
,
00001000
00010000
00100000
20000000
,
00000000
00000000
30000000
10000000
,
01100000
10010000
10000000
01000000
,
00010000
00001000
00000000
00011000
,
00010000
00001000
00000010
00000002
,
00000000
00000000
00000003
00001001
,
00000000
00000000
00000000
00000000
;
#NOTES:
     dance-double:
     :
     Medium:
     10:
     :
00000000
00000000
00000000
00000000
,
00000000
00000000
00000000
00000000
,
00000000
00000000
00000000
00000000
,
00000000
00000000
00000000
00000000
,
00000000
00000000
00000000
00000000
,
00000001
00000000
00000000
00000010
00000000
00000000
00000001
00000000
00000000
00000010
00000000
00000000
00000100
00000000
00000000
00000000
,
00001000
00000000
00000000
00000100
00000000
00000000
00010000
00000000
00000000
00001000
00000000
00000000
00010000
00000000
00000000
00000000
,
00001000
00000000
00000000
01000000
00000000
00000000
00001000
00000000
00000000
01000000
00000000
00000000
00010000
00000000
00000000
00000000
,
00100000
00000000
00000000
00010000
00000000
00000000
10000000
00000000
00000000
01000000
00000000
00000000
10000000
00000000
00000000
00000000
,
01000000
10000000
01000000
00000000
00100000
00010000
00100000
00000000
,
00001000
00010000
00001000
00000000
00000010
00000100
00000010
00000000
,
00000001
00000100
00000001
00000000
00001000
00000010
00001000
00000000
,
00000010
00010000
00000010
00000000
00010000
00001000
00010000
00000000
,
00001000
00100000
00010000
00100000
01000000
10000000
01000000
00000000
,
10000000
00100000
01000000
00100000
00010000
00001000
00010000
00000000
,
00001000
00010000
00001000
00000010
00000001
00001000
00000100
00000010
,
00000002
00000000
00000000
00000003
,
00001001
00000000
00000001
00000100
00001000
00000100
00000001
00000000
,
00000001
00000100
00001000
00010000
00001000
00000000
00000000
00000000
,
00011000
00000000
00010000
00100000
10000000
00100000
00010000
00000000
,
00010000
00001000
00020000
00000000
02030000
00000000
13000000
00000000
,
10010000
00000000
10000000
01000000
00010000
01000000
10000000
00000000
,
10000000
01000000
00010000
00001000
00010000
00000000
00000000
00000000
,
00001000
00010000
00001000
00010000
00001000
00000010
00001000
00000010
,
00002000
00000000
00000000
00003000
,
00010000
00000000
00001000
00000000
00000010
00000001
00000010
00000000
,
00001000
00000000
00010000
00000000
00001000
00000100
00001000
00000000
,
00010000
00000000
00100000
00000000
10000000
00100000
10000000
00000000
,
00100000
00000000
00010000
00000000
00001000
00010000
00001000
00000000
,
00010000
01000000
00010000
01000000
10000000
01000000
10000000
00000000
,
00100000
01000000
00100000
01000000
00001000
00010000
00001000
00000000
,
00010000
00001000
00000010
00000100
00000010
00001000
00010000
00001000
,
00000200
00000000
00000000
00000300
,
00000001
00000000
00000010
00000000
00000100
00000100
00000100
00000000
,
00010000
00000000
00001000
00000000
00100000
00100000
00100000
00000000
,
00010000
00000000
01000000
00000000
00100000
00100000
00100000
00000000
,
10100000
00000000
00110000
00000000
,
10000000
00000000
01000000
00000000
00100000
00100000
00100000
00000000
,
00001000
00000000
00010000
00000000
00000010
00000010
00000010
00000000
,
00001000
00000000
00000100
00000000
00000010
00000010
00000010
00000000
,
00000011
00000000
00001010
00000000
,
00001000
00000010
00000100
00000010
00001000
00000000
00001001
00000000
,
00000001
00000100
00000010
00000100
00001000
00000000
00011000
00000000
,
00010000
00001000
01000000
00001000
00010000
00000000
00011000
00000000
,
00001000
00010000
00100000
01000000
00100000
00000000
01100000
00000000
,
10000000
01000000
00100000
00010000
01000000
00100000
00010000
00001000
,
00100000
00010000
00001000
00000100
00010000
00001000
00000100
00000010
,
00001000
00000000
00001000
00000001
00000000
00000001
00000010
00000000
00000010
00000100
00000000
00000100
,
00010000
00011000
00000000
00011000
,
00001000
00000000
00001000
01000000
00000000
01000000
00100000
00000000
00100000
10000000
00000000
00000000
,
01000000
00000000
01000000
00010000
00000000
00010000
00001000
00000000
00000000
00011000
00000000
00000000
,
00010000
00000000
00010000
00000100
00000000
00000100
00000010
00000000
00000010
00000001
00000000
00000000
,
00000000
00000000
00000000
00001000
00000001
00001000
00000001
00000000
00000000
00001001
00000000
00000000
,
00000001
00000000
00000001
00000100
00000000
00000100
00010000
00000000
00010000
00000100
00000000
00000000
,
00000010
00000000
00000010
00010000
00000000
00010000
00001000
00000000
00000000
00011000
00000000
00000000
,
00001000
00000000
00001000
01000000
00000000
01000000
10000000
00000000
10000000
01000000
00000000
01000000
,
00100000
00000000
00100000
10000000
00010000
10000000
00010000
00000000
00000000
10010000
00000000
00000000
,
00000000
00000000
00000000
00000000
;
#NOTES:
     dance-double:
     :
     Hard:
     14:
     :
00000000
00000000
00000000
00000000
,
00000000
00000000
00000000
00000000
,
00000000
00000000
00000000
00000000
,
00000000
00000000
00000000
00000000
,
00000000
00000000
00000000
00000000
,
00000001
00000000
00000000
00000100
00000000
00000000
00001000
00000000
00000000
00010000
00000000
00000000
00100000
00000000
00000000
00000000
,
10000000
00000000
00000000
01000000
00000000
00000000
00010000
00000000
00000000
00001000
00000000
00000000
00000010
00000000
00000000
00000000
,
00000001
00000000
00000000
00000010
00000000
00000000
00001000
00000000
00000000
00010000
00000000
00000000
01000000
00000000
00000000
00000000
,
10000000
00000000
00000000
00100000
00000000
00000000
00010000
00000000
00000000
00001000
00000000
00000000
00000100
00000000
00000000
00000000
,
00000001
00000100
00000010
00000000
00000100
00000010
00001000
00000000
,
00000010
00001000
00010000
00000000
00001000
00010000
01000000
00000000
,
00010000
01000000
00100000
00000000
01000000
00100000
10000000
00000000
,
00100000
10000000
01000000
00000000
10000000
01000000
00100000
00000000
,
01000000
00100000
00010000
00100000
01000000
00100000
00010000
00001000
,
00000100
00000010
00000100
00001000
00000100
00000010
00000100
00001000
,
00000001
00000100
00000001
00000100
00000010
00001000
00000010
00000000
00001000
00000100
00001000
00000100
00010000
00000100
00010000
00000000
,
00002000
00000000
00000000
00003000
,
00011000
00000000
00000000
00000000
00001000
00100000
00010000
00100000
00001000
00100000
00010000
00100000
00001000
00000000
00000000
00000000
,
01000000
00001000
00010000
00001000
01000000
00001000
00010000
00001000
01000000
00000000
00000000
00000000
00000000
00000000
00000000
00000000
,
00011000
00000000
00000000
00000000
00010000
00000010
00001000
00000010
00010000
00000010
00001000
00000010
00010000
00000000
00000000
00000000
,
00000100
00010000
00001000
00010000
00000200
00000000
00000000
00000000
00000320
00000000
00000000
00000000
00000032
00000000
00000000
00000000
,
00001003
00000000
00000000
00000000
00000001
00000010
00000001
00001000
00000010
00001000
00000100
00001000
00000100
00000000
00000000
00000000
,
00010000
00000100
00010000
00001000
00100000
00001000
00010000
00001000
01000000
00000000
00000000
00000000
00000000
00000000
00000000
00000000
,
00010000
00010000
10000000
10000000
01000000
01000000
00100000
00100000
,
00022000
00000000
00000000
00033000
,
00001000
00000010
00000001
00000000
00000001
00000100
00001000
00000000
,
00010000
00100000
10000000
00000000
10000000
01000000
00010000
00000000
,
00001000
00000100
00000001
00000000
00000001
00000010
00001000
00000000
,
00010000
01000000
10000000
00000000
10000000
00100000
00010000
00000000
,
00001000
00000010
00001000
00000010
00001000
00010000
00001000
00010000
,
00100000
00010000
00100000
00010000
00001000
00010000
00001000
00000000
,
00010000
00000100
00010000
00000010
00010000
00000100
00010000
00001000
00100000
00001000
01000000
00001000
00100000
00001000
00010000
00000000
,
00022000
00000000
00000000
00033000
,
00010000
00000010
00001000
00000000
00000010
00000100
00000001
00000000
00001000
00000000
00001000
00000000
00001000
00000000
00000000
00000000
,
00000001
00000100
00000010
00000000
00001000
00000010
00010000
00000000
00001000
00000000
00001000
00000000
00001000
00000000
00000000
00000000
,
00010000
00001000
00100000
00000000
00010000
01000000
00100000
00000000
10000000
00000000
10000000
00000000
10000000
00000000
00000000
01000000
,
00010000
00000000
01000000
00000000
10000000
00000000
00000000
00010000
00100000
00000000
01000000
00000000
01000000
00000000
00000000
00000000
,
10000000
01000000
00100000
00000000
00010000
01000000
00001000
00000000
00010000
00000000
00010000
00000000
00010000
00000000
00000000
00000000
,
00001000
00010000
00000100
00000000
00001000
00000010
00000100
00000000
00000001
00000000
00000001
00000000
00000001
00000000
00000000
00000000
,
00001000
00000100
00000010
00000000
00000001
00000100
00000010
00000000
00001000
00000000
00001000
00000000
00001000
00000000
00000000
00000100
,
00000001
00000000
00000100
00000000
00001000
00000000
00000000
00000100
00010000
00000000
00001000
00000000
00010000
00000000
00000000
00000000
,
00001000
00010000
01000000
00000000
00010000
00001000
00010000
00000000
,
00001000
00010000
00100000
00000000
00010000
00001000
00010000
00000000
,
00010000
00001000
00000100
00000000
00001000
00010000
00001000
00000000
,
00010000
00001000
00000010
00000000
00001000
00010000
00001000
00000000
,
00010000
00001000
00000010
00001000
00010000
00001000
00000100
00001000
,
00010000
00100000
00010000
00001000
00010000
01000000
00010000
00000000
,
00001000
00000010
00001000
00000010
00000001
00000010
00000100
00001000
00000100
00001000
00000001
00001000
,
00000001
00011000
00000000
10010000
,
10000000
01000000
00100000
00010000
01000000
00100000
10000000
01000000
00100000
00010000
00000000
00000000
,
10000000
00000000
10000000
01000000
00000000
01000000
00010000
00000000
00010000
00001000
00000000
00000000
,
00000010
00000001
00000100
00000010
00001000
00000100
00000010
00000001
00000100
00000010
00000000
00000000
,
00000000
00000000
00000000
00001000
00000001
00001000
00000010
00000100
00000010
00000110
00000000
00000000
,
00000001
00000000
00000100
00000010
00000100
00000000
00000010
00000000
00001000
00000000
00000010
00000000
00001000
00000000
00000100
00000000
00010000
00000000
00001000
00000000
00000000
00000000
00000000
00000000
,
00100000
00000000
00010000
10000000
00010000
00000000
00100000
00000000
01000000
00000000
10000000
00000000
00010000
00000000
01000000
00000000
00100000
00000000
10000000
00000000
00000000
00000000
00000000
00000000
,
00010000
00000000
01000000
00100000
01000000
00000000
00010000
00000000
00100000
00001000
00100000
00000000
00001000
00000000
00010000
00000100
00010000
00000000
00000010
00000000
00001000
00000100
00001000
00000000
,
00000100
00000000
00000010
00000000
00000001
00000000
00000100
00000010
00000100
00000000
00000010
00000000
00000100
00000000
00001000
00000000
00010000
00000000
00011000
00000000
00000000
00000000
00000000
00000000
,
00000000
00000000
00000000
00000000
;
