
//----- song ID: wopl -----//
#TITLE:Worst Plan;
#ARTIST:BEMANI Sound Team "SYUNN";
#BANNER:Worst Plan.png;
#BACKGROUND:Worst Plan-bg.png;
#CDTITLE:./CDTitles/DDR A3.png;
#MUSIC:Worst Plan.ogg;
#SAMPLESTART:28.8;
#SAMPLELENGTH:15;
#BPMS:0=150;
#STAGE:27;
#NOTES:
     dance-single:
     :
     Beginner:
     4:
     :
0000
0000
0000
0000
,
0000
0000
0000
0000
,
0000
0000
0000
0000
,
0000
0000
0000
0000
,
0000
0000
0000
0000
,
0000
0000
0000
0000
,
0001
0000
0001
0000
,
1000
0000
1000
0000
,
0010
0000
0010
0000
,
0200
0000
0300
0000
,
0001
0000
0000
0000
,
0010
0000
0000
0000
,
0100
0000
0000
0000
,
1000
0000
0000
0000
,
0010
0000
0010
0000
,
0100
0000
0100
0000
,
0001
0000
1000
0000
,
2002
0000
0000
0000
,
3003
0000
0000
0001
,
0000
0001
0001
0000
,
1000
0000
0010
0010
,
0000
0010
0010
0000
,
1000
0000
0100
0100
,
0000
0100
0100
0000
,
1000
0000
0001
0001
,
0001
0001
0001
0000
,
0100
0100
0100
0000
,
0010
0000
0010
0010
,
0010
0010
0010
0000
,
1000
1000
1000
0000
,
0001
0000
0002
0003
,
2000
3000
0010
0000
,
0010
0010
0010
0010
,
0010
0010
0010
0000
,
0100
0000
0000
0000
,
0001
0000
0001
0000
,
1000
0000
1000
0000
,
0100
0000
0100
0000
,
0010
0000
0010
0000
,
0001
0000
0001
0000
,
0100
0000
0100
0000
,
0010
0000
0010
0000
,
2002
0000
0000
0000
,
3003
0000
0000
0000
,
0000
0000
0000
0000
,
0000
0000
0000
0000
,
0001
0001
0001
0000
,
1000
1000
1000
0000
,
0010
0010
0010
0000
,
0100
0100
0100
0000
,
0002
0000
0000
0000
,
0003
0000
0000
0000
,
1000
0000
0100
0000
,
0010
0000
0001
0000
,
0001
0000
0010
0000
,
0100
0000
1000
0000
,
0001
0001
0100
0100
,
0010
0010
1000
1000
,
0002
0000
0003
0000
,
2000
0000
3000
0000
,
0001
0001
0001
0001
,
0001
0001
0001
0000
,
1000
1000
1000
1000
,
1000
1000
1000
0000
,
0001
0001
0001
0001
,
0001
0001
0001
0000
,
1000
0000
0010
0000
,
0100
0000
0001
0000
,
0010
0000
0100
0000
,
1000
0000
0001
0000
,
0100
0100
0100
0100
,
0010
0010
0010
0010
,
1000
1000
1000
1000
,
0001
0001
0001
0001
,
2002
0000
0000
0000
,
0000
3003
0000
0000
,
0000
0000
0000
0000
;
#NOTES:
     dance-single:
     :
     Easy:
     7:
     :
0000
0000
0000
0000
,
0000
0000
0000
0000
,
0000
0000
0000
0000
,
0000
0000
0000
0000
,
0000
0000
0000
0000
,
0000
0000
0000
0000
,
1000
0001
0100
0010
,
1000
0100
0010
0001
,
1000
1000
1000
0000
0001
0001
0001
0000
,
0200
0000
0000
0300
,
0001
0001
0010
0010
,
0100
0100
1000
1000
,
0001
0001
0100
0100
,
0010
0010
1000
1000
,
0001
0010
0100
1000
,
0001
0100
0010
0100
,
0001
0001
0001
0000
1000
1000
1000
0000
,
2002
0000
0000
3003
,
0220
0000
0000
0330
,
0001
0101
1000
1100
,
0022
0033
2100
3001
,
0102
1003
2200
3300
,
0022
0033
2100
3010
,
0102
0013
0020
0030
,
0210
1300
2001
3010
,
0120
1030
2002
3003
,
0102
0013
0102
0013
,
0102
0013
1100
1010
,
0110
0101
1001
1000
,
1001
0110
0001
0000
,
1001
0000
0000
1000
0010
0000
,
0100
0001
0000
1001
0000
0000
,
1002
0013
2100
3001
,
0021
0130
2100
3010
,
0010
0100
0001
0010
,
0100
1000
0010
0001
,
0010
1000
0100
0010
,
0001
0100
1000
0100
,
0001
1000
0100
0010
,
0001
0010
0100
0001
,
0100
1000
0010
0100
,
0001
0010
1000
0010
,
0002
0000
0000
0000
,
0003
0000
0000
0000
,
0100
0000
0010
0000
,
1000
0000
0001
0000
,
1000
1000
1000
0000
0001
0000
0100
0000
,
0010
0010
0010
0000
1000
0000
0001
0000
,
2000
3200
0320
0032
,
1003
0010
0100
0001
,
2002
0000
0000
0000
,
0003
0000
3000
0000
,
1100
1010
0101
0011
,
1200
0001
1300
0000
,
0101
0011
1100
1010
,
0201
1000
0301
0000
,
1200
0010
1300
0021
,
0100
0031
1001
0000
,
2000
0000
3020
0000
,
0230
0000
0301
0000
,
0101
1100
1010
0011
,
1001
0110
1001
0000
,
1100
0011
0101
1010
,
0110
1001
0110
0000
,
0102
0010
0103
2100
,
0010
3100
0110
1001
,
0001
0100
1000
0100
,
0001
0010
1000
0010
,
0001
0100
1000
0100
,
0001
0010
0100
0110
,
0000
0000
1000
0000
0010
0010
0010
0000
,
1000
0000
0001
0000
0100
0100
0100
0000
,
0001
0001
0001
0000
1000
1000
1000
0000
,
0010
0100
0001
0000
,
2002
0000
0000
0000
,
0000
3003
0000
0000
,
0000
0000
0000
0000
;
#NOTES:
     dance-single:
     :
     Medium:
     12:
     :
0000
0000
0000
0000
,
0000
0000
0000
0000
,
0000
0000
0000
0000
,
0000
0000
0000
0000
,
0000
0000
0000
0000
,
0000
0000
0000
0000
,
0001
0010
0100
0000
1000
0001
0100
0000
,
0010
1000
0001
0000
1000
0100
0010
0000
,
0001
1000
0010
0100
0010
1000
0100
0010
,
0002
0000
0000
0003
,
1000
1000
0010
0010
,
0100
0100
0001
0001
,
0010
0010
0100
0100
,
1000
1000
0001
0100
,
0001
1000
0100
0000
0010
0001
0100
0000
,
1000
0100
0001
0000
0010
0100
1000
0000
,
0001
0001
0001
0001
0010
0100
1000
0010
,
0200
0000
0000
0300
,
2002
0000
0000
3003
0000
0000
1000
0100
1000
0100
0000
0000
,
0110
0011
2002
3003
,
0001
0100
0001
0100
0000
0000
0110
0000
0000
1010
0000
0000
,
1001
0110
2002
3003
,
1000
0100
0010
0001
0000
0000
0011
0000
0000
1100
0000
0000
,
0110
0000
0000
1001
0000
0000
0001
1000
0010
0100
0010
1000
,
0001
0011
1100
1010
,
0101
0011
2002
3003
,
1200
0000
0000
0001
0000
0000
1300
0000
0000
0001
1000
0001
,
0100
0000
0000
0010
1000
0001
1000
0000
0000
1200
0000
0000
,
0301
0000
0000
0201
0000
0000
1300
0000
0000
1000
0001
0100
,
0010
0000
0000
0010
0100
0001
1000
0000
0000
0000
0000
0000
,
1001
0000
0000
0001
0000
0000
1100
0000
1010
0000
0000
0000
,
0101
0000
0011
0000
0000
0000
1001
0000
0000
1000
0000
0000
,
0001
0010
0001
1000
0000
0000
0100
1000
0100
0010
0000
0000
,
0001
0100
0001
1000
0100
0010
0002
0000
0000
0003
0000
0000
,
1000
0001
0100
0000
0010
1000
0001
0000
,
1000
0100
0010
0000
1000
0010
0001
0000
,
1000
0010
0100
0000
0001
1000
0100
0000
,
0010
0001
0100
0000
1000
0100
0001
0000
,
0010
0100
1000
0001
1000
0010
0100
0000
,
1000
0100
0001
1000
0001
0010
0100
0000
,
0001
0100
1000
0010
1000
0100
0010
0000
,
1000
0010
0001
0100
0010
1000
0001
0000
,
2000
0000
0000
0000
,
3002
0000
0000
0000
,
0203
0000
0320
0000
,
2030
0000
0000
0000
0000
0000
3001
1000
0001
1000
0100
0010
,
0001
1000
0010
0100
0010
1000
0001
0010
,
0100
0010
0001
0100
0010
0100
0001
1000
,
0001
0100
0001
1000
0100
1000
0001
0100
0001
1000
0100
0010
,
0002
0000
0000
0003
,
2002
0000
3000
0000
,
0103
0010
0100
0010
0100
0010
0100
0000
0000
0000
0000
0000
,
0001
0100
0001
0010
0000
0000
0001
0100
0001
0010
0000
0000
,
0001
0100
0001
0010
0000
0000
1001
0000
0000
0000
0000
0000
,
1000
0100
1000
0010
0000
0000
1000
0100
1000
0010
0000
0000
,
1000
0100
1000
0010
0000
0000
1001
0000
0000
0000
0000
0000
,
0001
0010
0100
0010
0000
0000
0001
0100
0010
0100
0000
0000
,
0001
0010
0100
0010
0000
0000
0001
0000
0000
0000
0000
0000
,
1000
0000
1000
0000
0001
0100
0001
0000
1000
0000
0010
0100
,
0010
0000
1000
0000
0001
0010
0100
0000
0000
0000
0000
0000
,
1000
0000
0001
0100
0000
0001
0010
0000
0100
0001
0000
0100
,
1000
0000
0010
0100
0000
0000
0002
0000
0000
0003
0000
0000
,
0010
0000
0001
0100
0000
1000
0100
0000
0001
0100
0000
1000
,
0100
0000
0001
0010
0000
0100
2000
0000
0000
3000
0000
0000
,
0001
0100
0001
0010
0000
0000
0100
1000
0010
1000
0000
0000
,
0001
1000
0010
0100
0010
1000
0001
0010
0100
1000
0000
0000
,
0001
0000
1000
0000
0010
0000
0100
0000
0001
0000
0000
0010
0000
0000
0100
0000
,
1000
0000
0001
0000
0100
0000
0010
0000
1000
0000
0000
0100
0000
0000
0001
0000
,
0100
0000
0010
0000
0001
0000
1000
0000
0010
0000
0000
0100
0000
0000
1000
0000
,
0100
0000
0001
0000
0010
0000
0100
0000
1000
0000
0000
1010
0000
0000
0000
0000
,
0000
0010
0100
0100
0001
0001
0010
0010
,
0100
0100
1000
1000
0001
0001
1001
0000
,
1000
0100
0001
0100
1000
0010
0001
0010
,
1000
0100
0010
1000
0010
0001
1000
0000
,
2002
0000
0000
0000
,
0000
3003
0000
0000
,
0000
0000
0000
0000
;
#NOTES:
     dance-single:
     :
     Hard:
     15:
     :
0000
0000
0000
0000
,
0000
0000
0000
0000
,
0000
0000
0000
0000
,
0000
0000
0000
0000
,
0000
0000
0000
0000
,
0000
0000
0000
0000
,
1000
0100
0010
0100
1000
0010
0100
1000
,
0100
0010
1000
0100
0010
1000
0010
0100
,
1000
0000
0010
0000
0100
0000
0010
0000
1000
0001
1000
0001
1000
0001
0010
0100
,
2000
0000
0000
3000
,
0002
0100
0023
1000
,
0230
0001
2300
3020
,
0032
2003
3200
0302
,
0023
1000
0032
1003
,
0001
0100
0010
0100
0001
0010
0100
0001
,
0100
0010
0001
0100
0010
0001
0010
0100
,
0001
0000
0001
0000
1000
0000
1000
0000
0001
1000
0001
1000
0001
1000
0100
0010
,
0002
0000
0000
0003
,
1000
0100
0010
0100
1000
0010
0100
1000
0100
0010
0000
0000
,
1010
0101
0120
0031
,
0001
0010
0100
0001
0010
0100
0001
0000
0000
0110
0000
0000
,
1100
1010
2002
3003
,
0001
0100
0010
0001
0000
0000
1000
0100
0010
1000
0001
0000
,
0001
0001
0000
1000
1000
0000
0010
0010
0100
0100
0001
0001
,
2000
0000
0000
3100
0000
0000
0100
0010
0001
1001
0000
0000
,
0101
0110
0020
0030
,
0001
0010
0100
0001
0010
0100
0001
0000
0000
1000
0010
0001
,
1000
0000
0000
0001
0010
1000
0001
0000
0000
1000
0010
0001
,
1000
0010
0001
1000
0100
0001
0010
0000
0000
0001
0000
0000
,
0100
0100
0001
1000
0100
0010
0002
0000
0000
0103
0000
0000
,
0001
0000
0000
1000
0000
0000
1010
0000
1001
0000
1000
0001
,
0011
0000
1001
0000
0001
1000
1020
0000
0000
0130
0000
0000
,
1000
0100
0010
1000
0100
0010
1000
0010
0001
1000
0010
0001
,
1000
0100
0010
1000
0100
0010
2000
0000
0000
3000
0000
0000
,
0001
1000
0010
0000
0100
0001
1000
0000
,
0010
0000
0100
0000
0001
0000
0000
1000
0100
0000
1000
0000
0001
0000
0000
0100
,
0010
0000
0100
0000
0001
0000
0000
0010
0001
0000
0010
0000
0100
0000
0000
1000
,
0100
1000
0010
0100
0001
1000
0100
0000
,
1000
0000
0010
0000
0100
0000
0001
1000
0001
0000
1000
0000
0010
0000
0100
0001
,
0100
0000
0010
0000
1000
0000
0100
0010
0100
0000
1000
0000
0001
0000
0100
0010
,
0100
0000
0001
0000
1000
0000
0100
1000
0100
0000
0010
0000
0001
0000
0100
0010
,
0100
0000
0001
0000
1000
0000
0001
0010
0001
0000
0010
0000
0100
0000
1000
0001
,
0200
0000
0000
0000
,
0320
1000
0230
1000
,
0320
0001
0230
0001
,
0302
0000
0000
1003
0000
0000
1000
0100
1000
0100
0010
0001
,
1000
0010
0100
0001
0010
0100
1000
0010
,
0001
0010
1000
0100
0010
0001
1000
0010
,
1000
0100
1000
0001
0100
0001
1000
0100
1000
0001
0100
0001
,
1000
0001
1000
0001
1000
0001
1000
0001
1000
0100
0010
0001
1000
0010
0100
0001
,
2000
0000
0000
3000
,
1000
0001
1000
0001
1000
0001
1001
0000
1010
0000
0101
0000
,
0001
0010
0100
0001
0000
0000
1000
0010
0100
1000
0000
0000
,
0001
0100
0010
0001
0000
0000
1200
0000
0001
0000
0310
0000
,
1000
0100
0001
0010
0000
0000
0001
0100
1000
0001
0000
0000
,
1000
0100
0001
0010
0000
0000
0001
0010
0100
1000
0100
0010
,
0001
0100
1000
0100
0000
0000
0010
0001
0010
1000
0000
0000
,
1000
0100
0001
0100
1000
0010
0100
0001
0010
0100
0000
0000
,
1000
0000
1000
0000
1000
0001
0100
0000
0100
0000
0100
0010
,
1000
0000
1000
0000
1000
0001
0010
0000
0010
0000
0010
0000
,
1000
0010
0001
1000
0010
0001
1000
0100
0001
1000
0100
0001
,
1000
0010
0001
1000
0010
0001
1000
0000
0000
0000
0000
0000
,
0001
0010
0100
0001
0010
0100
0001
0100
1000
0001
0100
1000
,
0001
0010
0100
0001
0010
0100
0001
0000
0000
0000
0000
0000
,
1000
0010
0100
1000
0010
0100
1000
0100
0010
1000
0100
0010
,
1000
0010
0100
1000
0010
0100
1000
0001
0010
0100
0000
0000
,
0001
0000
1000
0000
0100
0000
1000
0000
0001
0000
0100
0010
0000
0000
1010
0000
,
1000
0000
0001
0000
0100
0000
0010
0000
1000
0000
0100
0010
0000
0000
0011
0000
,
0001
0000
1000
0000
0010
0000
0100
0000
0001
0000
1000
0100
0000
0000
0110
0000
,
0010
0000
0001
0000
1000
0000
0010
0000
0100
0000
0001
1000
0001
0000
0000
0000
,
0000
0010
0100
1000
0010
0001
1000
0100
,
0001
0010
1000
0001
0100
1000
1001
0000
,
0001
0010
0001
0000
0100
0010
0100
0000
0001
0010
0001
0000
1000
0100
1000
0000
,
0001
1000
0001
1000
0001
1000
0001
1000
0001
1000
0100
0010
0001
0000
0000
0000
,
2002
0000
0000
0000
,
0000
3003
0000
0000
,
0000
0000
0000
0000
;
#NOTES:
     dance-double:
     :
     Easy:
     7:
     :
00000000
00000000
00000000
00000000
,
00000000
00000000
00000000
00000000
,
00000000
00000000
00000000
00000000
,
00000000
00000000
00000000
00000000
,
00000000
00000000
00000000
00000000
,
00000000
00000000
00000000
00000000
,
00001000
00010000
00000100
00001000
,
00000001
00000100
00000010
00001000
,
00000001
00000001
00000001
00000000
00001000
00001000
00001000
00000000
,
00000020
00000000
00000000
00000030
,
00010000
00010000
00001000
00001000
,
00010000
00010000
00001000
00001000
,
00100000
00100000
00010000
00010000
,
10000000
10000000
00100000
00100000
,
10000000
01000000
00100000
00010000
,
01000000
00001000
00010000
00000010
,
00001000
00000000
00000001
00000000
00000100
00000100
00000100
00000000
,
00002002
00000000
00000000
00003003
,
00000220
00000000
00000000
00000330
,
00000010
00001010
00010000
00011000
,
00202000
00303000
00210000
00301000
,
00012000
00103000
00200000
00300000
,
02000000
03000000
21000000
30010000
,
01020000
00130000
00002000
00003000
,
00021000
00030100
00001200
00010300
,
00021000
00030100
00002200
00003300
,
00000012
00001003
00002100
00003001
,
00000102
00000013
00001100
00001010
,
00010000
00011000
01000000
00100000
,
10010000
01100000
00001000
00000000
,
00011000
00000000
00000000
00010000
00010000
00000000
,
00001000
00001000
00000000
00011000
00000000
00000000
,
00021000
00030100
00001200
00010300
,
00012000
00103000
00210000
00301000
,
00001000
00010000
01000000
10000000
,
00100000
01000000
00010000
10000000
,
01000000
00100000
00010000
10000000
,
01000000
00010000
00001000
00010000
,
00001000
00000100
00000001
00000010
,
00000100
00001000
00000010
00010000
,
00001000
00010000
00100000
01000000
,
00010000
10000000
01000000
00100000
,
00020000
00000000
00000000
00000000
,
00030000
00000000
00000000
00000000
,
00000000
00000000
00000000
00000000
,
00000000
00000000
00000000
00000000
,
10000000
10000000
10000000
00000000
00010000
00000000
01000000
00000000
,
00100000
00100000
00100000
00000000
10000000
00000000
01000000
00000000
,
00200000
00302000
00023000
00030200
,
00001300
00000001
00000100
00000010
,
00002002
00000000
00000000
00000000
,
00000003
00000000
00003000
00000000
,
00000021
00000130
00001200
00010300
,
00021000
00130000
01100000
00000000
,
10200000
01300000
02010000
03001000
,
00012000
00003010
00000110
00000000
,
00001200
00010300
00012000
00003010
,
00000210
00010300
00011000
00000000
,
00020000
00000000
02030000
00000000
,
03200000
00000000
00301000
00000000
,
00011000
00101000
00011000
01001000
,
01100000
00110000
00011000
00000000
,
00011000
00010010
00011000
00010100
,
00000110
00001010
00011000
00000000
,
00011000
01001000
00011000
00010100
,
00011000
00101000
00011000
00010010
,
00010000
01000000
00100000
00001000
,
00010000
00001000
00000100
00000010
,
00010000
00001000
00010000
00100000
,
01000000
00001000
00010000
00001000
,
00000000
00000010
00000001
00000001
,
00000100
00000100
00000010
00000010
,
00001000
00001000
00001000
00000000
00000001
00000001
00000001
00000000
,
00000100
00000010
00010000
00000000
,
00022000
00000000
00000000
00000000
,
00000000
00033000
00000000
00000000
,
00000000
00000000
00000000
00000000
;
#NOTES:
     dance-double:
     :
     Medium:
     12:
     :
00000000
00000000
00000000
00000000
,
00000000
00000000
00000000
00000000
,
00000000
00000000
00000000
00000000
,
00000000
00000000
00000000
00000000
,
00000000
00000000
00000000
00000000
,
00000000
00000000
00000000
00000000
,
00010000
00000000
00001000
00000000
01000000
00010000
00100000
00000000
,
00001000
00000000
00010000
00000000
00000100
00001000
00000010
00000000
,
00010000
00001000
01000000
00010000
00100000
01000000
10000000
00010000
,
02000000
00000000
00000000
03000000
,
00010000
00010000
10000000
10000000
,
01000000
01000000
00100000
00100000
,
00001000
00001000
00010000
00010000
,
00000100
00000100
00001000
00000001
,
00000100
00000001
00000010
00000000
00000100
00001000
00000010
00000000
,
00010000
00001000
00100000
00000000
00010000
01000000
00100000
00000000
,
10000000
10000000
00010000
00010000
10000000
01000000
00100000
00010000
,
02000000
00000000
00000000
03000000
,
20020000
00000000
00000000
30030000
00000000
00000000
10000000
01000000
10000000
01000000
00000000
00000000
,
00110000
00101000
00022000
00030000
,
00000200
00003300
00000110
00001010
,
00001001
00000110
00002002
00003003
,
00000001
00000100
00000010
00001000
00000000
00000000
00010010
00000000
00000000
00011000
00000000
00000000
,
00101000
00000000
00000000
00011000
00000000
00000000
00100000
00010000
00100000
00010000
00100000
01000000
,
10000000
00010000
00210000
01300000
,
12000000
03010000
00022000
00033000
,
00012000
00000000
00000000
00003100
00000000
00000000
00000110
00000000
00000000
00000010
00001000
00000010
,
00000100
00000000
00000000
00000001
00001000
00000001
00000010
00000000
00000000
00000001
00000000
00000001
,
00000100
00000000
00000010
00001000
00000000
00000100
00010000
00000000
00001000
00010000
00000000
00001000
,
00100000
00000000
00010000
01000000
00000000
00001000
00010000
00000000
00000000
00000000
00000000
00000000
,
00011000
00000000
00000000
00010000
00101000
00000000
,
00001000
00010010
00000000
00011000
00000000
00000000
,
00010000
00000100
00001000
00000100
00000000
00000000
00010000
00001000
00100000
00010000
00000000
00000000
,
10000000
01000000
00100000
00010000
00100000
01000000
20000000
00000000
00000000
30000000
00000000
00000000
,
00010000
01000000
00100000
00000000
00000000
10000000
01000000
00000000
,
00010000
00001000
00100000
00000000
00000000
00001000
00010000
00000000
,
00000100
00000010
00000001
00000000
00000000
00000100
00001000
00000000
,
00010000
00001000
00100000
00000000
00000000
01000000
10000000
00000000
,
00010000
01000000
00100000
00000000
10000000
00010000
00100000
00000000
,
01000000
00010000
00001000
00000000
01000000
00010000
00100000
00000000
,
00001000
00010000
00000100
00000000
00000010
00001000
00010000
00000000
,
00000100
00001000
00000010
00000000
00010000
00001000
00000100
00000000
,
00000002
00000000
00000000
00000000
,
00000023
00000000
00000000
00000000
,
00002030
00000000
00023000
00000000
,
00032000
00000000
00000000
00003000
00000000
00000000
00010000
00001000
00010000
00001000
00010000
00001000
,
01000000
00010000
00100000
01000000
10000000
00010000
01000000
00100000
,
00010000
00001000
00010000
00000100
00001000
00000100
00000010
00000001
,
00001000
00000100
00001000
00000001
00000100
00000001
00001000
00000100
00001000
00000001
00000100
00000001
,
00002000
00000000
00000000
00003000
,
00002020
00000000
00003000
00000000
,
00020030
00000000
00002000
00033000
,
00010000
00001000
00010000
00001000
00000000
00000000
01000000
00010000
01000000
00010000
00000000
00000000
,
10000000
01000000
10000000
01000000
00000000
00000000
00110000
00000000
00000000
00000000
00000000
00000000
,
00001000
00010000
00001000
00010000
00000000
00000000
00000100
00001000
00000100
00001000
00000000
00000000
,
00000001
00000100
00000001
00000100
00000000
00000000
00001010
00000000
00000000
00000000
00000000
00000000
,
00010000
00001000
00010000
00001000
00000000
00000000
01000000
00010000
10000000
01000000
00000000
00000000
,
00100000
00010000
10000000
00100000
00000000
00000000
02000000
00000000
00000000
03000000
00000000
00000000
,
00010000
00000000
10000000
00000000
10000000
01000000
00100000
00000000
00001000
00000000
00001000
00010000
,
00001000
00000000
00100000
00000000
00100000
00010000
00100000
00000000
00000000
00000000
00000000
00000000
,
00010000
00000000
10000000
01000000
00000000
00100000
00001000
00000000
00010000
00000100
00000000
00000010
,
00000001
00000000
00000100
00000010
00000000
00000000
00002000
00000000
00000000
00003000
00000000
00000000
,
00000001
00000000
00000010
00000100
00000000
00010000
00001000
00000000
00010000
00100000
00000000
10000000
,
01000000
00000000
00100000
00001000
00000000
00010000
00000100
00000000
00000000
00000000
00000000
00000000
,
00001000
00000000
00000001
00000100
00000000
00001000
00010000
00000000
00100000
10000000
00000000
00000000
,
00010000
10000000
00010000
10000000
00010000
01000000
00010000
00100000
01000000
10000000
00000000
00000000
,
00010000
00000000
00100000
00000000
01000000
00000000
10000000
00000000
00100000
00000000
00000000
00010000
00000000
00000000
00001000
00000000
,
00010000
00000000
00000100
00000000
00000010
00000000
00001000
00000000
00000010
00000000
00000000
00000001
00000000
00000000
00000100
00000000
,
00000010
00000000
00001000
00000000
00000100
00000000
00010000
00000000
00001000
00000000
00000000
01000000
00000000
00000000
10000000
00000000
,
01000000
00000000
00010000
00000000
00100000
00000000
01000000
00000000
10000000
00000000
00000000
10100000
00000000
00000000
00000000
00000000
,
00000000
00100000
01000000
01000000
00010000
00010000
10000000
10000000
,
01000000
01000000
00100000
00100000
00010000
00010000
01000000
00000000
,
00001000
00010000
00000100
00001000
00000010
00010000
00001000
01000000
,
00100000
00010000
00001000
00010000
00000100
00000010
00001000
00000000
,
00022000
00000000
00000000
00000000
,
00000000
00033000
00000000
00000000
,
00000000
00000000
00000000
00000000
;
#NOTES:
     dance-double:
     :
     Hard:
     15:
     :
00000000
00000000
00000000
00000000
,
00000000
00000000
00000000
00000000
,
00000000
00000000
00000000
00000000
,
00000000
00000000
00000000
00000000
,
00000000
00000000
00000000
00000000
,
00000000
00000000
00000000
00000000
,
00001000
00010000
00001000
00010000
00001000
00000100
00001000
00000100
,
00000001
00000010
00000001
00000010
00000100
00001000
00000100
00001000
,
00000010
00000000
00010000
00000000
00001000
00000000
00010000
00000000
00001000
00010000
00001000
00010000
00001000
00010000
00001000
00010000
,
00002000
00000000
00000000
00000000
,
00013000
01000000
10000000
00100000
,
01000000
00010000
10000000
01000000
,
00010000
00001000
00000010
00000001
,
00000100
00000010
00001000
00001001
,
00000001
00000010
00000100
00001000
00000010
00000100
00001000
00010000
,
01000000
00100000
00001000
00010000
00100000
01000000
00010000
10000000
,
00010000
00000000
00010000
00000000
00100000
00000000
00100000
00000000
01000000
10000000
01000000
10000000
01000000
10000000
01000000
10000000
,
02000000
00000000
00000000
03000000
,
10000000
01000000
00100000
00010000
00100000
01000000
10000000
10000000
00010000
01000000
00000000
00000000
,
10100000
01010000
00001000
00000100
,
00000001
00000010
00000100
00001000
00000100
00000010
00000001
00000000
00000000
00001100
00000000
00000000
,
00010000
00000000
01000000
00000000
10000000
00010000
01000000
00000000
,
00010000
10000000
01000000
10000000
00000000
00000000
01000000
00100000
00010000
00100000
00100000
00000000
,
00001000
00001000
00000000
00010000
00010000
00000000
00000100
00000100
00001000
00000001
00000100
00000010
,
00001000
00000000
00001000
00000001
00000000
00000000
00000101
00000000
00000000
00001010
00000000
00000000
,
00010000
00100000
02200000
03300000
,
00010000
10000000
00010000
01000000
00100000
10000000
01000000
00100000
00000000
00010000
00100000
00001000
,
00001000
00000000
00000000
00010000
00001000
00000100
00000010
00000000
00000000
00001000
00000001
00000001
,
00000100
00001000
00010000
00001000
00000000
00000000
01000000
00100000
10000000
00010000
00100000
01000000
,
10000000
00000000
00000000
10000000
01000000
00010000
00002000
00000000
00000000
00013000
00000000
00000000
,
00000100
00000000
00000000
00010000
00000000
00000000
00011000
00000000
00010010
00000000
00010000
00001000
,
00011000
00000000
00101000
00000000
00001000
00010000
00011000
00000000
00000000
00010100
00000000
00000000
,
00010000
00001000
00000010
00000100
00001000
00000100
00000010
00000001
00000001
00001000
00000010
00010000
,
00001000
00001000
00010000
00100000
01000000
00010000
20000000
00000000
00000000
30000000
00000000
00000000
,
00010000
00100000
00010000
00100000
01000000
10000000
00100000
00010000
,
00001000
00100000
00001000
00010000
00000100
00010000
00001000
00000010
,
00000001
00001000
00000001
00000100
00001000
00010000
00000100
00010000
,
00001000
01000000
00001000
00010000
00100000
10000000
01000000
00000000
,
00100000
00001000
00010000
01000000
00100000
00001000
00010000
00001000
,
00000010
00000001
00000010
00001000
00010000
00001000
01000000
00100000
,
10000000
00100000
00010000
00001000
00010000
01000000
10000000
01000000
,
00010000
00000000
00001000
00000000
00000010
00000000
00000001
00000000
00001000
00000000
00000010
00000000
00000100
00000001
00001000
00000000
,
00002002
00000000
00000000
00003003
,
00000002
00000023
00000230
00002300
,
00003020
00020030
00032000
02003000
,
03020000
00000000
00000000
00230000
00000000
00000000
01300000
10000000
01000000
00100000
00010000
10000000
,
00100000
00100000
10000000
10000000
01000000
01000000
00010000
00010000
,
00001000
00001000
00000100
00000100
00000010
00000010
00001000
00001000
,
00000001
00000100
00000010
00001000
00000100
00010000
00001000
00100000
00010000
01000000
00100000
10000000
,
00010000
10000000
00010000
10000000
00010000
10000000
00010000
10000000
00010000
00100000
01000000
10000000
01000000
00100000
00010000
10000000
,
00200000
00000000
00000000
00300000
,
10000000
00010000
10000000
00010000
10000000
00010000
10000000
00100000
01000000
00010000
00000000
00000000
,
10000000
01000000
00100000
00010000
00000000
00000000
01000000
00100000
00010000
00001000
00000000
00000000
,
00100000
00010000
00001000
00000100
00000000
00000000
00010000
00000000
00001000
00000000
00000100
00000000
,
00000001
00000010
00000100
00001000
00000000
00000000
00000010
00000100
00001000
00010000
00000000
00000000
,
00000100
00001000
00010000
00100000
00000000
00000000
00001000
00000000
00010000
00000000
00100000
00000000
,
10000000
00010000
01000000
01000000
00000000
00000000
00010000
00100000
00001000
00001000
00000000
00000000
,
00010000
00000100
00001000
00001000
00000000
00000000
00001000
00000000
00000100
00000000
00000010
00000000
,
00000001
00000000
00000001
00000000
00000001
00000100
00001000
00000000
00001000
00000000
00001000
00010000
,
01000000
00000000
01000000
00000000
01000000
00100000
00010000
00000000
00010000
00000000
00010000
00000000
,
00100000
00010000
00100000
01000000
10000000
00010000
01000000
00100000
01000000
00010000
00100000
00001000
,
00010000
00010000
00000100
00001000
00000001
00000100
00000010
00000000
00000000
00000000
00000000
00000000
,
00001000
00001000
00000001
00000010
00000100
00001000
00000010
00000010
00010000
00001000
00010000
00001000
,
01000000
01000000
00010000
00100000
01000000
10000000
00010000
00000000
00000000
00000000
00000000
00000000
,
10000000
10000000
01000000
00010000
00001000
00100000
00001000
00001000
00010000
00001000
00000100
00000010
,
00001000
00001000
00000001
00000010
00000100
00001000
00000010
00000010
00000100
00000001
00000100
00001000
,
00010000
00000000
00100000
00000000
01000000
00000000
00010000
00000000
10000000
00000000
01000000
00100000
00000000
00000000
00001000
00000000
,
00010000
00000000
01000000
00000000
00100000
00000000
00001000
00000000
00010000
00000000
00000010
00000100
00000000
00000000
00000001
00000000
,
00000010
00000000
00000100
00000000
00010000
00000000
00001000
00000000
00010000
00000000
00100000
01000000
00000000
00000000
00010000
00000000
,
10000000
00000000
01000000
00000000
00010000
00000000
00001000
00000000
00000010
00000000
00000001
00001000
00000001
00000000
00000000
00000000
,
00000000
00000001
00000001
00000010
00000010
00001000
00001000
00010000
,
00010000
00100000
00100000
01000000
01000000
00010000
00010000
00000000
,
10000000
01000000
10000000
00000000
01000000
00100000
01000000
00000000
00100000
00010000
00100000
00000000
00001000
00010000
00001000
00000000
,
00010000
00001000
00010000
00001000
00010000
00001000
00010000
00001000
00010000
00001000
00010000
00001000
00010000
00000000
00000000
00000000
,
00022000
00000000
00000000
00000000
,
00000000
00033000
00000000
00000000
,
00000000
00000000
00000000
00000000
;
