
//----- song ID: wolf -----//
#TITLE:Wolf's Rain;
#ARTIST:fu_mou;
#BANNER:Wolf's Rain.png;
#BACKGROUND:Wolf's Rain-bg.png;
#CDTITLE:./CDTitles/DDR A3.png;
#MUSIC:Wolf's Rain.ogg;
#SAMPLESTART:15.487;
#SAMPLELENGTH:15;
#BPMS:0=154;
#STAGE:15;
#NOTES:
     dance-single:
     :
     Beginner:
     4:
     :
0000
0000
0000
0000
,
0000
0000
0000
0000
,
0000
0000
0000
0000
,
0000
0000
0000
0000
,
0000
0000
0000
0000
,
0000
0000
0000
0000
,
1000
0000
0100
0000
,
1000
0000
0100
0000
,
0010
0000
0001
0000
,
0010
0000
0000
0000
,
0001
0000
0100
0000
,
0010
0010
0010
0000
,
0100
0000
0010
0000
,
1000
0000
0001
0000
,
1000
0000
0100
0000
,
0010
0010
0010
0000
,
0100
0000
0010
0000
,
0001
0000
1000
0000
,
0001
0000
0100
0000
,
0001
0001
0100
0000
,
1000
0000
0100
0000
,
1000
1000
0001
0000
,
1000
0000
0010
0000
,
1000
1000
0010
0000
,
0001
0000
0010
0000
,
1000
0000
0010
0000
,
1001
0000
0000
0000
,
0000
0000
0000
0000
,
0110
0000
0000
0000
,
0000
0000
0000
0000
,
1001
0000
0000
0000
,
0000
0000
0000
0000
,
0110
0000
0000
0000
,
0000
0000
0000
0000
,
1000
0000
0100
0000
,
0001
0001
0001
0000
,
1000
0000
0010
0000
,
0001
0001
0001
0000
,
0001
0000
0100
0000
,
1000
1000
1000
0000
,
0001
0000
0010
0000
,
1000
1000
1000
0000
,
0001
0000
0010
0000
,
0100
0100
1000
0000
,
0010
0000
0100
0000
,
0001
0001
1000
0000
,
0001
0000
0010
0000
,
0100
0100
0010
0000
,
1001
0000
0110
0000
,
1001
0000
0000
0000
,
0001
0001
0100
0000
,
0010
0000
1000
0000
,
0100
0100
0010
0000
,
0001
0000
0100
0000
,
1000
1000
0100
0000
,
0010
0000
0001
0000
,
1001
0000
0110
0000
,
1001
0000
0000
0000
,
0110
0000
1001
0000
,
0110
0000
0000
0000
,
1001
0000
0110
0000
,
1001
0000
0110
0000
,
1001
0000
0000
0000
,
0000
0000
0000
0000
;
#NOTES:
     dance-single:
     :
     Easy:
     7:
     :
0000
0000
0000
0000
,
0000
0000
0000
0000
,
0000
0000
0000
0000
,
0000
0000
0000
0000
,
0000
0000
0000
0000
,
0000
0000
0000
0000
,
0001
0100
0001
0100
,
1000
0100
1000
0100
,
0001
1000
0001
1000
,
2002
0000
0000
3003
,
1000
0100
1000
0010
,
0100
0010
0100
0100
,
0001
0100
0001
0010
,
0100
0010
0110
0000
,
1000
1000
0010
0100
,
0001
0001
0010
0100
,
1000
0010
0001
0010
,
1000
0100
0001
0100
,
1000
0010
0100
0001
,
0010
0100
1000
1000
,
0001
0100
0010
1000
,
0100
0010
1001
0000
,
0100
0010
0100
0010
,
1000
0001
1000
0001
,
0010
1000
0010
0001
,
0100
1000
0100
0001
,
1001
0000
0010
0000
,
0010
0010
0010
0000
,
1001
0000
0100
0000
,
0100
0100
0100
0000
,
0110
0000
1000
0000
,
0001
0001
0001
0000
,
0110
0000
0001
0000
,
1000
1000
1000
0000
,
0001
0001
0011
0000
,
0001
0010
0100
0000
,
1000
1000
1010
0000
,
1000
0010
0100
0000
,
0001
0001
0101
0000
,
0100
0001
0010
0000
,
1000
1000
1100
0000
,
0010
1000
0100
0000
,
0001
0100
0010
1000
,
0010
0000
0100
0000
0001
1000
0001
0000
,
1000
0100
0010
0100
,
0001
0000
0100
0000
0010
0100
0010
0000
,
1000
1000
0010
0010
,
0100
0100
0001
0001
,
1000
1010
0001
0011
,
1000
1010
0001
0001
,
1000
0010
0100
0001
,
0100
0000
0010
0000
1000
0001
1000
0000
,
0001
0010
0100
0010
,
1000
0000
0010
0000
0100
0010
0100
0000
,
0001
0001
0100
0100
,
0010
0010
1000
1000
,
0001
0101
1000
1100
,
0001
0101
1000
1000
,
0001
0110
1000
0110
,
0001
0000
0110
0000
1000
0000
0001
1000
,
0000
0000
0010
0010
0000
0000
1000
1000
,
0000
0000
0100
0100
0000
0001
0000
1000
,
0000
0000
0000
0000
;
#NOTES:
     dance-single:
     :
     Medium:
     11:
     :
0000
0000
0000
0000
,
0000
0000
0000
0000
,
0000
0000
0000
0000
,
0000
0000
0000
0000
,
0000
0000
0000
0000
,
0000
0000
0000
0000
,
0001
0100
0001
0000
1000
0010
1000
0010
,
0000
0100
0010
1000
0000
0100
0010
0001
,
0000
0100
0010
1000
0000
0100
0010
0002
,
0000
0000
0103
1001
,
1000
0010
1000
0010
0100
0001
0010
0001
,
0000
0100
0010
1000
0000
0100
0010
0001
,
0000
0100
0001
0100
0010
1000
0100
0010
,
0000
0100
0000
1100
0000
1001
0000
0100
,
1000
0010
0100
0001
0100
0010
1000
0100
,
0000
0010
0100
1000
0001
0010
0001
0010
,
0000
0100
1000
0001
0000
0100
0001
1000
,
0000
0010
1000
0002
0000
0000
1003
0001
,
0000
0001
1000
0000
0010
0100
0010
0100
,
0000
0001
0100
1000
0000
0100
0001
1000
,
0000
1100
0000
0100
0000
0110
0000
0011
,
0000
0000
1001
0000
0000
0000
1000
0000
0100
0000
0000
0100
0000
0000
0100
0000
,
1000
0010
1000
0000
0001
0100
0001
0010
,
0000
0100
0010
0100
0000
1000
0100
0001
,
0000
1000
0010
0001
0000
0001
0100
1000
,
0000
0001
0010
1000
0001
0001
0100
0000
,
0020
0000
0000
1030
1000
0000
0200
0000
,
0000
0310
0010
0000
0001
1000
0001
0000
,
2000
0000
0000
3010
0010
0000
0200
0000
,
0000
0301
0001
0000
1000
0001
1000
0001
,
0200
0000
0000
0301
0001
0000
0020
0000
,
0000
0130
0100
0000
1000
0001
1000
0000
,
0002
0000
0000
0103
0100
0000
0020
0000
,
0000
1030
1000
0000
0002
0003
2000
3000
,
0010
1000
0010
1000
0100
0010
0001
0000
,
0100
0010
0100
0010
1000
0001
0010
0000
,
0100
1000
0100
1000
0100
0001
0100
0000
,
1000
0010
1000
0010
0001
0010
1000
0000
,
0100
0010
0001
0010
0100
0001
0100
1000
,
0001
0100
0010
0100
1000
0100
0001
1000
,
0100
0010
0001
0100
0010
1000
0100
0001
,
0100
1000
0010
0001
0010
1000
0001
1001
,
0000
0100
0010
1000
0100
0010
0001
0100
,
0000
1000
0100
0001
0000
1001
0000
0110
,
0000
0010
0001
0100
0001
0100
0010
1000
,
0000
1100
0000
0101
0000
0011
0000
0110
,
0000
0000
1001
0000
1000
0010
0001
0010
,
0000
1000
0001
0010
0000
0100
1000
0010
,
0000
0100
0001
0010
0000
0100
1000
0010
,
0000
0101
0000
0220
0000
0000
0330
1001
,
0000
1000
0100
0001
0100
1000
0001
0010
,
0000
0100
1000
0010
0100
0010
0000
1010
,
0000
0001
0100
1000
0000
0001
0010
1000
,
0000
0000
0100
0000
0001
0000
0100
0000
0010
0000
0000
0011
0000
0000
0101
0000
,
0010
1000
0100
0001
0100
1000
0010
0001
,
0010
0100
0001
0010
0100
0001
0100
1000
,
0000
0001
0010
1000
0000
0001
0100
1000
,
0000
0100
0010
0100
0000
1000
0010
0001
,
0000
1000
0100
0001
0000
1000
0010
0001
,
0000
0010
0100
0010
0000
1000
0100
0011
,
0000
0001
0100
1010
0000
0001
1000
0110
,
0000
1000
0001
0110
0000
1000
0000
1001
,
0000
0000
0000
0000
;
#NOTES:
     dance-single:
     :
     Hard:
     14:
     :
0000
0000
0000
0000
,
0000
0000
0000
0000
,
0000
0000
0000
0000
,
0000
0000
0000
0000
,
0000
0000
0000
0000
,
0000
0000
0000
0000
,
0001
1000
0001
1000
0001
0010
0001
0010
,
0001
0100
0001
0100
0010
1000
0100
0100
,
0000
0010
0001
0100
0000
0010
1000
0200
,
0000
0001
1000
0300
,
1000
0100
0001
0100
1000
0001
0100
1000
,
0100
0010
0100
0001
1000
0010
0100
0010
,
0001
0010
0001
0010
1000
0001
0100
1000
,
0100
0000
1000
0000
0100
0000
0001
0000
1000
0000
0100
0010
0000
0001
0010
0000
,
0001
0100
0010
0001
1000
0100
0010
1000
,
0001
0100
1000
0001
0010
1000
0100
1100
,
0000
0100
0001
0101
0000
0001
0010
0011
,
0000
0010
1000
1010
0000
1000
0001
0002
,
0000
0103
1000
0100
0001
1000
0100
0001
,
0100
0010
0100
1000
0001
0010
0100
0010
,
1000
0010
1000
0010
0001
1000
0100
0001
,
0100
0000
0001
0000
0100
0000
1000
0000
0001
0000
0100
0010
0000
1000
0010
0000
,
1000
0100
0010
1000
0001
0100
0010
0001
,
1000
0100
0001
1000
0010
0001
0100
0101
,
0000
0100
1000
1100
0000
1000
0010
1010
,
0000
0010
0001
0011
0000
0010
1001
0000
,
0110
0000
0000
0010
0001
0000
0101
0000
,
0000
0100
1000
0000
1000
0010
0000
0010
,
0011
0000
0000
0010
1000
0000
1100
0000
,
0000
0100
0001
0000
0001
0010
0000
0010
,
1010
0000
0000
0100
0010
0000
1010
0000
,
0000
1000
0010
0000
0010
0100
0000
0100
,
1100
0000
0000
0010
0001
0000
0011
0000
,
0000
0000
0001
0000
0010
0000
0000
0000
0020
0030
0000
0000
0200
0300
0000
0000
,
1000
0000
0001
0010
0001
0000
0100
0000
0010
1000
0010
0000
1000
0000
0100
0000
,
0001
0100
1000
0100
0001
0100
1000
0000
,
0001
0000
1000
0010
1000
0000
0100
0000
0010
0001
0010
0000
0001
0000
0100
0000
,
1000
0100
0001
0100
1000
0100
0001
0000
,
1000
0100
0010
0001
1000
0100
0010
0001
,
1000
0010
0100
0001
1000
0010
0100
0001
,
1000
0100
0010
0000
0001
0000
0100
0000
0010
1000
0001
0000
1000
0000
0010
0000
,
0100
0010
1000
0000
0100
0010
0001
0000
1000
0001
1000
0001
1000
0000
1001
0000
,
0000
0000
0100
0010
0100
0000
0001
0000
1000
0100
0010
0000
0001
0000
0100
0000
,
0010
1000
0100
1000
0010
1000
0100
0010
,
0001
0100
0001
0000
1000
0010
1000
0000
0001
0010
0001
0000
1000
0100
1000
0000
,
0001
0000
0100
0000
0010
0000
1000
0000
0001
0000
1000
0001
0000
1000
0001
0000
,
1000
0000
0010
1000
0100
0000
0010
0000
0001
0000
0100
0000
1000
0000
0100
0000
,
0001
0000
0010
0001
0100
0000
0010
0000
1000
0000
0100
0000
0001
0000
0101
0000
,
0000
0100
1000
1100
0000
1000
0010
1010
,
0000
0000
0001
0000
0010
0000
0011
0000
0100
0000
0010
1000
0001
1000
0001
0000
,
0000
0000
0100
0010
0100
0000
0001
0000
1000
0100
0010
0000
0001
0000
0100
0000
,
0001
0010
0001
0100
0001
0010
0100
1000
,
0010
0100
0001
0000
1000
0000
0001
0000
0100
0010
1000
0000
0100
0000
0010
0000
,
0001
0010
0100
0000
1000
0000
0010
0000
0100
0000
0001
1000
0000
1000
0001
0000
,
1000
0100
1000
0000
0010
0100
0001
0000
0010
0001
0010
0000
0001
1000
0010
0000
,
0100
0010
1000
0000
0100
0010
0001
0000
0010
0100
1000
0000
0010
0000
0110
0000
,
0000
0000
0010
0100
0001
0000
0101
0000
0000
0000
0001
0010
0100
0000
1100
0000
,
0000
0000
1000
0100
0010
0000
0011
0000
0000
0000
0101
0000
0110
0000
1010
0000
,
0000
0000
1000
0001
0100
0000
1010
0000
0000
0000
0001
1000
0100
0000
0011
0000
,
0000
0000
0010
0001
0100
0000
0010
0000
1000
0000
0010
0100
0000
0001
1000
0000
,
0000
0000
0001
0010
0100
1000
0010
0000
0000
0000
1000
0010
0100
0001
0010
0000
,
0000
0000
0100
1000
0010
0100
0001
0000
0000
0000
0110
0000
0000
0000
1001
0000
,
0000
0000
0000
0000
;
#NOTES:
     dance-double:
     :
     Easy:
     7:
     :
00000000
00000000
00000000
00000000
,
00000000
00000000
00000000
00000000
,
00000000
00000000
00000000
00000000
,
00000000
00000000
00000000
00000000
,
00000000
00000000
00000000
00000000
,
00000000
00000000
00000000
00000000
,
10000000
01000000
00100000
01000000
,
00100000
00001000
00010000
00001000
,
00010000
00000100
00001000
00000010
,
00000220
00000000
00000000
00000330
,
00000001
00000100
00000010
00000100
,
00000001
00000010
00000100
00000000
,
00010000
00100000
00010000
00100000
,
10000000
00100000
10000000
00000000
,
01000000
01000000
00100000
00000000
,
00001000
00001000
00010000
00000000
,
00000100
00000010
00000100
00000010
,
00000001
00001000
00000001
00000000
,
00001000
00000100
00000001
00000100
,
00001000
00000001
00001000
00000000
,
00000010
00000100
00001000
00000000
,
00010000
00100000
01000000
00000000
,
00010000
01000000
10000000
01000000
,
00010000
10000000
00010000
00000000
,
01000000
00100000
00010000
00000000
,
00001000
00000100
00000010
00000000
,
00002000
00000000
00000001
00000000
,
00000100
00000000
00003100
00000000
,
00000200
00000000
00010000
00000000
,
00001000
00000000
00010300
00000000
,
00020000
00000000
00001000
00000000
,
00100000
00000000
00130000
00000000
,
00200000
00000000
00010000
00000000
,
10000000
00000000
10300000
00000000
,
01000000
00010000
00001000
00010000
,
01000000
00010000
00001000
00000000
,
00000100
00001000
00010000
00001000
,
00000100
00001000
00010000
00000000
,
00100000
00010000
00001000
00000000
,
00000010
00001000
00010000
00000000
,
00001000
00001000
00010000
00010000
,
00022000
00000000
00000000
00033000
,
00001000
00010000
00000010
00001000
,
00000100
00000000
00000010
00000000
00000001
00001000
00000001
00000000
,
00000100
00000100
00001000
00001000
,
00010000
00000000
00010000
00000000
00100000
01000000
00100000
00000000
,
10000000
01000000
00010000
01000000
,
10000000
00100000
00010000
00001000
,
00100000
00011000
00000010
00011000
,
01000000
00011000
00001000
00001000
,
00010000
00001000
01000000
00010000
,
00100000
00000000
01000000
00000000
10000000
00010000
10000000
00000000
,
00100000
00100000
00010000
00010000
,
00001000
00000000
00001000
00000000
00000100
00000010
00000100
00000000
,
00000001
00000010
00001000
00000010
,
00000001
00000100
00001000
00010000
,
00000010
00011000
00100000
00011000
,
00000100
00000000
00011000
00000000
00010000
00001000
00010000
00000000
,
00000100
00011000
01000000
00011000
,
00000010
00000000
00011000
00000000
00010000
00001000
00010000
00001000
,
00000000
00000000
00100000
00100000
00000000
00000000
01000000
01000000
,
00000000
00000000
10000000
10000000
00000000
00100000
00000000
01000000
,
00000000
00000000
00000000
00000000
;
#NOTES:
     dance-double:
     :
     Medium:
     11:
     :
00000000
00000000
00000000
00000000
,
00000000
00000000
00000000
00000000
,
00000000
00000000
00000000
00000000
,
00000000
00000000
00000000
00000000
,
00000000
00000000
00000000
00000000
,
00000000
00000000
00000000
00000000
,
00010000
00001000
00010000
00000000
00100000
00000000
00010000
00000000
,
00001000
00010000
00001000
00000000
00000010
00000000
00001000
00000000
,
00010000
00001000
00100000
00000000
00001000
00010000
00000010
00000000
,
00022000
00003000
00031000
00011000
,
00001000
00100000
00010000
00100000
01000000
00010000
01000000
00100000
,
00000000
00010000
01000000
00100000
00000000
01000000
00001000
00010000
,
00000000
00000100
00001000
00000010
00001000
00000100
00010000
00000010
,
00000000
00000100
00001000
00000100
00000000
00000010
00010000
00000010
,
00000000
00000000
00011000
00000000
00001000
00010000
00001000
00010000
,
00000000
00001000
00100000
00010000
00000000
01000000
00100000
00010000
,
00000000
00100000
00010000
00001000
00000000
00010000
00001000
00000100
,
00000000
00001000
00000100
00000020
00000000
00000000
00000000
00010030
,
00000000
00000010
00001000
00000010
00000100
00001000
00000100
00000010
,
00000000
00001000
00000100
00000010
00000000
00000100
00010000
00001000
,
00000000
01000000
00010000
00100000
00010000
01000000
00001000
00100000
,
00000000
00000000
01000000
00000000
00010000
00000000
01000000
00000000
00100000
00000000
00000000
00001000
00000000
00000000
00010000
00000000
,
00000000
00010000
00001000
00000000
00010000
00001000
00010000
00001000
,
00000000
00010000
00000010
00001000
00000000
00000100
00000010
00001000
,
00000000
00000010
00001000
00010000
00000000
00001000
00010000
01000000
,
00000000
00010000
01000000
00100000
00001000
00001000
00010000
00000000
,
00200000
00000000
10000000
00000000
,
01000000
00000000
00310000
00000000
,
00000020
00000000
00001000
00000000
,
00000100
00000000
00000031
00000000
,
00000200
00000000
00000001
00000000
,
00000010
00000000
00001300
00000000
,
02000000
00000000
00010000
00000000
,
00100000
00000000
13000000
01000000
,
00100000
10000000
00100000
10000000
01000000
00100000
01000000
00000000
,
00100000
00010000
00100000
00001000
00010000
00001000
00010000
00000000
,
00000100
00001000
00000100
00001000
00000010
00001000
00000010
00000000
,
00000100
00000001
00000100
00000001
00000010
00000001
00000010
00000000
,
00000001
00001000
00000010
00000000
00000100
00000010
00001000
00000000
,
00000100
00010000
00001000
00000000
00100000
00010000
00100000
00000000
,
01000000
10000000
00100000
01000000
00010000
00100000
00001000
00010000
,
00000100
00001000
00000010
00000100
00000001
00000010
00000001
00001000
,
00000000
00000010
00000100
00000010
00001000
00000100
00010000
00001000
,
00000000
00100000
00010000
01000000
00000000
01100000
00000000
00100000
,
00000000
01000000
00010000
00100000
00000000
01100000
00000000
00101000
,
00000000
00011000
00000000
00010100
00000000
00000110
00000000
00001100
,
00000000
00000000
00000010
00000100
00000010
00001000
00000100
00001000
,
00000000
00000010
00010000
00000010
00000000
00000100
00001000
00010000
,
00000000
00001000
00010000
00100000
00000000
00010000
00100000
01000000
,
00000000
01010000
00000000
01100000
00000000
01000000
00010000
00100000
,
00000000
00010000
01000000
00001000
00100000
00001000
00010000
00001000
,
00000000
00010000
00000100
00001000
00000000
00001010
00000000
00000110
,
00000000
00000100
00001000
00010000
00000000
00000010
00010000
00001000
,
00000000
00000000
00100000
00000000
00010000
00000000
01000000
00000000
00100000
00000000
00000000
00100000
00000000
00000000
00100000
00000000
,
01000000
00001000
00010000
00100000
01000000
00001000
00010000
00000010
,
00001000
00000100
00010000
00000010
00001000
00000100
00000010
00001000
,
00000000
00010000
00001000
00010000
00000000
00100000
01000000
00100000
,
00000000
02000000
00000000
03010000
00000000
00100000
00001000
00010000
,
00000000
00000100
00001000
00000010
00000000
00010000
00001000
00000010
,
00000000
00000001
00001000
00000001
00000000
00000001
00000100
00001000
,
00000000
00000100
00001000
00010000
00000000
00001000
00010000
00100000
,
00000000
00010000
00100000
10000000
00000000
01100000
00000000
10010000
,
00000000
00000000
00000000
00000000
;
#NOTES:
     dance-double:
     :
     Hard:
     14:
     :
00000000
00000000
00000000
00000000
,
00000000
00000000
00000000
00000000
,
00000000
00000000
00000000
00000000
,
00000000
00000000
00000000
00000000
,
00000000
00000000
00000000
00000000
,
00000000
00000000
00000000
00000000
,
00000010
00000001
00000010
00000001
00000100
00000001
00000100
00000001
,
00001000
00000010
00001000
00000100
00010000
00001000
00010000
00100000
,
00000000
00100000
10000000
01000000
00000000
01000000
00100000
00002000
,
00000000
00100000
00003010
00000110
,
00000001
00000010
00001000
00000010
00000001
00000100
00001000
00010000
,
00100000
01000000
00001000
00010000
01000000
00100000
00001000
00010000
,
00100000
10000000
00100000
10000000
01000000
00100000
01000000
00100000
,
00001000
00000000
00010000
00000000
00001000
00000000
00010000
00000000
01000000
00000000
10000000
00010000
00000000
10000000
00010000
00000000
,
01000000
00100000
00010000
00100000
10000000
01000000
00100000
00001000
,
00010000
00000010
00000100
00000001
00000010
00000100
00000100
00000100
,
00000000
00010000
00010000
00010000
00000000
00001000
00001000
00001000
,
00000000
01000000
01000000
02000000
00000000
03000000
00010000
01000000
,
00000000
00100000
01000000
00100000
10000000
01000000
00010000
00001000
,
00000010
00000100
00010000
00001000
00000100
00000010
00010000
00001000
,
00000010
00000001
00000010
00000001
00000100
00000010
00000100
00000010
,
00010000
00000000
00001000
00000000
00010000
00000000
00001000
00000000
00000100
00000000
00000001
00001000
00000000
00000001
00001000
00000000
,
00000100
00000010
00001000
00000010
00000001
00000100
00000010
00010000
,
00001000
00100000
01000000
10000000
00100000
01000000
01000000
01000000
,
00000000
00001000
00001000
00001000
00000000
00010000
00010000
00010000
,
00000000
00000100
00000100
00000100
00000010
00000010
00001001
00000000
,
00000110
00000000
00000000
00000010
00000100
00000000
00011000
00000000
,
00000000
01000000
00100000
00000000
00100000
10000000
01000000
00000000
,
01100000
00000000
00000000
00100000
01000000
00000000
00011000
00000000
,
00000000
00000100
00000010
00000000
00000010
00000001
00001000
00000000
,
00001001
00000000
00000000
00001000
00010000
00000000
00011000
00000000
,
00000000
00010000
10000000
00000000
00100000
00100000
00100000
00000000
,
10010000
00000000
00000000
00010000
00001000
00000000
00011000
00000000
,
00000000
00000000
00001000
00000000
00000001
00000000
00000000
00000000
00000020
00000030
00000000
00000000
00000200
00000300
00000000
00000000
,
00001000
00000010
00000100
00001000
00010000
00000100
00000010
00001000
,
00010000
01000000
00100000
00001000
00010000
00100000
01000000
00001000
,
00010000
01000000
00010000
00001000
00000010
00001000
00010000
00001000
,
00000100
00010000
01000000
00100000
00010000
00001000
00010000
01000000
,
00100000
00010000
00001000
00000100
00000010
00001000
00010000
00001000
,
00000100
00000010
00001000
00010000
01000000
00100000
00010000
00001000
,
00010000
00001000
00010000
00000000
01000000
00000000
00100000
00000000
00001000
00010000
00001000
00000000
00000100
00000000
00000010
00000000
,
00001000
00000100
00000010
00000000
00000100
00010000
00001000
00000000
00010000
00001000
01000000
00010000
01000000
00000000
01100000
00000000
,
00000000
00000000
10000000
00010000
10000000
00000000
00100000
00000000
10000000
00000000
01000000
00000000
00100000
00000000
00001000
00000000
,
00010000
00100000
00001000
00100000
00010000
00001000
00010000
00000100
,
00001000
00000010
00001000
00000000
00000001
00000000
00000100
00000000
00000001
00000010
00000001
00000000
00001000
00000000
00000100
00000000
,
00010000
00000000
00001000
00000000
00100000
00000000
00010000
00000000
10000000
00000000
00100000
01000000
00000000
00100000
01000000
00000000
,
00010000
00010000
01000000
10000000
00010000
00010000
00100000
10000000
,
01000000
00000000
00100000
00000000
00001000
00000000
00010000
00000000
00000100
00000000
00001000
00000010
00000100
00000000
00000010
00000000
,
00000000
00000000
00000100
00000010
00001000
00000000
00000100
00000000
00000000
00000000
00010000
00001000
00100000
00000000
01000000
00000000
,
00000000
00000000
00010000
00001000
00010000
00000000
00000100
00000000
00001000
00000000
00000001
00000100
00000001
00000100
00000001
00000000
,
00000000
00000000
00000001
00001000
00000001
00000000
00000100
00000000
00000001
00000000
00000010
00000000
00000100
00000000
00010000
00000000
,
00001000
00000100
00010000
00000100
00001000
00010000
00001000
00100000
,
00010000
01000000
00010000
00000000
10000000
00000000
00100000
00000000
10000000
01000000
10000000
00000000
00010000
00000000
00100000
00000000
,
00001000
00000000
00010000
00000000
00000100
00000000
00001000
00000000
00000001
00000000
00000100
00000010
00000000
00000100
00000010
00000000
,
00001000
00000100
00000010
00000000
00000001
00000100
00000010
00000000
00001000
00000100
00010000
00000000
00001000
00000000
00100000
00000000
,
00010000
00100000
01000000
00000000
10000000
00100000
01000000
00000000
00010000
10000000
00010000
00000000
01000000
00000000
01000000
00000000
,
00000000
00000000
00100000
10000000
01000000
00000000
00100000
00000000
00000000
00000000
00010000
01000000
00001000
00000000
00010000
00000000
,
00000000
00000000
00000100
00001000
00000010
00000000
00000100
00000000
00000000
00000000
00000101
00000000
00000001
00000000
00000011
00000000
,
00000000
00000000
00000001
00000100
00001000
00000000
00010000
00000000
00000000
00000000
00001000
00100000
00010000
00000000
01000000
00000000
,
00000000
00000000
00100000
01000000
00100000
00000000
10000000
00000000
10100000
00000000
00000000
01010000
00000000
00000000
11000000
00000000
,
00000000
00000000
10000000
01000000
00010000
00000000
00001000
00000000
00000000
00000000
00010000
00000010
00000100
00000000
00000001
00000000
,
00000000
00000000
00000010
00001000
00010000
00000000
00001000
00000000
00000000
00000000
00010000
00000000
00000000
00000000
00011000
00000000
,
00000000
00000000
00000000
00000000
;
