
//----- song ID: whst -----//
#TITLE:White Stream;
#ARTIST:BEMANI Sound Team "ZAQUVA";
#BANNER:White Stream.png;
#BACKGROUND:White Stream-bg.png;
#CDTITLE:./CDTitles/GITADORA HIGH-VOLTAGE.png;
#MUSIC:White Stream.ogg;
#SAMPLESTART:47.687;
#SAMPLELENGTH:15;
#BPMS:0=222;
#BGSTAGE:3;
#NOTES:
     dance-single:
     :
     Beginner:
     4:
     :
0000
0000
0000
0000
,
0000
0000
0000
0000
,
0000
0000
0000
0000
,
0000
0000
0000
0000
,
0000
0000
0000
0000
,
0000
0000
0000
0000
,
0000
0000
0000
0000
,
0000
0000
0000
0000
,
0000
0000
0000
0000
,
0000
0000
0000
0000
,
1000
0000
0000
0000
,
0000
0000
0000
0000
,
1000
0000
0000
0000
,
0000
0000
0000
0000
,
0010
0000
0000
0000
,
0000
0000
0000
0000
,
0010
0000
0000
0000
,
0000
0000
0000
0000
,
0100
0000
0000
0000
,
0000
0000
0000
0000
,
0100
0000
0000
0000
,
0000
0000
0000
0000
,
0001
0000
0000
0000
,
0000
0000
0000
0000
,
0001
0000
0000
0000
,
0000
0000
0000
0000
,
0001
0000
0000
0000
,
0001
0000
0000
0000
,
0010
0000
0000
0000
,
0000
0000
0000
0000
,
0010
0000
0000
0000
,
0010
0000
0000
0000
,
0100
0000
0000
0000
,
0000
0000
0000
0000
,
1001
0000
0000
0000
,
0000
0000
0010
0000
,
0000
0000
0000
0000
,
1001
0000
0000
0000
,
0000
0000
0100
0000
,
0000
0000
0000
0000
,
0000
1000
0000
0000
,
0000
1000
0000
0000
,
0000
0010
0000
0000
,
0000
0100
0000
0000
,
0000
0010
0000
0000
,
0000
0000
0000
0000
,
0000
0001
0000
0000
,
0000
0000
0000
0000
,
0000
0100
0000
0000
,
0000
0000
0000
0000
,
0000
2000
0000
0000
,
0000
3000
0000
0000
,
0000
1000
0000
0000
,
0000
0010
0000
0000
,
0000
1000
0000
0000
,
0000
0000
0000
0000
,
0000
1000
0000
0000
,
0000
0100
0000
0000
,
0000
0100
0000
0000
,
0000
0000
0000
0000
,
0000
0010
0000
0000
,
0000
0010
0000
0000
,
0000
0001
0000
0000
,
0000
0000
0000
0000
,
0000
0001
0000
0000
,
0000
0001
0000
0000
,
0000
0010
0000
0000
,
0000
0000
0000
0000
,
0000
0001
0000
0000
,
0000
0001
0000
0000
,
0000
0100
0000
0000
,
0000
0010
0000
0000
,
0000
0100
0000
0000
,
0000
0000
0000
0000
,
0000
1001
0000
0000
,
0000
0000
0000
0000
,
0000
1000
0000
1000
,
0000
0100
0000
0000
,
0000
1000
0000
0000
,
0000
0010
0000
0000
,
0000
0100
0000
0100
,
0000
0001
0000
0000
,
0000
0001
0000
0000
,
0000
0000
0000
0000
,
0000
0001
0000
0001
,
0000
0010
0000
0000
,
0000
0001
0000
0000
,
0000
0100
0000
0000
,
0000
0010
0000
0010
,
0000
0100
0000
0000
,
0000
0020
0000
0000
,
0000
0030
0000
0000
,
0000
0200
0000
0000
,
0000
0300
0000
0000
,
0000
1000
0000
1000
,
0000
0010
0000
0000
,
0000
2000
0000
0000
,
0000
3000
0000
0000
,
0000
1000
0000
0000
,
0000
0010
0000
0000
,
0000
0002
0000
0000
,
0000
0003
0000
0000
,
0000
0001
0000
0001
,
0000
0010
0000
0000
,
0000
0002
0000
0000
,
0000
0003
0000
0000
,
0000
0100
0000
0010
,
0000
0100
0000
0000
,
0000
0010
0000
0000
,
0000
1001
0000
0000
,
0000
0000
0000
0000
;
#NOTES:
     dance-single:
     :
     Easy:
     8:
     :
0000
0000
0000
0000
,
0000
0000
0000
0000
,
0000
0000
0000
0000
,
0000
0000
0000
0000
,
0000
0000
0000
0000
,
0000
0000
0000
0000
,
0000
0000
0000
0000
,
0000
0000
0000
0000
,
0000
0000
0000
0000
,
0000
0000
0000
0000
,
1000
0000
0010
0000
,
1000
0100
1000
0000
,
0001
0000
0010
0000
,
0001
1000
0001
0000
,
1000
0000
0010
0000
,
0100
0001
0100
0000
,
0010
1000
0001
0000
,
0100
0001
1000
0000
,
0002
0000
0000
0000
,
0000
0000
0000
0003
,
0020
0000
0000
0000
,
0000
0000
0000
0030
,
0200
0000
0000
0000
,
0000
0000
0000
0300
,
1000
0000
1001
0000
,
0001
1000
0001
0000
,
1000
0000
0010
0000
,
0100
0001
0100
0000
,
0001
0010
0001
0000
,
1000
0100
1000
0000
,
0002
0000
0000
0003
,
2000
0000
0000
3000
,
0010
0000
0100
0000
,
0010
0100
0010
0000
,
1000
0000
1000
0100
,
0000
0000
0110
0000
,
0000
0011
0000
0000
,
0001
0000
0001
0100
,
0000
0000
0110
0000
,
0000
1010
0000
0000
,
1000
0001
0000
1000
,
0010
0000
1000
0100
,
1000
0001
0000
0100
,
0010
0100
0000
0110
,
0000
0001
0010
0001
,
1000
0002
0000
0000
,
0003
1000
0010
1000
,
0001
2000
0000
0000
,
3000
0001
0100
0010
,
0000
1000
0100
0010
,
0000
0001
0010
0100
,
1000
0002
0000
0000
,
0003
1001
0000
0110
,
0000
1000
0100
0010
,
0000
1001
0000
0110
,
0000
0001
0100
0010
,
0000
2000
0000
0000
,
3000
0002
0000
0000
,
0003
2002
0000
0000
,
0000
0000
0000
0000
,
3003
1000
0010
0100
,
0001
1000
0001
0100
,
0000
0001
0010
0001
,
0000
0010
0100
1000
,
0000
0001
0100
0001
,
0100
0010
1000
0010
,
0000
2000
0000
0000
,
3000
0200
0000
0000
,
0300
0020
0000
0000
,
0030
0002
0000
0000
,
0003
1000
0010
0100
,
0000
0010
0100
0001
,
0000
2002
0000
0000
,
0000
0000
0000
0000
,
3003
0220
0000
0000
,
0000
0000
0000
0330
,
0000
0001
0000
0001
,
0000
0100
0010
0100
,
0000
0001
0000
1000
,
0000
0100
0010
0100
,
0000
2000
0000
0000
,
3000
0200
0000
0000
,
0300
0010
0001
0100
,
0010
2000
0000
0000
,
3000
1000
0001
0100
,
0001
0010
0100
0010
,
0000
0001
0100
0001
,
1000
0010
0100
0010
,
0000
1000
0000
0100
,
0000
0010
0001
1000
,
0001
0200
0000
0000
,
0300
0001
0100
0010
,
1000
0020
0000
0000
,
0030
0010
0000
1000
,
0001
0200
0000
0000
,
0300
0100
0010
0100
,
0001
2000
0000
0000
,
3000
1000
0000
0100
,
0010
0002
0000
0000
,
0003
0001
0010
0100
,
1000
0001
0000
0011
,
0000
0010
0001
1000
,
0000
0010
0000
1010
,
0000
1000
0001
0100
,
0000
0101
0000
0001
,
0100
0010
1000
0100
,
0000
1100
0000
1000
,
0010
0100
0001
1000
,
0000
0000
0100
0000
0000
0100
0000
0100
,
0000
0100
0000
0000
0000
0000
0000
0000
,
0000
0000
0000
0000
;
#NOTES:
     dance-single:
     :
     Medium:
     13:
     :
0000
0000
0000
0000
,
0000
0000
0000
0000
,
0000
0000
0000
0000
,
0000
0000
0000
0000
,
0000
0000
0000
0000
,
0000
0000
0000
0000
,
0000
0000
0000
0000
,
0000
0000
0000
0000
,
0000
0000
0000
0000
,
0000
0000
0000
0000
,
0001
0000
1000
0000
0100
0010
0100
0000
,
1000
0000
0001
0000
0010
0100
1000
0000
,
0001
0100
0001
0000
1000
0010
1000
0000
,
0001
1000
1001
0000
,
1000
0000
0001
0000
0100
0010
0100
0000
,
0001
0000
1000
0000
0010
0100
0001
0000
,
1000
0100
1000
0000
0001
0010
0001
0000
,
1000
0001
1001
0000
,
2000
0000
0000
0000
,
0010
0000
0001
0000
,
3200
0000
0000
0000
,
0001
0000
0010
0000
,
2300
0000
0000
0000
,
0002
0000
0000
3003
,
0001
0000
0010
0100
0000
1000
0001
1000
,
0000
0110
0000
0001
1000
0001
1000
0000
,
0001
0000
0000
0010
0100
0000
0000
1000
,
0000
0001
1000
0000
0001
0000
0000
0000
,
1000
0000
0000
0010
0100
0000
0000
0001
,
0000
1000
0001
0000
1000
0000
0000
0000
,
0002
0000
0000
0003
,
0200
0000
0000
0300
,
0010
0000
1000
0100
0000
1000
0010
1000
,
0000
0001
0000
1001
0000
1000
0001
0000
,
1000
0000
0001
0010
0000
0001
0010
0000
,
0100
1000
0002
0000
,
1000
2003
0000
0001
,
3001
0000
1000
0010
0000
1000
0010
0000
,
0100
0001
0100
0200
,
0010
0320
1000
2030
,
0001
0000
3001
0000
0100
0010
0000
0100
,
0010
0000
1000
0000
0001
0000
0010
0100
,
0010
0100
0010
0000
0001
0000
1000
0010
,
0100
0000
0110
0000
0000
1001
0000
0000
,
1000
0001
0000
0001
0000
0100
0000
0100
,
0000
0010
1000
0010
0000
0100
0000
0001
,
0000
1001
0000
0000
1000
0000
0100
0010
,
0000
0001
1000
0001
0000
0100
0000
0010
,
0000
0110
0000
0000
2000
0000
3020
0000
,
0130
0001
0000
0000
0002
0000
0023
0000
,
0130
1000
0200
0000
0302
0000
0203
0000
,
1300
0001
0000
0100
0000
0001
0000
1000
,
0001
0000
2000
0000
3002
0000
0013
0100
,
0010
0001
0000
1000
0000
0010
0000
0100
,
0000
0010
1000
0000
0001
0000
0100
0010
,
1000
0001
0000
0010
0000
0100
0000
0010
,
0000
0001
1000
0000
0100
0000
0001
0100
,
0000
1000
0000
0001
0000
0010
0001
0100
,
0001
0200
0000
0000
,
0000
0020
0000
0000
,
0330
0000
1000
0000
0010
0000
1000
0001
,
1000
0000
0001
0010
0100
1000
0001
0000
,
0000
0000
1000
0000
0001
0000
0100
0010
,
1000
0000
0001
0000
1000
0000
0100
0010
,
0001
1000
0010
0001
,
0010
0000
1000
0000
0001
1000
0010
0100
,
0001
2000
0000
3020
,
0000
0000
0230
0000
0000
0000
0301
0010
,
0100
1000
0002
0000
0000
0000
0203
0000
,
0000
0000
0320
0000
0000
0000
1030
0001
,
0100
0001
2000
0000
0100
0000
0002
0000
,
3003
0002
0100
2000
,
3003
2000
0000
0020
,
0030
0002
0003
0200
,
3300
0000
0001
0010
0001
0000
1000
0010
,
1000
0010
0000
0100
0000
0010
0000
0000
,
0000
1001
0000
0000
0001
0000
0010
0000
,
0100
0000
2000
0000
0000
0010
0000
0001
,
0000
3001
0000
0000
1000
0000
0010
0000
,
0100
0000
0002
0000
0000
0010
0000
1000
,
0000
1003
0000
0001
0100
0000
0010
0000
,
0000
1001
0000
1000
0100
0000
0010
0000
,
0011
0002
0023
0230
,
2300
3002
0000
0000
,
0003
0000
1000
0010
1000
0000
0001
0010
,
0001
0000
1000
0100
1000
0100
0000
1000
,
0000
0001
0100
0000
0110
0000
0010
1000
,
0001
0100
0000
0010
0000
1001
0000
1000
,
0100
0010
0001
0000
1000
0000
0100
0010
,
0001
0010
0000
0100
0000
0001
0000
0100
,
0000
1000
0002
0000
0000
0000
0000
0000
,
0003
0000
0001
0100
0001
0100
0010
1000
,
0010
1000
0010
0000
1000
0000
0100
0010
,
0001
0000
0100
0000
0001
0000
0010
0100
,
1000
0002
0100
2003
,
0100
0000
3001
0100
0010
0000
0100
0010
,
1000
0000
0001
0000
1000
0000
0010
0100
,
0001
0000
0010
0000
0001
0000
0100
0010
,
1000
0002
0010
2003
,
0010
0000
3001
0010
0100
0000
0010
0100
,
1000
0000
0001
0000
0010
0000
0100
1000
,
0010
0000
1000
0000
0000
0000
0001
0000
0100
0000
0000
0000
0010
0000
0000
0010
,
0000
0010
1000
0000
0001
0100
0001
0000
,
1000
0100
0000
1000
0010
0000
0100
0000
,
1001
0000
1000
0010
0100
0000
0001
0010
,
0100
1000
0002
0000
0010
0000
0203
0000
,
0010
0000
0301
1000
0001
0000
0100
0010
,
0100
0000
0020
0000
2030
0000
3001
1000
,
0001
0000
0100
0000
0000
0010
0000
1000
,
0000
1001
0000
0000
0000
0000
0000
0000
,
0000
0000
0000
0000
;
#NOTES:
     dance-single:
     :
     Hard:
     16:
     :
0000
0000
0000
0000
,
0000
0000
0000
0000
,
0000
0000
0000
0000
,
0000
0000
0000
0000
,
0000
0000
0000
0000
,
0000
0000
0000
0000
,
0000
0000
0000
0000
,
0000
0000
0000
0000
,
0000
0000
0000
0000
,
0000
0000
0000
0000
,
0001
0000
1000
0100
1000
0000
0001
0000
0100
0000
0010
0000
1000
0000
0010
0000
,
0000
0000
1000
0100
1000
0000
0001
0000
0010
0000
0001
0000
0100
0000
0001
0000
,
1000
0000
0100
0010
0100
0000
1000
0000
0001
0000
0100
0000
0010
0000
1000
0000
,
0001
0100
0001
0000
1000
0010
1000
0000
0001
0000
0010
0000
0100
0000
0000
0000
,
1000
0000
0001
0100
0001
0000
1000
0000
0100
0000
0010
0000
0001
0000
0010
0000
,
0000
0000
0001
0100
0001
0000
1000
0000
0010
0000
1000
0000
0100
0000
1000
0000
,
0001
0000
0100
0010
0100
0000
0001
0000
1000
0000
0100
0000
0010
0000
0001
0000
,
1000
0100
1000
0000
0001
0010
0001
0000
1000
0000
0010
0000
0100
0000
0000
0000
,
0002
0000
0000
0000
,
0000
0000
0000
0000
0000
0000
0000
0000
0000
0000
0000
0000
0003
0000
0010
0100
,
1000
0000
0000
1010
0000
0000
1000
0001
,
0000
0010
0000
0001
0100
0010
1000
0000
,
2000
0000
0000
0000
,
0000
0000
0000
0000
0000
0000
0000
0000
0000
0000
0000
0000
3000
0000
0010
0100
,
0001
0000
0000
0101
0000
0000
0001
1000
,
0000
0000
0110
0000
0000
0000
0001
0000
1000
0010
1000
0000
0100
0000
0000
0000
,
1000
0000
0010
0001
0010
0000
1000
0100
,
0000
0110
0000
0010
0001
0100
0010
1000
,
0100
0000
1000
0001
0000
0100
0010
0100
,
0000
1001
0000
0001
0010
0100
1000
0000
,
0001
0100
0010
1000
0000
0010
0100
0001
,
0000
1001
0000
1000
0100
0001
0100
1000
,
0001
0010
0100
1000
0001
0010
0100
1000
,
0000
0001
0100
0001
0010
0100
0110
0000
,
1000
0100
1000
0010
1000
0100
0110
0000
,
0011
0000
1001
0000
0001
0000
0100
1000
,
0000
0001
0010
1000
0000
0010
0100
0010
,
1000
0000
0001
0010
0001
0100
0110
0000
,
1010
0000
1001
1000
0001
0000
0010
0100
,
0000
1000
0001
0000
0100
0010
0000
1000
,
0001
0000
0010
0000
0100
1000
0010
1000
,
0100
0010
0001
0000
1000
0010
0100
0010
,
1000
0001
1000
0000
0001
0100
0010
1000
,
0001
1000
0001
1000
0001
0000
0000
0000
0100
0000
0010
0000
0100
0000
0010
0000
,
0100
0110
0000
1001
1000
0001
0010
0100
,
0010
0001
0100
0010
0000
1010
0000
1001
,
0000
0101
0000
0001
0100
0010
0100
0001
,
0100
0010
1000
0100
0000
0110
0000
0011
,
0000
1001
0000
0001
0100
0010
1000
0010
,
0100
0101
0000
1000
0100
0000
0110
0000
,
1001
1000
0010
1000
0100
0000
0010
0001
,
0100
0000
0010
0000
1000
0010
1000
0010
1000
0000
0000
0000
0001
0100
0001
0100
,
0001
0000
1000
0100
0001
0100
1000
0100
,
0001
0100
1000
0010
0100
0001
1000
0010
,
0100
0001
0010
0100
1000
0010
1000
0100
,
0010
0000
0001
0000
0100
0000
0010
0000
1000
0000
0001
0000
0100
0000
0001
1000
,
0001
0100
0010
1000
0100
1000
0010
0100
,
0001
0000
0010
0000
0100
1000
0100
1000
0100
0000
0010
0001
0010
0001
0010
0000
,
0001
0000
1000
0001
1000
0000
0010
0100
0010
0000
1000
0000
0001
0000
0010
0000
,
0100
0000
1000
0000
0001
0000
0100
0010
0100
0000
0001
0000
0010
0000
0100
0000
,
0010
0000
0001
0000
1000
0000
0010
1000
0010
0000
0100
0000
0001
0000
1000
0000
,
0100
0000
1000
0000
0001
0010
0001
0000
0100
0001
0100
0000
0010
0000
1000
0000
,
1001
0000
0000
0000
0001
0000
0100
0010
0100
0000
0001
0000
1000
0000
0100
0000
,
0010
0000
0001
0000
1000
0000
0010
0100
0010
0000
1000
0000
0100
0000
0010
0000
,
0100
0000
1000
0000
0001
0000
0100
0001
0100
0000
0010
0000
1000
0000
0001
0000
,
0010
0000
0001
0000
1000
0000
0100
0000
0010
0000
0001
0000
1000
0100
0010
0001
,
1000
0000
0001
0100
0010
0000
1000
0001
,
0010
0001
0000
1000
0010
1000
0000
0001
,
0010
0100
1000
0000
1010
0000
0010
0100
,
0001
0010
0000
0010
0100
1000
0000
1000
,
0001
0100
0020
0000
1030
0000
1001
0000
,
0001
0100
0000
1000
0100
0001
0000
1000
,
0100
0001
0200
0000
0310
0002
0000
0000
,
1000
0000
0100
0000
,
1003
2010
0001
0100
,
3001
0000
0010
0000
0000
0000
0010
0000
0000
0000
0010
0000
0000
0000
0001
1000
,
0001
1001
0000
1000
0001
0000
1000
0100
,
0010
0000
0001
0100
0000
0010
0000
1010
,
0000
1001
0000
0001
1000
0000
0001
0010
,
0100
0000
1000
0100
0000
0011
0000
1001
,
0000
1010
0000
0010
0100
0010
0000
1000
,
0001
1000
0000
0100
0010
0000
0001
0100
,
0010
2000
3020
0230
,
0301
0000
1000
0000
0100
0010
0100
0000
0010
0001
0010
0000
0001
1000
0001
0000
,
1000
0010
1000
0000
0001
0000
0000
0000
0101
0000
0000
0000
0100
0000
0010
0000
,
1000
0000
0010
0000
0000
0000
0100
0000
0001
0000
0010
0000
0100
0000
1000
0001
,
1000
0000
0001
1000
0001
0000
0100
0000
0010
0000
0100
0000
1000
0000
0100
0000
,
0010
0000
0100
0000
0001
0000
0010
0000
0100
0000
1000
0000
0010
0000
0100
0010
,
0100
0010
1000
0000
0001
0000
0010
0001
,
0100
0000
0010
0000
1000
0000
0100
0000
0001
0000
0100
0000
1000
0000
0001
0010
,
0001
0000
1000
0010
2000
0000
0000
0000
0000
0000
0000
0000
3000
0000
1000
0000
,
0010
0000
0100
0000
0001
1000
0001
0000
1000
0010
1000
0000
0001
0100
0001
0000
,
0010
0100
0010
0000
0001
0000
0010
0000
0100
0000
1000
0000
0010
0000
0100
0000
,
0010
1000
0000
1000
0001
0100
0010
1000
,
0001
0000
1000
0100
0010
0001
0100
0010
,
1000
0000
0100
0000
0010
0001
0010
0000
0100
0000
1000
0000
0001
1000
0001
0000
,
1000
0000
1000
0100
0010
0001
0100
0010
,
0100
0001
0000
0001
1000
0010
0100
0001
,
1000
0000
0001
0010
0100
1000
0010
0100
,
0001
0000
0010
0000
0100
1000
0100
0000
0010
0000
0001
0000
1000
0001
1000
0000
,
0001
0000
0000
0000
0010
0000
0001
0010
0001
0000
1000
0000
0100
0000
1000
0000
,
0010
0000
0100
0000
0000
0000
0001
1000
0001
0000
0100
0000
0010
0000
0000
1010
,
0000
0000
1001
0000
0001
0000
0100
0010
0100
0000
0001
0000
1000
0000
0010
0000
,
0100
0001
0000
0001
0010
1000
0010
0001
,
1000
0001
1000
0000
0100
0000
0010
0001
0010
0000
0001
0000
1000
0000
0100
0000
,
0010
0000
0100
0000
1000
0010
1000
0000
0001
0100
0001
0000
1000
0010
1000
0000
,
0001
1000
0000
1000
0100
0000
0001
0100
,
1000
0000
0001
0000
0000
0000
0100
0000
0000
0010
0000
0000
1000
0001
0100
0010
,
1000
0000
1010
0000
0000
0001
0000
1000
,
0000
1001
0000
0000
0000
0000
0000
0000
,
0000
0000
0000
0000
;
#NOTES:
     dance-double:
     :
     Easy:
     8:
     :
00000000
00000000
00000000
00000000
,
00000000
00000000
00000000
00000000
,
00000000
00000000
00000000
00000000
,
00000000
00000000
00000000
00000000
,
00000000
00000000
00000000
00000000
,
00000000
00000000
00000000
00000000
,
00000000
00000000
00000000
00000000
,
00000000
00000000
00000000
00000000
,
00000000
00000000
00000000
00000000
,
00000000
00000000
00000000
00000000
,
00001000
00000000
00010000
00000000
,
00001000
00010000
00001000
00000000
,
00100000
00000000
00010000
00000000
,
01000000
00010000
01000000
00000000
,
00100000
00000000
01000000
00000000
,
00010000
10000000
00010000
00000000
,
10000000
00000000
01000000
00000000
,
00100000
00010000
00100000
00000000
,
00002000
00000000
00000000
00000000
,
00000000
00000000
00000000
00003000
,
00020000
00000000
00000000
00000000
,
00000000
00000000
00000000
00030000
,
00002000
00000000
00000000
00000000
,
00000000
00000000
00000000
00003000
,
00010000
00000000
00011000
00000000
,
00001000
00010000
00001000
00000000
,
00010000
00000000
00000010
00000000
,
00001000
00000100
00001000
00000000
,
00000010
00000100
00000010
00000000
,
00000100
00000001
00000100
00000000
,
00000002
00000000
00000000
00000003
,
00002000
00000000
00000000
00003000
,
00000100
00000000
00001000
00000000
,
00000100
00010000
00000100
00000000
,
00010000
00000000
00010000
00001000
,
00000000
00000000
00011000
00000000
,
00000000
00001000
00010000
00001000
,
00100000
00000000
00100000
00010000
,
00000000
00000000
01010000
00000000
,
00000000
01100000
00000000
00000000
,
00100000
01000000
00000000
01000000
,
00010000
00000000
10000000
01000000
,
10000000
00010000
00000000
00100000
,
00000000
01100000
00000000
00000000
,
00000000
10000000
01000000
10000000
,
01000000
00200000
00000000
00000000
,
00300000
00100000
00001000
00100000
,
00001000
00020000
00000000
00000000
,
00030000
00001000
00010000
00001000
,
00000000
00010000
00000100
00010000
,
00000000
00000100
00001000
00000100
,
00000010
00000002
00000000
00000000
,
00000003
00001001
00000000
00000110
,
00000000
00000001
00000010
00000100
,
00000000
00000110
00000000
00001001
,
00000000
00000001
00000100
00001000
,
00000000
00020000
00000000
00000000
,
00030000
00002000
00000000
00000000
,
00003000
00022000
00000000
00000000
,
00000000
00000000
00000000
00000000
,
00033000
00001000
00010000
00001000
,
00000000
01000000
00010000
01000000
,
00000000
00010000
00100000
01000000
,
00000000
10000000
01000000
00100000
,
00000000
00010000
00100000
00010000
,
00100000
00001000
00010000
00001000
,
00000000
00020000
00000000
00000000
,
00030000
00000200
00000000
00000000
,
00000300
00002000
00000000
00000000
,
00003000
00000020
00000000
00000000
,
00000030
00000100
00000001
00000010
,
00000000
00000100
00001000
00000010
,
00000000
00000220
00000000
00000000
,
00000000
00000000
00000000
00000000
,
00000330
00002002
00000000
00000000
,
00000000
00000000
00000000
00003003
,
00000000
00000001
00000000
00000001
,
00000000
00000010
00000100
00000010
,
00000000
00000001
00000000
00001000
,
00000000
00000100
00000000
00010000
,
00000000
00002000
00000000
00000000
,
00003000
00020000
00000000
00000000
,
00030000
00001000
00010000
00001000
,
01000000
00020000
00000000
00000000
,
00030000
00010000
10000000
01000000
,
10000000
00100000
01000000
00010000
,
00000000
10000000
01000000
00100000
,
00000000
00100000
00001000
00010000
,
00000000
00001000
00010000
00000100
,
00001000
00000010
00000100
00000010
,
00000000
00000220
00000000
00000000
,
00000330
00001001
00000000
00000110
,
00000000
00000001
00000000
00000001
,
00000000
00001000
00000010
00001000
,
00000100
00010000
00000000
00010000
,
00000000
00001000
00100000
00001000
,
00000000
00010000
00000000
00010000
,
00000000
00001000
01000000
00010000
,
01000000
00010000
00000000
00010000
,
00000000
00100000
01000000
10000000
,
00000000
00010000
01000000
00010000
,
00000000
10000000
00000000
01000000
,
00000000
00010000
00001000
00010000
,
00000000
00022000
00000000
00033000
,
00000000
00010000
00000000
00001000
,
00000000
00000010
00000001
00000010
,
00000000
00000001
00001000
00000001
,
00001000
00000100
00000000
00010000
,
00000000
00000000
00001000
00000000
00000000
00010000
00000000
00001000
,
00000000
00010000
00000000
00000000
00000000
00000000
00000000
00000000
,
00000000
00000000
00000000
00000000
;
#NOTES:
     dance-double:
     :
     Medium:
     13:
     :
00000000
00000000
00000000
00000000
,
00000000
00000000
00000000
00000000
,
00000000
00000000
00000000
00000000
,
00000000
00000000
00000000
00000000
,
00000000
00000000
00000000
00000000
,
00000000
00000000
00000000
00000000
,
00000000
00000000
00000000
00000000
,
00000000
00000000
00000000
00000000
,
00000000
00000000
00000000
00000000
,
00000000
00000000
00000000
00000000
,
00001000
00000000
00010000
00000000
00001000
00100000
00001000
00000000
,
00100000
00000000
00010000
00000000
01000000
00100000
01000000
00000000
,
00010000
01000000
10000000
01000000
,
00010000
10000000
00010000
00000000
10010000
00000000
00000000
00000000
,
10000000
00000000
01000000
00000000
00100000
00010000
00100000
00000000
,
01000000
00000000
00010000
00000000
00001000
00010000
00001000
00000000
,
00010000
00001000
00000010
00000001
,
00001000
00000001
00001000
00000000
00001001
00000000
00000000
00000000
,
00000002
00000000
00000000
00000000
,
00000203
00000000
00000000
00000000
,
00002300
00000000
00000000
00000000
,
00013000
00001000
00010000
00000000
,
00020000
00000000
00000000
00000000
,
00230000
00000000
00000000
00000000
,
10300000
00000000
00000000
10000000
00000000
00000000
00100000
10000000
,
00000000
00100000
00000000
01000000
00010000
01000000
00010000
00000000
,
10000000
00000000
00000000
01000000
00100000
00000000
00000000
00010000
,
00000000
00100000
00001000
00000000
00010000
00000000
00000000
00000000
,
00001000
00000000
00000000
00010000
00001000
00000000
00000000
00000010
,
00000000
00000001
00001000
00000000
00000001
00000000
00000000
00000000
,
00000002
00000000
00000000
00000003
,
00002000
00000000
00000000
00003000
,
00000001
00000000
00000010
00000100
00000000
00001000
00000010
00001000
,
00000000
00000010
00000000
00010000
00000000
00001000
00010000
00000000
,
00001000
00000000
00100000
00010000
00000000
00100000
00010000
00000000
,
01000000
10000000
02000000
03000000
,
01000000
00200000
00300000
00100000
,
10000000
00000000
01000000
00100000
00000000
01000000
00100000
00000000
,
00010000
00100000
00002000
00003000
,
00001000
00020000
00030000
00010000
,
00001000
00000000
00010000
00000000
00000100
00001000
00000000
00000100
,
00001000
00000000
00000010
00000000
00000100
00000001
00001000
00000001
,
00000100
00000000
00000001
00000000
00000010
00000100
00000000
00000100
,
00000000
00010000
00000000
00001000
00010000
00001000
00000000
00010000
,
00000000
00011000
00000000
00001000
00000000
00001000
00000000
01000000
,
00000000
01000000
00010000
00100000
00000000
00010000
00000000
10000000
,
00000000
10010000
00000000
00010000
00000000
00100000
00000000
00100000
,
00000000
01000000
10000000
01000000
00000000
00010000
00000000
00001000
,
00000000
00011000
00000000
00010000
00000000
00000100
00000000
00001000
,
00000000
00000010
00000000
00000010
00000100
00000000
00000002
00000000
,
00002003
00003001
00000010
00000100
,
00010000
00001000
00000000
00001000
00000000
00010000
00000000
00010000
,
00001000
00010000
00001000
00000000
01000000
00010000
00000000
00100000
,
00000000
00010000
00000000
10000000
00000000
01000000
00000000
10000000
,
00000000
00100000
01000000
00000000
00001000
00000000
00010000
00001000
,
00010000
00001000
00000000
00011000
00000000
00010000
00000000
00000100
,
00000000
00001000
00000010
00000000
00001000
00000000
00000100
00000010
,
00000000
00000001
00000000
00000100
00000000
00000001
00001000
00000001
,
00001000
00000020
00000000
00000000
,
00000000
00000200
00000000
00000000
,
00000330
00000000
00000001
00000000
00001000
00000000
00000010
00000100
,
00000010
00000000
00000100
00000000
00001000
00000000
00010000
00001000
,
00010000
00000000
00001000
00000000
01000000
00000000
00010000
00100000
,
00010000
00000000
01000000
00000000
00100000
00000000
10000000
01000000
,
00100000
00010000
10000000
01000000
,
00010000
00000000
00001000
00000000
00000010
00000000
00000001
00001000
,
00000001
00002000
00000000
00003200
,
00000000
00000000
00020300
00000000
00000000
00000000
00031000
00100000
,
00001000
01000000
00002000
00000000
00000000
00000000
00023000
00000000
,
00000000
00000000
02030000
00000000
00000000
00000000
13000000
00100000
,
01000000
00010000
10000000
00000000
10000000
00000000
01000000
00000000
,
01000000
00000000
00010000
00000000
00010000
00000000
00001000
00010000
,
00001000
00020000
00000000
00032000
,
00000000
00003020
00000000
00000032
,
00000000
00001003
00000100
00000001
,
00000100
00001000
00000000
00001000
00000000
00000001
00000000
00000000
,
00000000
00001001
00000000
00000001
00000100
00000000
00000010
00000000
,
00010000
00000000
00002000
00000000
00000000
00010000
00000000
00010000
,
00000000
00013000
00000000
00000000
00001000
00000000
01000000
00000000
,
00010000
00000000
02000000
00000000
00000000
00100000
00000000
00100000
,
00000000
03100000
00000000
10000000
00100000
00000000
01000000
00000000
,
00010000
00100000
00000000
00010000
01000000
00000000
00010000
00000000
,
10000000
02000000
03200000
00320000
,
00032000
00003200
00000000
00000000
,
00000300
00000000
00000010
00000001
00000010
00000000
00000001
00001000
,
00000001
00000000
00000100
00000010
00000100
00000000
00000010
00000000
,
00010000
00000000
00001000
00000000
00011000
00000000
00010000
00001000
,
01000000
00010000
00000000
00100000
00000000
01000000
00000000
10000000
,
01000000
00100000
00010000
00000000
10000000
00000000
01000000
00010000
,
01000000
00010000
00000000
00001000
00000000
00011000
00000000
00010000
,
00000000
00001000
00000020
00000000
00000000
00000000
00000000
00000000
,
00000030
00000000
00000001
00001000
00000001
00000000
00001000
00000001
,
00001000
00000000
00000001
00000000
00000010
00000000
00000100
00001000
,
00000010
00000000
00000100
00000000
00001000
00000000
00010000
00001000
,
00010000
00002000
00100000
02003000
,
00010000
00000000
03100000
10000000
00100000
10000000
00010000
01000000
,
00010000
00000000
10000000
00000000
01000000
00000000
00010000
01000000
,
00010000
00000000
01000000
00000000
00100000
00000000
00010000
01000000
,
00010000
00200000
00010000
00302000
,
00100000
00000000
00013000
00000000
00011000
00000000
00010000
00000010
,
00001000
00000000
00000001
00000000
00000100
00000000
00001000
00010000
,
00001000
00000000
00000000
00000000
00010000
00000000
00000010
00000000
00010000
00000000
00000000
00000000
00001000
00000000
00000000
00001000
,
00000000
00001000
00100000
00000000
00010000
00000000
01000000
00100000
,
10000000
00000000
00010000
00100000
00000000
00010000
01000000
00000000
,
01100000
00000000
10000000
00100000
10000000
00000000
01000000
00100000
,
00001000
00010000
00001000
00000000
00011000
00000000
00010000
00000100
,
00001000
00000000
00000010
00001000
00000100
00000000
00000010
00000001
,
00000100
00000000
00000002
00000000
00000023
00000000
00001030
00010000
,
00001000
00000000
00011000
00000000
00000000
00010000
00000000
00001000
,
00000000
00011000
00000000
00000000
00000000
00000000
00000000
00000000
,
00000000
00000000
00000000
00000000
;
#NOTES:
     dance-double:
     :
     Hard:
     16:
     :
00000000
00000000
00000000
00000000
,
00000000
00000000
00000000
00000000
,
00000000
00000000
00000000
00000000
,
00000000
00000000
00000000
00000000
,
00000000
00000000
00000000
00000000
,
00000000
00000000
00000000
00000000
,
00000000
00000000
00000000
00000000
,
00000000
00000000
00000000
00000000
,
00000000
00000000
00000000
00000000
,
00000000
00000000
00000000
00000000
,
00001000
00000000
00010000
00001000
00010000
00000000
00000100
00000000
00001000
00000000
00000010
00000000
00001000
00000000
00000000
00000000
,
00000001
00000000
00000100
00000010
00000100
00000000
00000001
00000000
00001000
00000000
00000100
00000000
00001000
00000000
00000000
00000000
,
00000001
00000000
00000100
00000010
00000100
00000000
00000010
00000000
00001000
00000000
00000010
00000000
00010000
00000000
00000000
00000000
,
00001000
00010000
00001000
00000000
00010000
00001000
00010000
00000000
00001000
00000000
00100000
00000000
00010000
00000000
00000000
00000000
,
10000000
00000000
00010000
01000000
00010000
00000000
10000000
00000000
01000000
00000000
00100000
00000000
00010000
00000000
00000000
00000000
,
10000000
00000000
00010000
00100000
00010000
00000000
00100000
00000000
00001000
00000000
00010000
00000000
00001000
00000000
00000000
00000000
,
00010000
00000000
00000100
00001000
00000100
00000000
00000010
00000000
00000001
00000000
00001000
00000000
00000100
00000000
00000001
00000000
,
00000100
00000000
00001000
00000000
00000001
00000010
00000001
00000000
00000100
00000000
00000010
00000000
00001000
00000000
00000000
00000000
,
00000002
00000000
00000000
00000000
,
00000000
00000000
00000000
00000000
00000000
00000000
00000000
00000000
00000000
00000000
00000000
00000000
00000003
00000000
00000001
00001000
,
00000001
00000000
00000000
00000101
00000000
00000000
00000100
00000010
,
00000000
00001000
00000000
00000010
00010000
00001000
00010000
00000000
,
00002000
00000000
00000000
00000000
,
00000000
00000000
00000000
00000000
00000000
00000000
00000000
00000000
00000000
00000000
00000000
00000000
00003000
00000000
00001000
00010000
,
00001000
00000000
00000000
00011000
00000000
00000000
00010000
00001000
,
00000000
00000000
00100000
00000000
00000000
00000000
00010000
00000000
01000000
00010000
01000000
00000000
00100000
00000000
00000000
00000000
,
10000000
00000000
00010000
01000000
00100000
00000000
10000000
01000000
,
00000000
01100000
00000000
00100000
00010000
00100000
00001000
00010000
,
00001000
00000000
00010000
00000100
00000000
00001000
00000100
00000010
,
00000000
00000001
00000000
00000100
00001000
00000100
00000001
00000000
,
00000010
00000100
00000010
00000100
00000000
00010000
00001000
00010000
,
00000000
00011000
00000000
00001000
01000000
00010000
00100000
00001000
,
01000000
00010000
01000000
00010000
00000000
10000000
00100000
10000000
,
00000000
10010000
00000000
00010000
00100000
00001000
00010000
00000000
,
00001000
00000000
00010000
00000010
00000000
00000010
00001000
00000000
,
00001100
00000000
00000110
00000000
00000011
00000000
00000001
00000100
,
00000000
00000100
00001000
00010000
00000000
00100000
01000000
00100000
,
10000000
00000000
00010000
00100000
01000000
10000000
00010000
00000000
,
00110000
00000000
00101000
00000000
00001000
00000000
00010000
00000100
,
00000000
00001000
00000100
00000000
00000010
00000100
00000000
00000001
,
00000100
00000000
00001000
00000000
00000001
00000100
00000001
00000100
,
00000010
00001000
00000010
00000000
00001000
00000010
00010000
00001000
,
00010000
00000000
00011000
00000000
00001000
00010000
01000000
00000000
,
10000000
00010000
10000000
00010000
10000000
00000000
00000000
00000000
00100000
00000000
01000000
00000000
00100000
00000000
01000000
00000000
,
00100000
01100000
00000000
10000000
00100000
01000000
00010000
10000000
,
00100000
01000000
00010000
00100000
00000000
00101000
00000000
00001000
,
00000000
00011000
00000000
00010000
00000100
00001000
00000010
00010000
,
00000100
00001000
00000010
00010000
00000000
00010100
00000000
00000100
,
00000000
00000110
00000000
00000010
00000001
00000100
00000010
00001000
,
00000100
00000110
00000000
00000010
00000001
00000010
00001000
00010000
,
01000000
00000000
10000000
00100000
10000000
00000000
00010000
00100000
,
00010000
00000000
01000000
00000000
00010000
10000000
00010000
10000000
00010000
00000000
00000000
00000000
01000000
00100000
01000000
00100000
,
01000000
00000000
00010000
10000000
00100000
00010000
00001000
01000000
,
00100000
00010000
00001000
00000100
00001000
00010000
00100000
00010000
,
00001000
00000100
00000010
00001000
00000010
00010000
00001000
00000010
,
00001000
00000000
00010000
00000000
00000100
00000000
00000010
00000000
00000001
00000000
00000100
00000000
00000010
00000000
00001000
00000001
,
00001000
00000010
00000100
00000001
00000010
00000100
00010000
00001000
,
00100000
00000000
00010000
00000000
10000000
01000000
10000000
01000000
10000000
00000000
00010000
00100000
00010000
00100000
00010000
00000000
,
01000000
00000000
00100000
01000000
00100000
00000000
10000000
00010000
10000000
00000000
01000000
00000000
00100000
00000000
00010000
00000000
,
00100000
00000000
00001000
00000000
00010000
00000000
00001000
00010000
00001000
00000000
00010000
00000000
00000100
00000000
00001000
00000000
,
00000010
00000000
00000000
00000000
00001000
00000000
00000001
00000010
00000001
00000000
00000100
00000000
00000001
00000000
00000010
00000000
,
00000100
00000000
00001000
00000000
00000001
00000100
00000001
00000000
00000100
00001000
00000100
00000000
00001000
00000000
00010000
00000000
,
00011000
00000000
00000000
00000000
00001000
00000000
00010000
00100000
00010000
00000000
00100000
00000000
01000000
00000000
00010000
00000000
,
01000000
00000000
10000000
00000000
01000000
00000000
00100000
10000000
00100000
00000000
01000000
00000000
00010000
00000000
10000000
00000000
,
01000000
00000000
00100000
00000000
00010000
00000000
01000000
00001000
01000000
00000000
00001000
00000000
00010000
00000000
00001000
00000000
,
00000010
00000000
00001000
00000000
00010000
00000000
00000100
00000000
00001000
00000010
00001000
00000000
00000001
00000100
00000010
00001000
,
00000001
00000000
00001000
00000000
00000001
00000000
00000100
00000010
,
00000100
00000010
00000000
00000010
00001000
00000010
00000000
00000010
,
00010000
00001000
00010000
00000000
00011000
00000000
00010000
00001000
,
00100000
00010000
00000000
00010000
00100000
01000000
00000000
01000000
,
10000000
00010000
02000000
00000000
03100000
00000000
10010000
00000000
,
10000000
00100000
00000000
00010000
00001000
00010000
00000000
01000000
,
00010000
00001000
00000020
00000000
00000031
00000002
00000000
00000000
,
00000203
00000000
00002300
00000000
,
00013000
00000000
00100000
10000000
00100000
10000000
00010000
01000000
,
00010000
00000000
00100000
00000000
00000000
00000000
00100000
00000000
00000000
00000000
00100000
00000000
00000000
00000000
00010000
10000000
,
00010000
10010000
00000000
10000000
01000000
00000000
00100000
00001000
,
00010000
00000000
00010000
00001000
00000000
00000010
00000000
00000001
,
00000000
00001001
00000000
00001000
00000001
00000000
00000010
00001000
,
00000010
00000000
00001000
00010000
00000000
01000000
00000000
10000000
,
00000000
10010000
00000000
00010000
01000000
00100000
00000000
10000000
,
01000000
00100000
00000000
00001000
00010000
00000000
00010000
00001000
,
00010000
00002000
00003020
00000032
,
00001003
00000000
00000100
00000000
00000010
00000001
00000010
00000000
00000001
00001000
00000001
00000000
00001000
00000010
00001000
00000000
,
00000010
00000100
00000010
00000000
00000100
00000000
00000000
00000000
00000101
00000000
00000000
00000000
00000001
00000000
00001000
00000000
,
00000100
00000000
00001000
00000000
00000000
00000000
00000100
00000000
00010000
00000000
00001000
00000000
00010000
00000000
00001000
00010000
,
00001000
00000000
00100000
00010000
00100000
00000000
00001000
00000000
00010000
00000000
00001000
00000000
00010000
00000000
01000000
00000000
,
00100000
00000000
01000000
00000000
10000000
00000000
00010000
00000000
01000000
00000000
00100000
00000000
10000000
00000000
00010000
10000000
,
00010000
00000000
10000000
01000000
00010000
00000000
00001000
00000010
,
00000001
00000000
00000000
00000000
00001000
00000000
00000100
00000000
00000010
00000000
00000001
00000000
00001000
00000000
00000100
00000010
,
00000100
00000000
00010000
00001000
00020000
00000000
00000000
00000000
00000000
00000000
00000000
00000000
00030000
00000000
00010000
00000000
,
00001000
00000000
00100000
00000000
00010000
01000000
00010000
00000000
01000000
00100000
01000000
00000000
00100000
10000000
00100000
00000000
,
10000000
00000000
00010000
10000000
00100000
00010000
00100000
10000000
,
01000000
00100000
00001000
00010000
00001000
00100000
00001000
00010000
,
00001000
00000000
00010000
00001000
00000010
00000001
00001000
00000100
,
00000010
00000000
00000001
00000000
00001000
00000001
00001000
00000000
00000010
00000000
00000100
00000000
00000001
00001000
00000001
00000000
,
00000010
00000000
00000001
00000100
00000010
00001000
00000001
00000100
,
00000010
00000100
00001000
00010000
00001000
00010000
00100000
01000000
,
00100000
00000000
10000000
00100000
01000000
00010000
10000000
01000000
,
00100000
00000000
00010000
00000000
10000000
01000000
10000000
00000000
01000000
00000000
00010000
00000000
00001000
00010000
00001000
00000000
,
00010000
00000000
00000000
00000000
00001000
00000000
00010000
00000010
00010000
00000000
00000100
00000000
00001000
00000000
00000000
00000000
,
00000010
00000000
00000100
00000000
00000000
00000000
00000001
00001000
00000001
00000000
00000010
00000000
00000100
00000000
00000000
00000100
,
00000000
00000000
00000100
00000000
00001000
00000000
00000100
00010000
00000100
00000000
00001000
00000000
00000010
00000000
00000100
00000000
,
00000010
00010000
00000000
00010000
00001000
00100000
00010000
01000000
,
00100000
00000000
10000000
00000000
01000000
00000000
00100000
00010000
00100000
00000000
00010000
00000000
01000000
00000000
00001000
00000000
,
00010000
00000000
00001000
00000000
00000000
00000000
00001000
00000000
00010000
00000100
00010000
00000000
00000100
00001000
00000100
00000000
,
00001000
00000010
00001000
00000000
00000000
00000000
00001000
00000000
00000100
00000000
00000000
00000000
00000001
00000000
00000100
00000000
,
00001000
00000000
00000001
00000000
00000000
00000000
00000100
00000000
00000000
00001000
00000000
00000000
00010000
00001000
00010000
00001000
,
00010000
00000000
00001000
00010000
00100000
10000000
00000000
10100000
,
00000000
10010000
00000000
00000000
00000000
00000000
00000000
00000000
,
00000000
00000000
00000000
00000000
;
