
//----- song ID: waku -----//
#TITLE:惑星☆ロリポップ;
#ARTIST:SOUND HOLIC feat. Nana Takahashi;
#TITLETRANSLIT:Wakusei lollipop;
#BANNER:Wakusei lollipop.png;
#BACKGROUND:Wakusei lollipop-bg.png;
#CDTITLE:./CDTitles/BeatStream.png;
#MUSIC:Wakusei lollipop.ogg;
#SAMPLESTART:58.667;
#SAMPLELENGTH:15;
#BPMS:0=180;
#NOTES:
     dance-single:
     :
     Beginner:
     2:
     :
0000
0000
0000
0000
,
0000
0000
0000
0000
,
0000
0000
0000
0000
,
0000
0000
0000
0000
,
0000
0000
0000
0000
,
0000
0000
0000
0000
,
1000
0000
0000
0000
,
0001
0000
0000
0000
,
1000
0000
0000
0000
,
0001
0000
0000
0000
,
0100
0000
0000
0000
,
0100
0000
0000
0000
,
0001
0000
1000
0000
,
0001
0000
0000
0000
,
0010
0000
0000
0000
,
0010
0000
0000
0000
,
0001
0000
1000
0000
,
0001
0000
0000
0000
,
0100
0000
0000
0000
,
0001
0000
0000
0000
,
1000
0000
0000
0000
,
0100
0000
0000
0000
,
1000
0000
0000
0000
,
0010
0000
0000
0000
,
1000
0000
0000
0000
,
0001
0000
0000
0000
,
0010
0000
0000
0000
,
0001
0000
0000
0000
,
1000
0000
0000
0000
,
0010
0000
0000
0000
,
1000
0000
0000
0000
,
0100
0000
0000
0000
,
1000
0000
0000
0000
,
0001
0000
0000
0000
,
0010
0000
0000
0000
,
0100
0000
0000
0000
,
0010
0000
0000
0000
,
0100
0000
0000
0000
,
1000
0000
0000
0000
,
1000
0000
0000
0000
,
0001
0000
0000
0000
,
0001
0000
0000
0000
,
0200
0000
0000
0000
,
0300
0000
0000
0000
,
0001
0000
1000
0000
,
0001
0000
0000
0000
,
1000
0000
0001
0000
,
1000
0000
0000
0000
,
0010
0000
0000
0000
,
0100
0000
0000
0000
,
0001
0000
0000
0000
,
1000
0000
0000
0000
,
0001
0000
1000
0000
,
0001
0000
0000
0000
,
1000
0000
0001
0000
,
1000
0000
0000
0000
,
0100
0000
0000
0000
,
0010
0000
0000
0000
,
0001
0000
0000
0000
,
1000
0000
0000
0000
,
0200
0000
0300
0000
,
0020
0000
0030
0000
,
0001
0000
0000
0000
,
1000
0000
0000
0000
,
0010
0000
0000
0000
,
0100
0000
0000
0000
,
0001
0000
0000
0000
,
1000
0000
0000
0000
,
0100
0000
0000
0000
,
0010
0000
0000
0000
,
0001
0000
1000
0000
,
0001
0000
0000
0000
,
1000
0000
0001
0000
,
1000
0000
0000
0000
,
0100
0000
0000
0000
,
0100
0000
0000
0000
,
0001
0000
0000
0000
,
1000
0000
0000
0000
,
0001
0000
0000
0000
,
0010
0000
0200
0300
,
0000
0000
0000
0000
;
#NOTES:
     dance-single:
     :
     Easy:
     5:
     :
0000
0000
0000
0000
,
0000
0000
0000
0000
,
0000
0000
0000
0000
,
0000
0000
0000
0000
,
0000
0000
0000
0000
,
0000
0000
0000
0000
,
0001
0000
1000
0000
,
0010
0000
0100
0000
,
0002
0000
0000
0000
,
2003
0000
0000
3100
,
0010
0000
0010
0000
,
0100
1000
0100
0000
,
1000
0000
0001
0000
,
2000
0000
0000
3000
,
0010
0000
0010
0000
,
1000
0001
1000
0000
,
0020
0030
0200
0300
,
0002
0000
0000
0003
,
0010
0000
0100
0000
,
1000
0000
0001
0010
,
0100
0000
0010
0000
,
0001
0000
1000
0010
,
0100
0000
0010
0000
,
1000
0000
0001
0100
,
0001
0000
1000
0000
,
0020
0000
0000
0130
,
0010
0000
0100
0000
,
0001
0000
1000
0100
,
0010
0000
0100
0000
,
1000
0000
0001
0100
,
0010
0000
1000
0000
,
0001
0000
1000
0010
,
1000
0000
0001
0000
,
0020
0000
0000
0130
,
2000
0000
3010
0000
,
0020
0000
0130
0000
,
0200
0000
0301
0000
,
0002
0000
1003
0001
,
0200
0000
0000
0000
,
0320
0000
0000
0000
,
2030
0000
0000
0000
,
3002
0000
0000
0000
,
0203
0300
0020
0030
,
2000
0000
3000
0000
,
0010
1000
0001
0000
,
0010
0001
1000
0000
,
0100
1000
0100
0000
,
2000
0000
0000
3010
,
0100
0001
1000
0000
,
0100
1000
0001
0000
,
0010
0001
0010
0000
,
0002
0000
1003
1000
,
0010
0100
0001
0000
,
0010
0100
1000
0000
,
0010
0100
0001
0000
,
0020
0000
0000
0130
,
0010
0100
1000
0000
,
0010
0100
0001
0000
,
0010
0100
1000
0100
,
0020
0000
0000
0130
,
2000
3000
0002
0003
,
0200
0300
0020
0030
,
1000
1000
0001
0000
,
0100
0100
0010
0000
,
1000
1000
0001
0000
,
0020
0000
0230
0000
,
1300
0001
0001
0000
,
0100
0010
0010
0000
,
1000
1000
0001
0000
,
0200
0000
0320
0000
,
0130
0001
0100
0000
,
0010
1000
0010
0000
,
1000
0000
0001
0000
,
2000
0000
0000
0000
,
3010
0100
0010
0000
,
1000
0001
1000
0000
,
0010
0010
0100
0100
,
0001
0001
1000
1000
,
0200
0000
0000
0000
,
0300
0000
1000
0001
,
0000
0000
0000
0000
;
#NOTES:
     dance-single:
     :
     Medium:
     11:
     :
0000
0000
0000
0000
,
0000
0000
0000
0000
,
0000
0000
0000
0000
,
0000
0000
0000
0000
,
0000
0000
0000
0000
,
0000
0000
0000
0000
,
1000
0000
0100
0000
0010
0100
0000
2000
,
0000
3001
0100
0020
0000
0000
0030
0000
,
1000
0010
1000
0010
0000
0100
0001
0200
,
0000
0000
0000
0301
,
0010
0000
0100
0000
0010
0000
0000
0000
0001
0000
0000
0010
0000
0100
0000
0000
,
1000
0010
0100
0002
0000
0000
0003
0000
,
0100
0000
0010
0000
0100
0000
0000
0000
0001
0000
0000
0100
0000
0010
0000
2000
,
0000
0000
0000
3000
,
0010
0000
0100
0000
0010
0000
0000
0000
1000
0000
0000
0010
0000
0100
0000
0000
,
0001
0010
0100
2000
0000
0000
3000
0000
,
0010
0100
0001
0000
0100
0001
1000
0000
,
0100
0010
0100
0010
0000
0100
0100
0000
,
0010
0001
1000
0000
1000
0000
0010
0000
,
0100
0001
1000
0000
1000
0010
0100
0001
,
0010
0100
0100
1000
,
1000
0001
0010
0100
1000
0010
0100
0001
,
1000
0000
0001
0000
0001
0000
0001
0010
,
0100
0010
0100
0010
0000
0010
0001
1000
,
0010
0000
0010
0000
1000
0001
1000
0001
,
0020
0000
0000
0100
0100
0000
0130
0000
,
0010
0001
1000
0000
1000
0000
0100
0000
,
0010
0001
1000
0000
1000
0010
0100
0001
,
0100
0010
0010
1000
,
0001
0000
0001
0000
1000
0100
0010
0001
,
1000
0001
0100
0010
1000
0001
1000
0200
,
0000
0310
0001
1000
0000
1000
0010
0100
,
0001
0000
0000
0000
0001
0000
0000
0000
0100
0000
0000
0100
0000
0000
0220
0000
,
0000
0000
0000
0330
,
0002
0000
0000
0013
0100
0000
0100
0000
,
2000
0000
0000
3001
0100
0000
0100
0000
,
0020
0000
0000
0130
0001
0000
0001
0000
,
0200
0000
0000
0301
1000
0000
1000
0000
,
1100
0100
0010
0001
,
0011
0001
0100
0010
,
1010
1000
0001
0010
,
0110
0100
1000
0001
,
1001
0000
1000
0010
1000
0000
0001
0010
,
0001
0000
0100
0000
0010
0100
0010
0000
,
1000
0000
0001
0000
0010
0100
0000
2000
,
0000
3010
0100
0002
0000
0000
0003
0000
,
0020
0000
0230
0000
1300
0001
0100
0020
,
0000
0000
0000
2030
0000
3001
0100
0010
,
1000
0000
0001
0000
0100
0010
0000
2000
,
0000
3100
0010
0002
0000
0000
0003
0000
,
0100
0010
1000
0010
0000
0010
0100
0001
,
0010
0100
1000
0100
0010
0000
1001
0000
,
0001
0000
1000
0000
0010
0100
0000
0002
,
0000
0013
0100
2000
0000
0000
3000
0000
,
0020
0000
0230
0000
0301
1000
0100
0020
,
0000
0000
0000
0032
0000
1003
0100
0010
,
0001
0000
1000
0000
0010
0100
0000
0002
,
0000
0103
0010
2000
0000
0000
3000
0000
,
0100
0010
0001
0010
0000
0010
0100
2000
,
0000
3010
0100
0010
0200
0000
0301
0000
,
1000
1100
0001
0101
,
1000
1010
0001
0011
,
0010
0000
0100
0000
2000
0000
0000
3010
,
0000
0100
0001
0000
0002
0000
0003
0000
,
1000
0000
0001
0000
0010
0000
0100
0010
,
0000
0010
0100
0000
1000
0000
1010
0000
,
0010
0000
0100
0000
0002
0000
0000
0013
,
0000
0100
1000
0000
2000
0000
3000
0000
,
0001
0000
1000
0000
0100
0000
0010
0100
,
0000
0100
0010
0000
0001
0000
0101
0000
,
0100
0000
0010
0000
0100
0000
0000
0000
0001
0000
0000
0100
0000
0010
0000
0000
,
1000
0100
0010
0002
0000
1003
0010
1000
,
0100
0000
0010
0000
0100
0000
0000
0000
1000
0000
0000
0010
0000
0100
0000
0002
,
0000
0000
0000
0003
,
0010
0000
0100
0000
0010
0000
0000
0000
0001
0000
0000
0010
0000
0100
0000
0000
,
1000
0010
0100
0002
0000
0013
0100
1000
,
0010
0100
1000
0100
0001
0010
0100
0010
,
0001
0100
0010
0100
1000
0100
0001
0010
,
0200
0000
0000
0000
0000
0000
0000
0300
,
0000
0000
2000
0000
3010
0100
0010
0000
,
0000
0000
0000
0000
;
#NOTES:
     dance-single:
     :
     Hard:
     15:
     :
0000
0000
0000
0000
,
0000
0000
0000
0000
,
0000
0000
0000
0000
,
0000
0000
0000
0000
,
0000
0000
0000
0000
,
0000
0000
0000
0000
,
0001
0000
0010
0000
0100
0010
0000
0002
,
0000
1003
0010
0200
0000
0301
0010
0100
,
1000
0010
0100
0001
0000
0001
1000
0020
,
0000
0100
0100
0100
0130
0000
1001
0000
,
0001
0000
0010
0000
0001
0000
0010
0000
0100
0000
1000
0100
0000
0010
0000
0100
,
1000
0000
0010
0000
0100
0000
0002
0000
0000
0000
1003
0100
1000
0000
0010
0000
,
0100
0000
0001
0000
0100
0000
0010
0000
1000
0000
0001
0010
0000
0100
0000
2000
,
0000
0000
3001
0100
0001
0000
0100
0010
0100
0000
0010
1000
0010
0000
1000
0001
,
1000
0000
0010
0000
1000
0000
0010
0000
0100
0000
0001
0100
0000
0010
0000
0100
,
0001
0010
0100
2000
0000
3001
0010
0100
,
1000
0100
1000
0000
0100
0010
0100
0000
0010
0001
0010
0000
0001
1000
0001
0000
,
1000
0100
0001
0100
0000
1000
1001
0000
,
0001
0010
0100
0000
0100
0000
0100
1000
,
0010
0000
0100
0000
0010
0000
0100
0000
0001
0000
1000
0100
0010
0000
0001
0000
,
1000
0010
0100
0000
0100
0000
0100
0001
,
0010
0000
0100
0000
0010
0000
0100
0000
1000
0000
0100
0010
0001
0000
1000
0000
,
0010
0100
0001
0010
1000
0000
0010
0001
,
0100
1000
0100
0001
0000
0001
1000
0010
,
0100
0000
0100
0010
1000
0100
0010
0001
,
2000
0000
0000
0010
3010
0000
0101
0000
,
0001
0100
0010
0000
0010
0000
0010
1000
,
0100
0000
0010
0000
0100
0000
0010
0000
0001
0000
1000
0010
0100
0000
0001
0000
,
1000
0100
0010
0000
0010
0000
0010
0001
,
0100
0000
0010
0000
0100
0000
0010
0000
1000
0000
0010
0100
0001
0000
1000
0000
,
0010
0100
1000
0100
0001
0010
0100
2000
,
0000
3010
0100
1000
0000
0100
0010
0001
,
0010
0000
1000
0000
0001
0000
0010
0000
0100
0000
0000
0100
0000
0000
0020
0000
,
0000
0130
1000
0010
0110
0000
0010
0000
,
2000
0000
0000
0100
3200
0000
0310
0000
,
0002
0000
0000
1000
2003
0000
3010
0000
,
0200
0000
0000
0001
0302
0000
1003
0000
,
0020
0000
0000
0100
0230
0000
0301
0000
,
2000
0000
0100
3200
0000
0010
0320
0000
,
0032
0000
1000
2003
0000
3010
0001
1000
,
0200
0000
0010
0320
0000
0130
0002
0000
,
1003
0000
0100
0000
0010
0000
0000
0000
0001
0000
0000
0010
0000
0000
0100
0000
,
1000
0000
0100
0000
0010
0001
0010
0000
0100
1000
0100
0000
1000
0001
1000
0000
,
0001
0100
0001
0100
0001
0000
1000
0010
1000
0010
1000
0010
1000
0000
0000
0000
,
0110
0000
0102
0000
0013
0100
1000
0200
,
0000
0000
1300
0000
0010
0000
0001
0000
0010
0000
0100
0010
1000
0000
0010
0000
,
0110
0000
1010
0000
0001
0100
0010
0200
,
0001
0000
0301
2000
0000
3100
0010
0100
,
0110
0000
2100
0000
3010
0100
0001
0020
,
0000
0000
0031
0000
0100
0000
1000
0000
0100
0000
0001
0010
0100
0000
1000
0000
,
0001
0100
0010
0200
0000
0301
1000
0001
,
0010
0100
0010
0100
0010
0000
0001
0000
1001
0000
0000
0000
1010
0000
0000
0000
,
0110
0000
2010
0000
3100
0010
0001
0020
,
0000
0000
0031
0000
0100
0000
1000
0000
0100
0000
0001
1000
0100
0000
0010
0000
,
0110
0000
1100
0000
1000
0010
0100
0020
,
1000
0000
1030
0002
0000
0013
0100
0010
,
0110
0000
0012
0000
0103
0010
1000
0200
,
0000
0000
1300
0000
0010
0000
0001
0000
0010
0000
1000
0100
0010
0000
0001
0000
,
0010
0000
0100
0000
1000
0000
0001
0000
1000
0001
1000
0001
1000
0001
0200
0000
,
0000
0010
0010
0010
0310
0000
1001
0000
,
1000
0100
0101
0000
0001
0100
1100
0000
,
1000
0010
0011
0000
1010
0000
1001
0000
,
0001
0010
0001
0000
1100
0000
0001
0100
,
0010
1000
0002
0000
0010
0000
1003
0000
,
1010
0000
0100
0000
0011
0000
0100
1000
,
0001
1000
0100
0000
0110
0000
1001
0000
,
1000
0010
1000
0000
0101
0000
1000
0100
,
0010
0001
2000
0000
0010
0000
3001
0000
,
0011
0000
0100
0000
1010
0000
0100
0001
,
1000
0001
0100
0000
0110
0000
1001
0000
,
1000
0000
0100
0000
1000
0000
0100
0000
0010
0000
0001
0010
0000
0100
0000
0010
,
0001
0000
0100
0000
0010
0000
2000
0000
0000
0000
3001
0010
0001
0000
0100
0000
,
0010
0000
1000
0000
0010
0000
0100
0000
0001
0000
1000
0100
0000
0010
0000
0002
,
0000
0000
1003
0010
0100
0000
0010
0100
0001
0000
0100
0001
1000
0000
0001
1000
,
0010
0000
0100
0000
0001
0000
0100
0000
0010
0000
1000
0010
0000
0100
0000
0010
,
1000
0100
0010
0002
0000
0103
0010
1000
,
0001
0010
0100
0000
0010
0100
1000
0000
0100
1000
0001
0000
1000
0001
0100
0000
,
0001
0100
0010
1000
0001
0000
1000
0001
1000
0001
1000
0001
1000
0001
1000
0001
,
0200
0000
0000
0000
,
0300
0000
0020
0000
0130
1001
0110
0000
,
0000
0000
0000
0000
;
#NOTES:
     dance-double:
     :
     Easy:
     5:
     :
00000000
00000000
00000000
00000000
,
00000000
00000000
00000000
00000000
,
00000000
00000000
00000000
00000000
,
00000000
00000000
00000000
00000000
,
00000000
00000000
00000000
00000000
,
00000000
00000000
00000000
00000000
,
10000000
00000000
00010000
00000000
,
01000000
00000000
00010000
00000000
,
00200000
00000000
00000000
00000000
,
00302000
00000000
00000000
00013000
,
00000100
00000000
00001000
00000000
,
00000001
00001000
00000001
00000000
,
00000100
00000000
00000010
00000000
,
00002000
00000000
00000000
00003000
,
00000100
00000000
00010000
00000000
,
00001000
00010000
00001000
00000000
,
00200000
00300000
00020000
00030000
,
20000000
00000000
00000000
30000000
,
00010000
00000000
01000000
00000000
,
00010000
00000000
00100000
00001000
,
00010000
00000000
00001000
00000000
,
00010000
00000000
00000100
00001000
,
00000100
00000000
00000010
00000000
,
00000001
00000000
00001000
00000010
,
00001000
00000000
00000100
00000000
,
00020000
00000000
00000000
00031000
,
00010000
00000000
00001000
00000000
,
00100000
00000000
00010000
00100000
,
01000000
00000000
10000000
00000000
,
00100000
00000000
01000000
00001000
,
00010000
00000000
00001000
00000000
,
00010000
00000000
00000100
00010000
,
00001000
00000000
00010000
00000000
,
00000200
00000000
00000000
00001300
,
00000002
00000000
00000103
00000000
,
00000020
00000000
00001030
00000000
,
00000200
00000000
00010300
00000000
,
00002000
00000000
00103000
00010000
,
20000000
00000000
00000000
00000000
,
32000000
00000000
00000000
00000000
,
03200000
00000000
00000000
00000000
,
00320000
00000000
00000000
00000000
,
00032000
00003000
00020000
00030000
,
00000200
00000000
00000300
00000000
,
00001000
00000001
00001000
00000000
,
00000010
00000100
00000010
00000000
,
00001000
00000100
00010000
00000000
,
00002000
00000000
00000000
00103000
,
00010000
00100000
01000000
00000000
,
10000000
00010000
00100000
00000000
,
00001000
00010000
00001000
00010000
,
00002000
00000000
00103000
00100000
,
00010000
10000000
00010000
00000000
,
00100000
01000000
00100000
00000000
,
00010000
00100000
00001000
00000000
,
00020000
00000000
00000000
00030100
,
00001000
00000010
00000100
00000000
,
00000001
00001000
00000100
00000000
,
00010000
00001000
00010000
00001000
,
00020000
00000000
00000000
00031000
,
00002000
00003000
00200000
00300000
,
00020000
00030000
20000000
30000000
,
00010000
00100000
00010000
00000000
,
00100000
01000000
00100000
00000000
,
00010000
00100000
00001000
00000000
,
00020000
00000000
00032000
00000000
,
00013000
00000100
00010000
00000000
,
00000100
00001000
00000100
00000000
,
00001000
00000001
00001000
00000000
,
00000020
00000000
00000230
00000000
,
00000310
00010000
00001000
00000000
,
00100000
00001000
00010000
00000000
,
00001000
00000000
00100000
00000000
,
00020000
00000000
00000000
00000000
,
10030000
00010000
10000000
00000000
,
00100000
01000000
00100000
00000000
,
01000000
01000000
00010000
00010000
,
00100000
00100000
00001000
00001000
,
00020000
00000000
00000000
00000000
,
00030000
00000000
00001000
00010000
,
00000000
00000000
00000000
00000000
;
#NOTES:
     dance-double:
     :
     Medium:
     11:
     :
00000000
00000000
00000000
00000000
,
00000000
00000000
00000000
00000000
,
00000000
00000000
00000000
00000000
,
00000000
00000000
00000000
00000000
,
00000000
00000000
00000000
00000000
,
00000000
00000000
00000000
00000000
,
10000000
00000000
01000000
00000000
00100000
00010000
00000000
00200000
,
00000000
00301000
00010000
00002000
00000000
00000000
00003000
00000000
,
00010000
00000100
00010000
00000100
00000000
00001000
00000100
00000020
,
00000000
00000000
00000000
00000031
,
00000100
00000000
00000010
00000000
00000100
00000000
00000000
00000000
00000001
00000000
00000000
00000100
00000000
00000010
00000000
00000000
,
00001000
00000010
00010000
00002000
00000000
00000000
00003000
00000000
,
00100000
00000000
00010000
00000000
00100000
00000000
00000000
00000000
00010000
00000000
00000000
00100000
00000000
01000000
00000000
20000000
,
00000000
00000000
00000000
30000000
,
01000000
00000000
00100000
00000000
01000000
00000000
00000000
00000000
10000000
00000000
00000000
01000000
00000000
00100000
00000000
00000000
,
00001000
00010000
00000100
00002000
00000000
00000000
00003000
00000000
,
00000001
00000010
00000100
00000000
00010000
00001000
00100000
00000000
,
01000000
10000000
01000000
10000000
00000000
00010000
00010000
00000000
,
00100000
00010000
01000000
00000000
01000000
00000000
00001000
00000000
,
01000000
00001000
00010000
00000000
00001000
00010000
00000010
00001000
,
00000001
00000100
00000100
00000010
,
00000100
00000010
00001000
00000100
00010000
00001000
00100000
00010000
,
10000000
00000000
00010000
00000000
00010000
00000000
00010000
00100000
,
01000000
10000000
01000000
00010000
00000000
01000000
00100000
00001000
,
00010000
00000000
00000100
00001000
00000000
00000001
00000000
00000100
,
00000020
00000000
00000000
00000100
00000100
00000000
00000130
00000000
,
00000001
00001000
00000010
00000000
00000010
00000000
00010000
00000000
,
00000010
00010000
00001000
00000000
00010000
00001000
01000000
00010000
,
10000000
00000000
00100000
00000000
00100000
00000000
01000000
00100000
,
01000000
00010000
00100000
00002000
00000000
00013000
00000000
00000100
,
00001000
00000100
00000010
00000001
00001000
00000010
00000100
00000020
,
00000000
00000130
00000001
00001000
00000000
00000100
00010000
00001000
,
00100000
00000000
00000000
00000000
00010000
00000000
00000000
00000000
01000000
00000000
00000000
00100000
00000000
00000000
20000000
00000000
,
00000000
00000000
00000000
30000000
,
02000000
00000000
00000000
03100000
00010000
00000000
00010000
00000000
,
00200000
00000000
00000000
00301000
00010000
00000000
00010000
00000000
,
00000200
00000000
00000000
00001300
00000001
00000000
00000001
00000000
,
00000020
00000000
00000000
00000031
00000100
00000000
00000100
00000000
,
00000110
00000010
00001000
00000100
,
00001100
00000100
00010000
00001000
,
00011000
00001000
00100000
00010000
,
00110000
00010000
10000000
00100000
,
10100000
00000000
10000000
00010000
00100000
00000000
00001000
00010000
,
00000100
00000000
00001000
00000000
00000001
00001000
00000001
00000000
,
00000100
00000000
00000010
00000000
00001000
00000001
00000000
00000020
,
00000000
00000130
00010000
00002000
00000000
00000000
00003000
00000000
,
00200000
00000000
00320000
00000000
01030000
00100000
00010000
00200000
,
00000000
00000000
00000000
20300000
00000000
31000000
00100000
00010000
,
00100000
00000000
01000000
00000000
00010000
00001000
00000000
00020000
,
00000000
00030100
00001000
00000200
00000000
00000000
00000300
00000000
,
00010000
00001000
00100000
00001000
00000000
00010000
00000010
00001000
,
00000001
00000010
00000100
00001000
00000100
00000000
00000110
00000000
,
00000010
00000000
00000100
00000000
00001000
00000001
00000000
00000200
,
00000000
00000310
00010000
00002000
00000000
00000000
00003000
00000000
,
02000000
00000000
03020000
00000000
00130000
01000000
00010000
02000000
,
00000000
00000000
00000000
23000000
00000000
30100000
01000000
00010000
,
01000000
00000000
00100000
00000000
00010000
00001000
00000000
00020000
,
00000000
00030010
00001000
00000020
00000000
00000000
00000030
00000000
,
00010000
00001000
01000000
00001000
00000000
00010000
00000100
00002000
,
00000000
00003010
00000100
00000001
00000020
00000000
00000130
00000000
,
00001000
00001100
00000100
00010100
,
00010000
00011000
00001000
00101000
,
00100000
00000000
00010000
00000000
20000000
00000000
00000000
31000000
,
00000000
00100000
00010000
00000000
02000000
00000000
03000000
00000000
,
00010000
00000000
00100000
00000000
00001000
00000000
00010000
00000100
,
00000000
00000100
00001000
00000000
00000001
00000000
00000010
00000000
,
00000100
00000000
00001000
00000000
00000002
00000000
00000000
00000013
,
00000000
00000100
00001000
00000000
00000020
00000000
00000030
00000000
,
00001000
00000000
00000100
00000000
00010000
00000000
00001000
00100000
,
00000000
00100000
00010000
00000000
10000000
00000000
11000000
00000000
,
01000000
00000000
00100000
00000000
01000000
00000000
00000000
00000000
10000000
00000000
00000000
01000000
00000000
00100000
00000000
00000000
,
00010000
00100000
00001000
00020000
00000000
00000000
00030000
00000000
,
00000010
00000000
00001000
00000000
00000010
00000000
00000000
00000000
00001000
00000000
00000000
00000010
00000000
00000100
00000000
00000002
,
00000000
00000000
00000000
00000003
,
00000100
00000000
00000010
00000000
00000100
00000000
00000000
00000000
00000001
00000000
00000000
00000100
00000000
00000010
00000000
00000000
,
00010000
00001000
01000000
00020000
00000000
00000000
00030000
00000000
,
10000000
00100000
01000000
00001000
00010000
00000010
00001000
00000001
,
00000010
00000100
00001000
00000100
00010000
00001000
00100000
00010000
,
20000000
00000000
00000000
00000000
,
30000000
00000000
00200000
00000000
01300000
00001000
00010000
00000000
,
00000000
00000000
00000000
00000000
;
#NOTES:
     dance-double:
     :
     Hard:
     15:
     :
00000000
00000000
00000000
00000000
,
00000000
00000000
00000000
00000000
,
00000000
00000000
00000000
00000000
,
00000000
00000000
00000000
00000000
,
00000000
00000000
00000000
00000000
,
00000000
00000000
00000000
00000000
,
10000000
00000000
01000000
00000000
00100000
01000000
00000000
00200000
,
00000000
00310000
00001000
00000200
00000000
00000310
00000001
00001000
,
00000001
00000100
00001000
00000100
00000000
00000010
00010000
00002000
,
00000000
00010000
00010000
00010000
00013000
00000000
00101000
00000000
,
00100000
00000000
00010000
00000000
01000000
00000000
00010000
00000000
10000000
00000000
01000000
00100000
00000000
00010000
00000000
00100000
,
00001000
00000000
00010000
00000000
00000100
00000000
00002000
00000000
00000000
00000000
00003001
00000100
00000001
00000000
00000010
00000000
,
00000100
00000000
00000001
00000000
00000100
00000000
00001000
00000000
00000010
00000000
00000000
00000100
00000000
00001000
00000000
00020000
,
00000000
00000000
00130000
01000000
00100000
00000000
10000000
00000000
01000000
00000000
00100000
00000000
00010000
00000000
00001000
00000000
,
00000100
00000000
00001000
00000000
00000010
00000000
00001000
00000000
00000001
00000000
00000010
00000100
00000000
00001000
00000000
00000100
,
00010000
00000000
00001000
00000000
00100000
00000000
00020000
00000000
00000000
00000000
10030000
00100000
10000000
00000000
01000000
00000000
,
00100000
00010000
00100000
00000000
00001000
00000000
00010000
00000000
00000100
00001000
00000100
00000000
00000010
00000000
00000001
00000000
,
00001000
00001000
00000100
00010100
00000000
00011000
00101000
00000000
,
00100000
01000000
10000000
00000000
10000000
00000000
00010000
01000000
,
10000000
00000000
01000000
00000000
00010000
00000000
00100000
00000000
00010000
00000000
00100000
00001000
00010000
00000000
00000100
00000000
,
00001000
00000010
00000100
00000000
00000001
00000000
00001000
00000100
,
00000001
00000000
00000100
00000000
00001000
00000000
00000010
00000000
00001000
00000000
00000010
00010000
00001000
00000000
01000000
00000000
,
00010000
00100000
01000000
00000000
11000000
00000000
10000000
01000000
,
00010000
00001000
00000010
00000001
00000000
00001000
00000010
00000100
,
00000010
00000000
00000010
00000100
00001000
00010000
00001000
00000100
,
00000002
00000000
00000000
00000010
00000013
00000000
00001001
00000000
,
00001000
00000100
00000010
00000000
00000001
00000000
00001000
00000010
,
00000001
00000000
00000010
00000000
00001000
00000000
00000100
00000000
00001000
00000000
00000100
00010000
00001000
00000000
01000000
00000000
,
00010000
00100000
01000000
00000000
10000000
00000000
00100000
01000000
,
10000000
00000000
01000000
00000000
00010000
00000000
00100000
00000000
00010000
00000000
00100000
00001000
00010000
00000000
00000100
00000000
,
00001000
00000010
00000100
00001000
00000100
00000001
00000010
00002000
,
00000000
00013000
00100000
10000000
00000000
01000000
00100000
01000000
,
00100000
00000000
00000000
00000000
00100000
00000000
01000000
00000000
00010000
00000000
00000000
00001000
00000000
00000000
00020000
00000000
,
00000000
00031000
00000100
00000001
00000101
00000000
00000100
00000000
,
00000020
00000000
00000000
00000100
00000230
00000000
00000301
00000000
,
00002000
00000000
00000000
00000100
00003200
00000000
00010300
00000000
,
00002000
00000000
00000000
01000000
02003000
00000000
03010000
00000000
,
00200000
00000000
00000000
01000000
02300000
00000000
13000000
00000000
,
20000000
00000000
00100000
30200000
00000000
01300000
02000000
00000000
,
03002000
00000000
00013000
00020000
00000000
00130000
10000000
00010000
,
00200000
00000000
00001000
00302000
00000000
00013000
00000020
00000000
,
00001030
00000000
00000001
00000000
00001000
00000000
00000000
00000000
00000001
00000000
00000000
00000010
00000000
00000000
00000100
00000000
,
00001000
00000010
00000100
00001000
00010000
00100000
10000000
00010000
,
00100000
00010000
00100000
00000000
00001000
00010000
00001000
00000000
00010000
00000100
00010000
00001000
00100000
00000000
00000000
00000000
,
00110000
00000000
01020000
00000000
10030000
00100000
01000000
00020000
,
00000000
00130000
00001000
00010000
00001000
00000010
00000001
00000100
,
00000101
00000000
00000012
00000000
00001003
00000100
00000001
00000200
,
00001000
00000000
00010300
00002000
00000000
00103000
00010000
10000000
,
10100000
00000000
20010000
00000000
31000000
00100000
00010000
00002000
,
00000000
00003100
00000010
00000100
00001000
00010000
00100000
01000000
,
10000000
00100000
01000000
00020000
00000000
00130000
01000000
00010000
,
00001000
00010000
00001000
00010000
00001000
00000000
00010000
00000000
00011000
00000000
00000000
00000000
00010100
00000000
00000000
00000000
,
00001100
00000000
00002010
00000000
00003001
00000100
00000010
00002000
,
00000000
00003100
00010000
00001000
00010000
01000000
10000000
00100000
,
10100000
00000000
21000000
00000000
30010000
00100000
10000000
00200000
,
00010000
00000000
00301000
00020000
00000000
00030100
00001000
00000001
,
00000101
00000000
00001002
00000000
00000013
00000100
00001000
00020000
,
00000000
00130000
01000000
00100000
00010000
00001000
00000100
00000010
,
00000001
00000100
00000010
00002000
00000000
00003100
00010000
00020000
,
00000000
00031000
00001000
00100000
00110000
00000000
10010000
00000000
,
10000000
00010000
00110000
00000000
00010000
00100000
00101000
00000000
,
00100000
00001000
00011000
00000000
00010100
00000000
00000110
00000000
,
00000010
00000001
00000100
00000000
00000110
00000000
00000010
00000100
,
00001000
00000100
00000020
00000000
00001000
00000000
00010030
00000000
,
00011000
00000000
00100000
00000000
01010000
00000000
00010000
00100000
,
00001000
00010000
00001000
00000000
00110000
00000000
01100000
00000000
,
01000000
10000000
00100000
00000000
01100000
00000000
01000000
00100000
,
00010000
00100000
02000000
00000000
00010000
00000000
03001000
00000000
,
00011000
00000000
00000100
00000000
00001010
00000000
00001000
00000100
,
00010000
00001000
00010000
00000000
00001100
00000000
00000110
00000000
,
00000100
00000000
00001000
00000000
00000010
00000000
00001000
00000000
00000001
00000000
00000010
00000100
00000000
00001000
00000000
00000100
,
00010000
00000000
00001000
00000000
00100000
00000000
00020000
00000000
00000000
00000000
10030000
00100000
10000000
00000000
01000000
00000000
,
00100000
00000000
10000000
00000000
00100000
00000000
00010000
00000000
01000000
00000000
00000000
00100000
00000000
00010000
00000000
00002000
,
00000000
00000000
00003100
00000010
00000100
00000000
00000001
00000000
00000010
00000000
00000100
00000000
00001000
00000000
00010000
00000000
,
00100000
00000000
00010000
00000000
01000000
00000000
00010000
00000000
10000000
00000000
01000000
00100000
00000000
00010000
00000000
00100000
,
00001000
00000000
00010000
00000000
00000100
00000000
00002000
00000000
00000000
00000000
00003001
00000100
00000001
00000000
00000010
00000000
,
00000100
00001000
00000100
00000000
00010000
00000000
00001000
00000000
00100000
00010000
00100000
00000000
01000000
00000000
10000000
00000000
,
01000000
00100000
00010000
00000000
00100000
00001000
00010000
00000000
00001000
00010000
00000100
00001000
00000001
00000100
00000010
00000000
,
00000200
00000000
00000000
00000000
,
00000300
00000000
00000020
00000000
00001030
00010100
00101000
00000000
,
00000000
00000000
00000000
00000000
;
