
//----- song ID: warn -----//
#TITLE:WARNING×WARNING×WARNING;
#ARTIST:暁Records;
#ARTISTTRANSLIT:Akatsuki Records;
#BANNER:WARNING WARNING WARNING.png;
#BACKGROUND:WARNING WARNING WARNING-bg.png;
#CDTITLE:./CDTitles/jubeat festo.png;
#MUSIC:WARNING WARNING WARNING.ogg;
#SAMPLESTART:13.954;
#SAMPLELENGTH:15;
#BPMS:0=172;
#NOTES:
     dance-single:
     :
     Beginner:
     3:
     :
0000
0000
0000
0000
,
0000
0000
0000
0000
,
0000
0000
0000
0000
,
0000
0000
0000
0000
,
0000
0000
0000
0000
,
0000
0000
0000
0000
,
0001
0000
0000
0000
,
1000
0000
0000
0000
,
0100
0000
0000
0000
,
0010
0000
0000
0000
,
0001
0000
1000
0000
,
0001
0000
0000
0000
,
1000
0000
0100
0000
,
0010
0000
0000
0000
,
0001
0000
1000
0000
,
0001
0000
0000
0000
,
0100
0000
0010
0000
,
2000
0000
0000
0000
,
3000
0000
0000
0000
,
0001
0000
0000
0000
,
0100
0000
0010
0000
,
0100
0000
0000
0000
,
0001
0000
0000
0000
,
1000
0000
0000
0000
,
0010
0000
0100
0000
,
0010
0000
0000
0000
,
1000
0000
0000
0000
,
0001
0000
0000
0000
,
0100
0000
0010
0000
,
1000
0000
0001
0000
,
1000
0000
0000
0000
,
0100
0000
0100
0000
,
0010
0000
0010
0000
,
0001
0000
0000
0000
,
1000
0000
0000
0000
,
0002
0000
0000
0000
,
0003
0000
0000
0000
,
2000
0000
0000
0000
,
3000
0000
0000
0000
,
0100
0000
0000
0000
,
0100
0000
0000
0000
,
0010
0000
0000
0000
,
0010
0000
0000
0000
,
0001
0000
1000
0000
,
0001
0000
0000
0000
,
0100
0000
0010
0000
,
0100
0000
0000
0000
,
0000
0000
0000
0000
,
0000
0000
0000
0000
,
0001
0000
0010
0000
,
0100
0000
0000
0000
,
1000
0000
0010
0000
,
0100
0000
0000
0000
,
0001
0000
0100
0000
,
0010
0000
0000
0000
,
1000
0000
0010
0000
,
0100
0000
0000
0000
,
1001
0000
0000
0000
,
0001
0000
1000
0000
,
0001
0000
1000
0000
,
0001
0000
0000
0000
,
0100
0000
0000
0000
,
0001
0000
1000
0000
,
0001
0000
1000
0000
,
0001
0000
0000
0000
,
0010
0000
0000
0000
,
0100
0000
0000
0000
,
1000
0000
1000
0000
,
1000
0000
0000
0000
,
0001
0000
0001
0000
,
0001
0000
0000
0000
,
0100
0000
0100
0000
,
0100
0000
0000
0000
,
0010
0000
0010
0000
,
0010
0000
0000
0000
,
1000
0000
0000
0000
,
0001
0000
0000
0000
,
0010
0000
0000
0000
,
0100
0000
0000
0000
,
1000
0000
0001
0000
,
1000
0000
0000
0000
,
0010
0000
0100
0000
,
0010
0000
0000
0000
,
1000
0000
0010
0000
,
0100
0000
0000
0000
,
0001
0000
0010
0000
,
0100
0000
0000
0000
,
1001
0000
0000
0000
,
0001
0000
1000
0000
,
0001
0000
1000
0000
,
0001
0000
0000
0000
,
0100
0000
0000
0000
,
0010
0000
0000
0000
,
0000
0000
0000
0000
;
#NOTES:
     dance-single:
     :
     Easy:
     6:
     :
0000
0000
0000
0000
,
0000
0000
0000
0000
,
0000
0000
0000
0000
,
0000
0000
0000
0000
,
0000
0000
0000
0000
,
0000
0000
0000
0000
,
2000
0000
0000
0000
,
3002
0000
0000
0000
,
0203
0000
0000
0000
,
0320
0000
0000
0000
,
1030
0001
1000
0000
,
0010
0100
0010
0000
,
1000
0000
0100
0000
,
0010
0000
0001
0000
,
1000
0001
1000
0000
,
0100
0010
0100
0000
,
0001
0000
0100
0000
,
0010
0000
1000
0000
,
1001
0000
0000
0000
,
0002
0003
0100
0000
,
0010
1000
0100
0000
,
1000
0000
0010
0000
,
0100
0001
1000
0100
,
2000
3000
0100
0000
,
0010
0001
0100
0000
,
0001
0000
0010
0000
,
0100
1000
0001
0100
,
0020
0030
1000
0000
,
0001
0100
1000
0000
,
0100
0000
0001
0000
,
1000
0001
0100
0010
,
0200
0000
0302
0000
,
1003
0100
0001
0000
,
0100
0000
1000
0000
,
0001
1000
0010
0100
,
0002
0000
0000
0000
,
2003
0000
0000
0000
,
3200
0000
0000
0000
,
0320
0000
0000
0000
,
0031
0000
0100
0000
,
0010
0000
1000
0000
,
0100
0000
0010
0000
,
0001
0000
1000
0000
,
0001
1000
0010
0000
,
1000
0001
0010
0100
,
2000
0000
0000
0000
,
3002
0000
0000
0000
,
0003
0000
0000
0000
,
0000
0000
0000
0000
,
0001
0010
0100
1000
,
0001
0000
1000
0000
,
0001
0100
0001
0100
,
0001
0000
1000
0000
,
0001
0100
0010
1000
,
0001
0000
1000
0000
,
0010
1000
0010
1000
,
0010
0000
0000
0000
,
0200
0000
0000
0000
,
0301
1000
0001
0100
,
1000
0000
0100
0000
,
0010
1000
0100
1000
,
0010
0000
0100
0000
,
0001
1000
0001
0010
,
1000
0000
0010
0000
,
0100
1000
0010
1000
,
0200
0000
0000
0000
,
0320
0000
0000
0000
,
0031
1000
0001
1000
,
0010
0100
0010
0100
,
0001
1000
0100
0010
,
0002
0000
0000
0000
,
1003
0001
1000
1000
,
0010
0100
0010
0000
,
1000
0000
0001
0000
,
2002
0000
0000
3003
,
0200
0000
0320
0000
,
2030
0000
3002
0000
,
1003
0001
1000
0001
,
2000
0000
0000
0000
,
3010
0000
0010
0000
,
0100
0000
0100
0000
,
0001
0000
0001
0000
,
1000
0000
1000
0000
,
0001
0000
1000
0000
,
0010
0000
0100
0000
,
0001
0000
1000
0000
,
0010
0100
0010
0100
,
0010
0000
0000
0000
,
1000
0000
0100
0000
,
0010
0000
0001
0000
,
2000
0000
3002
0000
,
0203
0000
0000
0000
,
0320
0000
0000
0130
,
0000
0000
0000
0000
;
#NOTES:
     dance-single:
     :
     Medium:
     10:
     :
0000
0000
0000
0000
,
0000
0000
0000
0000
,
0000
0000
0000
0000
,
0000
0000
0000
0000
,
0000
0000
0000
0000
,
0000
0000
0000
0000
,
0002
0000
0000
0000
,
0203
0000
0000
0000
,
0320
0000
0000
0000
,
2030
0000
0000
0002
0000
0000
3003
0000
,
1000
0001
0100
0010
,
1000
0000
0100
0000
0010
0000
0100
1000
,
0010
0100
0010
1000
0100
1000
0001
0100
,
0002
0000
0000
0003
,
1000
0001
0010
0100
,
1000
0000
0010
0000
0100
0000
0001
0010
,
0100
0010
0001
0000
1000
0010
1000
0000
,
2002
0000
0000
0000
,
3003
0000
0000
0000
,
0002
1003
0010
0100
,
0001
0100
1000
0100
,
0010
0100
0001
0000
0010
0100
1000
0000
,
0001
0100
0010
0100
0002
0000
1003
0000
,
2000
3001
0010
0100
,
1000
0100
0001
0100
,
0010
0100
1000
0000
0010
0100
0001
0000
,
1000
0100
0010
0100
2000
0000
3001
0000
,
0200
0000
0310
0000
1000
0001
1000
0001
,
0100
0010
0100
0010
1000
0000
1000
0000
,
0001
1000
0010
0000
0100
0001
1000
0000
,
0010
0100
1001
0110
,
0200
0302
1003
0100
,
0010
0100
0010
0100
0010
0000
0110
0000
,
0020
0000
0031
0200
0000
1300
0000
0000
,
0100
0001
0010
0100
,
2000
0000
0000
0000
,
3002
0000
0000
0000
,
0203
0000
0000
0000
,
0320
0000
0000
0000
,
1030
0100
0010
0100
,
0001
0100
0010
0100
,
0001
0100
1000
0010
,
0100
1000
0100
0001
,
2000
0000
0000
3001
0200
0000
0300
0000
,
0001
1000
0100
0010
,
0002
0000
0000
0000
,
2000
0000
0000
0000
,
3003
0000
0000
0000
,
0001
0000
0000
0010
0000
0000
0100
0000
1000
0000
0000
0000
0000
0000
0000
0000
,
0001
0100
0010
0100
0001
0000
0010
0000
,
0100
0000
1000
0000
0100
0000
0010
0100
,
1000
0001
1000
0010
0100
0010
1000
0001
,
0200
0000
0310
0010
,
1000
0100
0010
0100
1000
0000
0010
0000
,
0100
0000
0001
0000
0100
0000
0010
0100
,
0001
1000
0001
0000
0100
0010
1000
0000
,
0200
0000
0310
0010
,
0020
0000
0000
0000
,
0130
1000
0001
1000
0100
0000
0010
0000
,
0001
0000
0010
0000
1000
0000
0010
0100
,
1000
0010
1000
0001
0010
0001
1000
0100
,
2000
0000
3001
0001
,
0100
0001
1000
0001
0100
0000
0010
0000
,
1000
0000
0010
0000
0001
0000
0010
0100
,
0001
0010
0001
0000
1000
0010
1000
0000
,
0002
0000
1003
1000
,
2000
0000
0000
3000
,
0002
0013
0020
0130
,
0200
1300
2000
3001
,
0100
0010
1000
0001
,
0020
0000
0030
0000
,
0002
1003
0100
0100
,
0010
0001
1000
0000
,
1010
0000
1001
0000
,
0202
0000
0000
0303
,
0002
0103
0200
0310
,
0020
1030
2000
3001
,
0101
0000
1001
0000
,
2020
0000
0000
3030
,
1000
0100
1000
0000
0010
0100
0010
0000
,
0100
0001
0100
0000
0001
1000
0001
0000
,
1000
0100
0001
0100
,
1000
0001
1000
0001
1000
0000
1001
0000
,
0001
0100
0001
0000
0010
0100
0010
0000
,
0100
1000
0100
0000
1000
0001
1000
0000
,
0001
0100
1000
0100
,
0001
1000
0001
1000
0001
0000
1001
0000
,
1000
0100
0000
0010
0000
0100
1000
0100
,
0010
0001
0010
1000
,
0010
0001
0100
1000
,
0200
0000
0302
0000
,
2003
0000
0000
0000
,
3001
1000
0010
0110
,
0000
0000
0000
0000
;
#NOTES:
     dance-single:
     :
     Hard:
     13:
     :
0000
0000
0000
0000
,
0000
0000
0000
0000
,
0000
0000
0000
0000
,
0000
0000
0000
0000
,
0000
0000
0000
0000
,
0000
0000
0000
0000
,
2000
0000
0000
0000
,
3002
0000
0000
0000
,
0203
0310
2000
3001
,
0101
0000
0000
2200
0000
0000
3300
0000
,
1000
0100
0010
0100
1000
0000
1001
0000
,
0202
0000
0000
0000
0303
0000
0001
0010
,
0100
0010
0001
1000
0010
0100
1000
0100
,
0002
0000
0000
0000
0103
0010
0100
0000
,
0001
0100
1000
0100
0001
0000
1001
0000
,
2200
0000
0000
0000
3300
0000
1000
0010
,
0001
0010
1000
0000
0001
0010
1000
0000
,
0020
0000
0000
0000
,
0130
0100
0000
0100
0000
0010
0100
0010
,
0002
0000
1003
0000
0001
0100
0001
0100
,
0001
0010
0100
1000
0001
0000
0100
0000
,
1000
0000
0100
0001
0010
0100
0010
0100
,
1000
0001
1000
0001
0200
0000
0310
0000
,
2000
0000
3001
0000
1000
0100
1000
0100
,
1000
0010
0100
0001
1000
0100
0001
0000
,
0100
0000
1000
0000
0010
0100
0010
0100
,
0001
1000
0001
1000
0200
0000
0310
0000
,
0002
0000
0103
0000
0001
0100
0010
0100
,
1000
0100
0010
0001
0010
0000
1000
0000
,
0001
0010
0100
0000
1000
0010
0100
0001
,
1000
0100
0010
0001
0011
0000
1100
0000
,
0200
0000
0320
0000
0031
1000
0010
0100
,
1000
0100
0010
1000
1100
0000
0101
0000
,
0002
0000
0103
2000
0000
3100
0000
0001
,
1000
0001
0010
0100
2000
0000
3001
0000
,
0220
0000
0000
0300
,
2000
0000
0000
0030
,
0200
0000
0000
3000
,
0020
0000
0000
0300
,
0031
1000
0001
1000
0010
0100
0001
0010
,
0001
1000
0001
1000
0100
0010
0001
0100
,
0001
0010
0001
0010
1000
0010
1000
0010
,
0001
0100
0001
0100
1000
0100
1000
0100
,
0020
0000
0000
0130
0200
0000
0300
0000
,
0002
2003
3200
0320
,
0032
0000
0000
0000
,
2000
0000
0000
0000
,
3003
0000
0000
0000
,
0010
0000
0000
0100
0000
0000
0010
0000
1001
0000
0000
0000
0001
0000
1000
0000
,
0010
0100
0010
0100
0110
0000
0011
0000
,
2020
0000
0000
0000
3030
0000
0001
1000
,
0001
0010
0100
1000
0010
0100
0001
1000
,
0100
0000
0110
0000
0001
0010
1000
0010
,
0001
0100
1000
0100
0110
0000
1100
0000
,
0202
0000
0000
0000
0303
0000
0001
1000
,
0001
0100
0010
0000
1000
0100
0010
0000
,
0012
1000
0103
1001
,
1100
0011
1010
0101
,
0100
0010
0100
0010
0110
0000
1100
0000
,
0202
0000
0000
0000
0303
0000
1000
0001
,
1000
0100
0010
0001
0010
1000
0001
0100
,
1000
0000
1001
0000
0001
0010
0100
1000
,
0001
1000
0010
0001
0010
0000
0110
0000
,
2002
0000
0000
0000
3003
0000
1000
0001
,
1000
0100
0001
0000
0001
0100
1000
0000
,
2100
0001
3010
1001
,
0100
0100
0000
0110
0000
0001
1000
0001
,
1000
1010
0010
0110
,
0100
0101
0001
0011
,
0010
0110
0100
1100
,
1000
0000
1001
1000
0010
0100
0010
1000
,
0001
0000
0101
0000
0100
0100
0100
0000
,
0002
0203
0302
1003
,
2020
3030
0202
0303
,
0100
0100
0100
0001
0010
0100
1000
0001
,
0102
1003
2010
3100
,
1200
0310
0120
0031
,
0011
1010
1100
0101
,
0001
1000
0001
0000
0100
0000
0110
0000
,
1000
0010
0100
0010
0001
1000
0100
0010
,
1000
0100
0010
0100
1000
0001
0010
0100
,
1000
0001
0010
0001
1000
0001
0100
0001
,
1000
0010
1000
0010
1000
0010
1000
0100
,
1000
0010
0100
0010
0001
1000
0100
0010
,
1000
0100
0010
0100
1000
0001
0010
0100
,
1000
0001
0010
0001
1000
0001
0100
0001
,
1000
0100
1000
0100
1000
0100
1000
0010
,
0100
0100
0000
0100
0000
0100
0110
0010
,
1000
0001
1000
0001
0020
0000
0230
0000
,
2300
0000
0000
0000
0000
0000
3001
0100
,
1000
0100
0002
0000
1003
0100
0020
0000
,
0200
0000
0000
0330
,
0010
0010
0000
0100
0100
0000
1001
0000
,
0000
0000
0000
0000
;
#NOTES:
     dance-single:
     :
     Challenge:
     17:
     :
0000
0000
0000
0000
,
0000
0000
0000
0000
,
0000
0000
0000
0000
,
0000
0000
0000
0000
,
0000
0000
0000
0000
,
0000
0000
0000
0000
,
2100
0000
0000
0000
0000
0000
0000
3000
,
0012
0000
0000
0000
0000
0000
0000
0003
,
0000
1001
0000
1001
,
0220
0000
0330
2002
0000
0000
3003
0000
,
1010
1000
0100
0010
0011
0001
0100
0010
,
0220
0000
0000
0300
1030
0000
0010
1000
,
1010
0110
0101
0011
0110
1100
1001
0110
,
2002
0000
0000
0003
3100
0000
1000
0100
,
1100
0110
0011
0101
0110
1010
1001
0110
,
2002
0000
0000
3000
0013
0000
0001
0010
,
0011
0010
0100
1000
1100
1010
0101
0011
,
2002
0000
0000
3003
,
0011
1001
0000
1001
0000
1001
1100
0000
,
2200
0300
3010
0000
1010
1000
0010
0001
,
0011
0001
0010
1000
2002
3000
0103
0000
,
1001
0000
0001
0010
0011
0001
0010
1000
,
1010
1000
0010
0001
0022
0030
0103
0000
,
0220
0300
1030
0000
1010
0010
0100
0001
,
0011
0010
0100
1000
1100
0110
0011
0000
,
0022
0030
0103
0000
0101
0100
0001
0010
,
1100
0100
1000
0010
0110
MMMM
1001
0000
,
0202
0003
0310
0000
0110
0010
1000
0100
,
0110
0010
0001
0100
0220
0300
1030
0000
,
2020
3030
0202
0303
0101
1001
0011
0110
,
1100
1001
1010
0110
2002
0003
3100
0000
,
2200
3300
0220
0330
0011
1001
0101
1001
,
1010
1001
1100
1001
2002
3000
0013
0000
,
0210
0000
1300
2100
0000
3001
0000
0101
,
1100
0101
1010
0011
2020
0000
3030
0000
,
2010
0000
0000
0100
0000
0000
3010
0000
,
0102
0000
0000
0010
0000
0000
0103
0000
,
0021
0100
1000
0130
,
0220
0000
0000
0330
,
1001
1000
0100
0010
0110
0100
0010
0001
,
1001
0001
0100
0010
0110
0100
0010
1000
,
1001
0001
0010
0100
0110
0010
0100
1000
,
1100
1100
0011
0011
0101
0101
1010
1010
,
2001
0000
3000
0100
2000
0000
3001
0000
,
0022
0033
0202
0303
2020
3030
2200
3300
,
1100
0100
0110
0010
0011
0001
0101
0100
,
0220
0000
0000
0000
0000
0000
0000
0330
,
2002
0000
0000
0000
0000
3003
0000
0000
,
0010
0000
0000
0010
0000
0000
0010
0000
1001
0000
0000
0000
0011
0000
1100
0000
,
1000
0000
0100
0010
0001
0000
0100
0000
0101
0000
0110
0000
2020
0000
3030
0000
,
2200
0000
0000
0300
3001
0000
0001
0010
,
0110
0000
0010
0001
0100
0000
0110
0000
0100
0001
0010
0000
0110
0000
1100
0000
,
0110
MMMM
0011
0000
1100
1010
0101
0011
,
0001
0000
0010
0100
1000
0000
0010
0000
1010
0000
0110
0000
0202
0000
0303
0000
,
2020
0000
0000
0030
3001
0000
0001
0100
,
0101
0000
0001
0100
0010
0000
1000
0000
1100
0000
1000
0100
0010
0000
0001
0000
,
0022
0000
0000
0033
,
1001
0010
1001
0100
1001
0010
1001
0100
,
0011
0000
0001
0010
0100
0000
1000
0000
1010
0000
MMMM
0000
0110
0000
MMMM
0000
,
0202
0000
0000
0300
1003
0000
1000
0100
,
0110
0000
0100
1000
0010
0000
0110
0000
0010
1000
0100
0000
1100
0000
0110
0000
,
0022
0030
0103
0000
0101
0110
1010
0000
,
1100
0000
1000
0100
0010
0000
0001
0000
0101
0000
MMMM
0000
0110
0000
MMMM
0000
,
2020
0000
0000
0030
3001
0000
0001
0010
,
0011
0000
0001
0010
0100
0000
1000
0000
1010
0000
1000
0010
0100
0000
0001
0000
,
0202
0000
0000
0303
,
0101
1010
0000
1001
0000
0011
1100
0000
,
2200
3000
0310
MMMM
0220
0300
0031
MMMM
,
0202
0003
0310
MMMM
0220
0300
1030
MMMM
,
2020
0030
3001
MMMM
0022
0030
1003
MMMM
,
2200
0300
3001
0100
0010
1000
0100
0010
,
0022
0030
1003
MMMM
0011
0110
1100
0000
,
2200
0300
0002
3000
0103
0000
0202
0300
,
2000
0003
0020
3000
0200
0030
0002
0303
,
0101
0110
1010
0000
1001
0000
MMMM
0000
,
0202
0300
0013
MMMM
0002
0023
0230
2300
,
0020
3030
0220
0330
2002
3003
0011
0000
,
0202
0000
0000
0303
0220
0000
0000
0330
,
1010
0110
0101
0000
0011
0000
0110
0000
,
1001
0100
0010
0100
1001
0010
0100
0010
,
MMMM
0000
0001
0100
0010
0000
1010
0000
MMMM
0000
1000
0100
0010
0000
0011
0000
,
0012
1003
2010
3001
0102
1003
2100
3001
,
1002
0013
2001
3010
1002
0103
2001
3100
,
1100
1000
0100
0001
0101
0001
0100
1000
,
0001
0100
1000
0100
0001
0000
MMMM
0000
1000
0010
0001
0010
1000
0000
MMMM
0000
,
0201
0310
2010
3100
1200
0310
0012
0103
,
0021
0130
2100
3010
1020
0130
0102
0013
,
0011
0101
1010
1100
0110
1001
0110
1001
,
1000
0100
0010
0001
0022
0033
0220
0330
,
2200
0000
0000
0300
3001
0000
1000
0001
,
0202
0000
0000
0303
2020
0000
0000
3030
,
0220
0000
0000
0000
0000
0000
0000
0330
,
0101
1100
0000
1100
0101
0000
1001
0000
,
0000
0000
0000
0000
;
#NOTES:
     dance-double:
     :
     Easy:
     6:
     :
00000000
00000000
00000000
00000000
,
00000000
00000000
00000000
00000000
,
00000000
00000000
00000000
00000000
,
00000000
00000000
00000000
00000000
,
00000000
00000000
00000000
00000000
,
00000000
00000000
00000000
00000000
,
20000000
00000000
00000000
00000000
,
32000000
00000000
00000000
00000000
,
03200000
00000000
00000000
00000000
,
00320000
00000000
00000000
00000000
,
01030000
00010000
01000000
00000000
,
00001000
00010000
00001000
00000000
,
00100000
00001000
00010000
00000100
,
00001000
00000000
00000010
00000000
,
00000100
00000001
00000100
00000000
,
00000010
00000100
00000010
00000000
,
00010000
00000000
00001000
00000000
,
00100000
00000000
00010000
00000000
,
00110000
00000000
00000000
00000000
,
00200000
00300000
01000000
00000000
,
00100000
00010000
00100000
00000000
,
00001000
00000000
00010000
00000000
,
00001000
00100000
01000000
00000000
,
02000000
03000000
00100000
00000000
,
00001000
00100000
00001000
00000000
,
00010000
00000000
00000100
00000000
,
00001000
00000001
00000010
00000100
,
00020000
00030000
00001000
00000000
,
00010000
00000100
00001000
00000000
,
00000100
00000000
00001000
00000000
,
00000010
00010000
00001000
00100000
,
00020000
00000000
20030000
00000000
,
30010000
01000000
10000000
00000000
,
01000000
00000000
00010000
00000000
,
10000000
00100000
01000000
00010000
,
00200000
00000000
00000000
00000000
,
00302000
00000000
00000000
00000000
,
00023000
00000000
00000000
00000000
,
00032000
00000000
00000000
00000000
,
00013000
00000000
00000100
00000000
,
00001000
00000000
00000001
00000000
,
00000100
00000000
00000010
00000000
,
00001000
00000000
00000100
00000000
,
00010000
00001000
00100000
00000000
,
00010000
00100000
01000000
10000000
,
00020000
00000000
00000000
00000000
,
20030000
00000000
00000000
00000000
,
30000000
00000000
00000000
00000000
,
00000000
00000000
00000000
00000000
,
00010000
00100000
00001000
00010000
,
00002000
00000000
00003000
00000000
,
00010000
00000100
00001000
00000010
,
00000100
00000000
00000010
00000000
,
00010000
00000010
00001000
00000100
,
00010000
00000000
00000010
00000000
,
00001000
00000100
00000010
00000100
,
00002000
00000000
00000000
00000000
,
00003020
00000000
00000000
00000000
,
00010030
00001000
00010000
00001000
,
00100000
00000000
00010000
00000000
,
10000000
00100000
01000000
00010000
,
00100000
00000000
00001000
00000000
,
00010000
00001000
00010000
00000100
,
00001000
00000000
00000010
00000000
,
00010000
00000100
00001000
00000100
,
00000020
00000000
00000000
00000000
,
00000032
00000000
00000000
00000000
,
00001003
00000100
00010000
00001000
,
00100000
00001000
00010000
00000100
,
00001000
00000010
00001000
00000100
,
00020000
00000000
00000000
00000000
,
00031000
00100000
00010000
00010000
,
00100000
01000000
00100000
00000000
,
00010000
00000000
10000000
00000000
,
20020000
00000000
00000000
30030000
,
00020000
00000000
00230000
00000000
,
00302000
00000000
00023000
00000000
,
00031000
00010000
00000100
00010000
,
00002000
00000000
00000000
00000000
,
00013000
00000000
00010000
00000000
,
00000100
00000000
00000100
00000000
,
00001000
00000000
00001000
00000000
,
00000001
00000000
00000001
00000000
,
00000100
00000000
00000010
00000000
,
00001000
00000000
00000100
00000000
,
00010000
00000000
00001000
00000000
,
00100000
00010000
00100000
00010000
,
00100000
00000000
00000000
00000000
,
00010000
00000000
01000000
00000000
,
00100000
00000000
10000000
00000000
,
00020000
00000000
00230000
00000000
,
00302000
00000000
00000000
00000000
,
00023000
00000000
00000000
00031000
,
00000000
00000000
00000000
00000000
;
#NOTES:
     dance-double:
     :
     Medium:
     10:
     :
00000000
00000000
00000000
00000000
,
00000000
00000000
00000000
00000000
,
00000000
00000000
00000000
00000000
,
00000000
00000000
00000000
00000000
,
00000000
00000000
00000000
00000000
,
00000000
00000000
00000000
00000000
,
00000002
00000000
00000000
00000000
,
00002003
00000000
00000000
00000000
,
00003200
00000000
00000000
00000000
,
00020300
00000000
00000000
00002000
00000000
00000000
00033000
00000000
,
00100000
00010000
00100000
00010000
,
10000000
00000000
00100000
00000000
01000000
00000000
00010000
10000000
,
00010000
00100000
01000000
10000000
00100000
01000000
00010000
00100000
,
00002000
00000000
00000000
00000000
,
00013000
00000100
00001000
00000010
,
00010000
00000000
00000100
00000000
00000010
00000000
00000001
00000010
,
00000100
00000010
00000001
00000000
00001000
00000010
00000100
00000000
,
00002002
00000000
00000000
00000000
,
00003003
00000000
00000000
00000000
,
00000002
00001003
00000100
00001000
,
00000100
00000001
00000100
00001000
,
00000010
00000100
00000010
00000000
00001000
00000100
00001000
00000000
,
00000100
00010000
00001000
00010000
00002000
00000000
00013000
00000000
,
00020000
00031000
00100000
00010000
,
00100000
10000000
00100000
00010000
,
00100000
01000000
00100000
00000000
00010000
00100000
00010000
00000000
,
00100000
00001000
00010000
00001000
00020000
00000000
00031000
00000000
,
00002000
00013000
00000100
00001000
,
00000100
00000001
00000100
00001000
,
00000100
00010000
00001000
00000000
00010000
00000100
00000010
00000000
,
00000100
00001000
00001001
00000110
,
00000020
00002030
00003100
00010000
,
00001000
00010000
00001000
00010000
00001000
00000000
00011000
00000000
,
00002000
00000000
00103000
00020000
00000000
10030000
00000000
00000000
,
00010000
10000000
00100000
01000000
,
00020000
00000000
00000000
00000000
,
20030000
00000000
00000000
00000000
,
32000000
00000000
00000000
00000000
,
03200000
00000000
00000000
00000000
,
00301000
00010000
00001000
00010000
,
00000100
00001000
00000100
00001000
,
00000010
00000100
00001000
00000100
,
00000010
00010000
00001000
00000100
,
00000002
00000000
00000000
00001003
00000200
00000000
00000000
00000300
,
00001000
00000100
00010000
00001000
,
00020000
00000000
00000000
00000000
,
00002000
00000000
00000000
00000000
,
00033000
00000000
00000000
00000000
,
00100000
00001000
00101000
00000000
,
00001000
00010000
00001000
00000000
00100000
00010000
00100000
00000000
,
00010000
00100000
01000000
10000000
,
00100000
01000000
00100000
10000000
00010000
00100000
00001000
00010000
,
00002000
00000000
00013000
00010000
,
00000100
00001000
00000100
00000000
00001000
00000001
00001000
00000000
,
00000001
00000100
00000010
00001000
,
00000100
00010000
00001000
00000000
00010000
00000010
00000100
00000000
,
00000020
00000000
00000130
00000100
,
00000200
00000000
00000000
00000300
,
00000010
00001000
00000010
00000000
00010000
00001000
00010000
00000000
,
00001000
00010000
00001000
00100000
,
00010000
00100000
01000000
10000000
00100000
01000000
00001000
00010000
,
00002000
00000000
00103000
00100000
,
01000000
00100000
01000000
00000000
00100000
00010000
00100000
00000000
,
00001000
00010000
00000100
00001000
,
00000001
00001000
00000001
00000000
00000100
00000010
00000100
00000000
,
00000002
00000000
00001003
00001000
,
00002000
00000000
00000000
00003000
,
00000200
00010300
00020000
00031000
,
00002000
00103000
00200000
00301000
,
00001000
01000000
00010000
10000000
,
00020000
00000000
00000000
00000000
,
00230000
01300000
10000000
10000000
,
00010000
00100000
00001000
00000000
,
00011000
00000000
00001100
00000000
,
00002002
00000000
00000000
00003003
,
00000002
00001003
00002000
00003010
,
00000020
00010030
00020000
00031000
,
00011000
00000000
00001010
00000000
,
00002002
00000000
00000000
00003003
,
00000001
00000010
00000001
00000000
00001000
00000100
00001000
00000000
,
00000100
00010000
00000100
00000000
00010000
00001000
00010000
00000000
,
00001000
00100000
00010000
01000000
,
00010000
10000000
00010000
10000000
00010000
00000000
10010000
00000000
,
10000000
01000000
10000000
00000000
00010000
00100000
00010000
00000000
,
00100000
00001000
00100000
00000000
00001000
00010000
00001000
00000000
,
00010000
00000100
00001000
00000010
,
00001000
00000001
00001000
00000001
00001000
00000000
00001001
00000000
,
00000001
00000010
00000100
00000110
,
00000010
00000001
00000100
00000010
,
00001000
00010000
01000000
00100000
,
20000000
00000000
30020000
00000000
,
02030000
00000000
00000000
00000000
,
03010000
00100000
00001000
00011000
,
00000000
00000000
00000000
00000000
;
#NOTES:
     dance-double:
     :
     Hard:
     13:
     :
00000000
00000000
00000000
00000000
,
00000000
00000000
00000000
00000000
,
00000000
00000000
00000000
00000000
,
00000000
00000000
00000000
00000000
,
00000000
00000000
00000000
00000000
,
00000000
00000000
00000000
00000000
,
20000000
00000000
00000000
00000000
,
30200000
00000000
00000000
00000000
,
02300000
03010000
00200000
00310000
,
01010000
00000000
00000000
00022000
00000000
00000000
00033000
00000000
,
00001000
00010000
00000100
00001000
00000010
00000000
00001010
00000000
,
00002002
00000000
00000000
00000000
00003003
00000000
00001000
00000001
,
00001000
00000100
00010000
00001000
00000010
00000100
00001000
00000100
,
00020000
00000000
00000000
00000000
00031000
00100000
00001000
00000000
,
00010000
00001000
00100000
00010000
01000000
00000000
01010000
00000000
,
20020000
00000000
00000000
00000000
30030000
00000000
10000000
00010000
,
10000000
01000000
00100000
00000000
00001000
00100000
00010000
00000000
,
20000000
00000000
00000000
00000000
,
31000000
01000000
00000000
01000000
00000000
00100000
00010000
00100000
,
00002000
00000000
00013000
00000000
00000100
00001000
00000100
00001000
,
00000001
00000100
00000010
00000100
00000001
00000000
00001000
00000000
,
00000010
00000000
00010000
00001000
00100000
00001000
00010000
00000010
,
00000100
00001000
00000100
00000001
00000200
00000000
00001300
00000000
,
00020000
00000000
00031000
00000000
01000000
00010000
01000000
00010000
,
10000000
01000000
00010000
01000000
10000000
01000000
00100000
00000000
,
00001000
00000000
00010000
00000000
00000100
00010000
00001000
00100000
,
01000000
00010000
01000000
10000000
02000000
00000000
03010000
00000000
,
00002000
00000000
00013000
00000000
00000100
00001000
00000100
00000010
,
00000001
00000010
00000100
00001000
00000100
00000000
00010100
00000000
,
00000100
00010000
00000010
00000000
00010000
00000100
00010000
00000010
,
00000100
00001000
00000100
00000001
00001001
00000000
00010010
00000000
,
00020000
00000000
00032000
00000000
00103000
00010000
00100000
00010000
,
10000000
00100000
00010000
00100000
00110000
00000000
10100000
00000000
,
20000000
00000000
31000000
00200000
00000000
00301000
00000000
00010000
,
00001000
00100000
00010000
00100000
02000000
00000000
13000000
00000000
,
02000000
00000000
00000000
00000000
,
00200000
00000000
00000000
03000000
,
00002000
00000000
00000000
00300000
,
00020000
00000000
00000000
00033000
,
00001000
00010000
00001000
00010000
00000100
00001000
00000010
00000100
,
00000001
00001000
00000001
00001000
00000010
00010000
00001000
00100000
,
00001000
00010000
00001000
00010000
00000100
00001000
00000100
00001000
,
00000010
00010000
00000010
00010000
00001000
01000000
00001000
01000000
,
00020000
00000000
00000000
01030000
02000000
00000000
00000000
00000000
,
03200000
20300000
32000000
03200000
,
00320000
00000000
00000000
00000000
,
20000000
00000000
00000000
00000000
,
30030000
00000000
00000000
00000000
,
00010000
00000000
00000000
00100000
00000000
00000000
01000000
00000000
01100000
00000000
00000000
00000000
01000000
00000000
00100000
00000000
,
00010000
00100000
10000000
00100000
01100000
00000000
00110000
00000000
,
00022000
00000000
00000000
00000000
00033000
00000000
00001000
00010000
,
00000010
00001000
00000001
00001000
00000100
00010000
00001000
00100000
,
00010000
00000000
00101000
00000000
00001000
00010000
00000010
00001000
,
00000001
00000100
00001000
00000100
00000110
00000000
00001010
00000000
,
00022000
00000000
00000000
00000000
00033000
00000000
00010000
00001000
,
01000000
00010000
10000000
00000000
01000000
10000000
00010000
00000000
,
02020000
00000000
03030000
01010000
,
01001000
00011000
00001100
00011000
,
00010000
01000000
10000000
01000000
01100000
00000000
01010000
00000000
,
00022000
00000000
00000000
00000000
00033000
00000000
00001000
00010000
,
00000100
00001000
00000001
00001000
00000010
00010000
00001000
01000000
,
00010000
00000000
01001000
00000000
00001000
00010000
00000100
00001000
,
00000001
00000100
00001000
00000100
00000110
00000000
00001010
00000000
,
00022000
00000000
00000000
00000000
00033000
00000000
00010000
00001000
,
00100000
00010000
10000000
00000000
00100000
10000000
00010000
00000000
,
00220000
00000000
00330000
00110000
,
00001000
00001000
00000000
00001000
00000000
00010000
00000100
00001000
,
00000100
00001100
00001000
00001001
,
00000001
00000101
00000100
00000110
,
00000010
00010010
00010000
00011000
,
00001000
00000000
00101000
00000000
00100000
00001000
00010000
00000100
,
00001000
00000000
00001100
00000000
00000100
00000100
00000100
00000000
,
00000020
00000230
00020300
00030000
,
00022000
00033000
00202000
00303000
,
00220000
00000000
00330000
00000000
,
20020000
30030000
22000000
33000000
,
02200000
03300000
00220000
00330000
,
00100000
00001000
00010000
00000100
,
00001000
00000001
00001000
00000000
00001100
00000000
00010100
00000000
,
00010000
00001000
00100000
00010000
00100000
01000000
00100000
10000000
,
00010000
01000000
10000000
00010000
00100000
10000000
00010000
01000000
,
10000000
00010000
00100000
00000000
00001000
00010000
00000100
00000000
,
00010000
00001000
00100000
00000000
01000000
00100000
00001000
00000000
,
00001000
00010000
00000100
00001000
00000100
00000010
00000100
00000001
,
00001000
00000010
00000001
00001000
00000100
00000001
00001000
00000010
,
00000001
00001000
00000100
00000000
00010000
00001000
00100000
00000000
,
00001000
00010000
01000000
00000000
10000000
01000000
00100000
00000000
,
00001000
00001000
00000000
00001000
00000000
00010000
00011000
00001000
,
00010000
00000100
00001000
00000100
00000020
00000000
00000032
00000000
,
00002003
00000000
00000000
00003100
,
00020200
00030300
00022000
00033000
,
00202000
00000000
00000000
00303000
,
00100000
00100000
00000000
01000000
01000000
00000000
10010000
00000000
,
00000000
00000000
00000000
00000000
;
#NOTES:
     dance-double:
     :
     Challenge:
     17:
     :
00000000
00000000
00000000
00000000
,
00000000
00000000
00000000
00000000
,
00000000
00000000
00000000
00000000
,
00000000
00000000
00000000
00000000
,
00000000
00000000
00000000
00000000
,
00000000
00000000
00000000
00000000
,
00002000
00000000
00000000
00000000
00000000
00000000
00000000
00003000
,
00020000
00000000
00000000
00000000
00000000
00000000
00000000
00030000
,
00000000
00110000
00000000
10100000
,
02002000
00000000
03003000
00020020
00000000
00000000
00030030
00000000
,
00000101
00000001
00000100
00001000
00011000
00010000
01000000
10000000
,
22000000
00000000
00000000
03000000
30100000
00000000
10000000
00100000
,
00110000
00010000
00001000
00001010
00000010
00000001
00000101
00000100
,
00000220
00000000
00000000
00000030
00001300
00000000
00000100
00001000
,
00001100
00001000
00010000
01000000
01010000
01000000
10000000
00100000
,
02200000
00000000
00000000
03000000
00310000
00000000
00100000
00010000
,
00011000
00001000
00000100
00001000
00011000
00010000
01000000
00010000
,
00022000
00000000
00000000
00033000
,
00001000
00010100
00000000
00011000
00000000
00010000
01001000
00000000
,
02020000
00030000
03100000
00000000
10100000
00100000
00010000
00001000
,
00001010
00000010
00000001
00000100
00000220
00000030
00001300
00000000
,
00011000
00000000
00001000
00100000
01000000
00010000
00000010
00000100
,
00001000
00010000
00100000
00010000
00022000
00030000
00003010
00000000
,
00000220
00000300
00000031
00000000
00000011
00000010
00001000
00010000
,
00110000
00100000
10000000
01000000
01100000
00100000
00001000
00000000
,
00022000
00030000
00003100
00000000
00001000
00010000
00100000
01000000
,
00010000
00001000
00000010
00000100
00000110
MMMMMMMM
00011000
00000000
,
02002000
00003000
03010000
00000000
10100000
00100000
00110000
00010000
,
00011000
00001000
00001010
00000010
00000022
00000030
00001003
00000000
,
00002020
00003030
00000202
00000303
00000011
00000010
00001010
00001000
,
00011000
00010000
00110000
00100000
20200000
00300000
30010000
00000000
,
00220000
00330000
02200000
03300000
11000000
01000000
00010000
00001000
,
00011000
00010000
00001000
00000010
00000022
00000030
00000103
00000000
,
00000210
00000000
00001300
00021000
00000000
00130000
00000000
00110000
,
00010000
00001000
00001010
00001000
00022000
00000000
00033000
00000000
,
00102000
00000000
00000000
00000100
00000000
00000000
00103000
00000000
,
00020100
00000000
00000000
00100000
00000000
00000000
00030100
00000000
,
00102000
00010000
01000000
00103000
,
02200000
00000000
00000000
03300000
,
01010000
00010000
00001000
00000100
00001100
00001000
00010000
01000000
,
01010000
00010000
00001000
00000010
00001010
00001000
00010000
00100000
,
00110000
00010000
00001000
00000100
00001100
00001000
00010000
01000000
,
01100000
01100000
00100000
00001000
00011000
00011000
00010000
00000010
,
00000202
00000000
00000303
00000100
00002000
00000000
00013000
00000000
,
00022000
00033000
02002000
03003000
02200000
03300000
20200000
30300000
,
10100000
00100000
00110000
00010000
00011000
00001000
00001100
00000100
,
00000202
00000000
00000000
00000000
00000000
00000000
00000000
00000303
,
00020020
00000000
00000000
00000000
00000000
00030030
00000000
00000000
,
00010000
00000000
00000000
00001000
00000000
00000000
00100000
00000000
01100000
00000000
00000000
00000000
01000000
00000000
00010000
00000000
,
00001000
00000000
00000010
00000001
00000100
00000000
00001000
00000000
00011000
00000000
00010000
00000000
00220000
00000000
00330000
00000000
,
20200000
00000000
00000000
30000000
01300000
00000000
00100000
01000000
,
00010000
00000000
00000010
00000100
00000010
00000000
00001000
00000000
00100000
01000000
00100000
00000000
00010000
00000000
01000000
00000000
,
01001000
MMMMMMMM
00011000
00000000
00001000
00000010
00000100
00001000
,
00010000
00000000
00100000
01000000
10000000
00000000
00100000
00000000
00010000
00000000
00001000
00000000
00002200
00000000
00003300
00000000
,
00000202
00000000
00000000
00000300
00001003
00000000
00000001
00001000
,
00001010
00000000
00000010
00001000
00010000
00000000
01000000
00000000
01100000
00000000
00100000
10000000
01000000
00000000
00010000
00000000
,
00022000
00000000
00000000
00033000
,
00001000
00000100
00010000
01000000
00001000
00000010
00010000
00100000
,
00001000
00000000
00100000
00010000
00001000
00000000
00000100
00000000
00000110
00000000
MMMMMMMM
00000000
00011000
00000000
MMMMMMMM
00000000
,
20020000
00000000
00000000
00030000
31000000
00000000
10000000
01000000
,
00010000
00000000
01000000
00010000
00001000
00000000
00011000
00000000
00010000
00001000
00000100
00000000
00001000
00000000
00100000
00000000
,
02200000
00300000
03010000
00000000
00011000
00001000
00000100
00000000
,
00001001
00000000
00000001
00000100
00001000
00000000
00010000
00000000
00011000
00000000
MMMMMMMM
00000000
00110000
00000000
MMMMMMMM
00000000
,
20200000
00000000
00000000
00300000
30010000
00000000
10000000
00010000
,
01000000
00000000
00100000
00010000
00001000
00000000
00010000
00000000
01000000
00000000
00010000
00001000
00000100
00000000
00000001
00000000
,
00000202
00000000
00000000
00000303
,
00001001
00011000
00000000
10010000
00000000
00011000
00001001
00000000
,
00020010
0000MMMM
00030100
0000MMMM
00102000
MMMM0000
01003000
MMMM0000
,
00022000
00003000
0013MMMM
0000MMMM
00022000
00030000
MMMM3010
MMMM0000
,
00022000
00003000
0103MMMM
0000MMMM
00022000
00030000
MMMM3100
MMMM0000
,
00022000
00003000
00130000
10000000
01000000
00010000
00001000
00000100
,
00000202
00000300
00001003
MMMMMMMM
00010010
00001000
00101000
00000000
,
02200000
00300000
00020000
03000000
00031000
00000000
00022000
00030000
,
00000020
00003000
00000002
00000030
00000200
00000003
00000020
00000330
,
00000100
00001000
00011000
00000000
00011000
00000000
MMMMMMMM
00000000
,
00022000
00003000
0103MMMM
0000MMMM
00020000
02030000
03200000
00320000
,
00032000
00000000
00000200
00000300
00020000
00030000
00000200
00003300
,
00020200
00000000
00000000
00030300
00202000
00000000
00000000
00303000
,
00100000
01000000
01010000
00000000
00011000
00000000
00010100
00000000
,
00020000
00000000
00001000
00000000
00100000
0000MMMM
00100000
00030000
00002000
00000000
00010000
00000000
00000010
MMMM0000
00000010
00003000
,
MMMM1000
00000000
00010000
00001000
00000100
00000000
MMMM1000
00000000
0001MMMM
00000000
00001000
00010000
01000000
00000000
0001MMMM
00000000
,
00002000
00103000
00002000
00003010
00002000
00103000
00002000
00003010
,
00020000
01030000
00020000
00030100
00020000
01030000
00020000
00030100
,
00001000
00010000
01000000
00010000
00001000
00010000
00100000
10000000
,
00100000
00010000
00001000
00000100
00000010
00000000
MMMM1000
00000000
00000100
00001000
00010000
00100000
01000000
00000000
0001MMMM
00000000
,
00002000
00003100
00002000
01003000
00002000
00003100
00002000
01003000
,
00020000
00030010
00020000
00130000
00020000
00030010
00020000
00130000
,
00001000
00010000
0010MMMM
00000000
00010000
00001000
MMMM0010
00000000
00001000
00010000
0100MMMM
00000000
00010000
00001000
MMMM0100
00000000
,
00001000
00010000
01000000
00010000
00022000
00033000
00020200
00030300
,
00002200
00000000
00000000
00003000
00000310
00000000
00000010
00001000
,
00022000
00000000
00000000
00033000
02200000
00000000
00000000
03300000
,
20020000
00000000
00000000
00000000
00000000
00000000
00000000
30030000
,
11000000
01010000
00000000
00011000
00001100
00000000
00001001
00000000
,
00000000
00000000
00000000
00000000
;
